#TITLE:もぺもぺ;
#TITLETRANSLIT:Mopemope;
#ARTIST:LeaF & Optie;
#MUSIC:Mopemope.ogg;
#BANNER:Mopemope.png;
#BACKGROUND:Mopemope-bg.png;
#SAMPLESTART:26.611;
#SAMPLELENGTH:15;
#OFFSET:-0.211;
#BPMS:0=100
,77=50
,81=100
,113=200
,209=100
,226.25=400
,232=100;
#BGSTAGE:29;

//--------------- dance-single - XLev450X -かわいい--bSP ----------------
#NOTES:
     dance-single:
     XLev450X -かわいい-:
     Beginner:
     6:
     0,0,0,0,0:
0000
0000
0000
0000
,
0000
0000
0000
0000
,
0000
0000
0000
0000
,
0010
1000
0001
0000
,
1000
0001
0100
0000
,
0001
1000
0001
0000
,
0010
1000
0010
0000
,
0100
0100
0001
1000
,
0010
1000
0001
0100
,
0010
1000
0001
1000
,
0001
0100
0010
0000
,
1000
0001
1000
0010
,
1000
0001
0100
0000
,
0010
1000
0001
0100
,
1000
0001
0010
0000
,
0001
1001
1000
1001
,
0010
0110
0100
0110
,
0001
1000
0001
0000
,
1000
0001
1000
0000
,
1001
0000
0000
0000
,
0000
0010
0100
1000
,
0001
0100
1000
0010
,
1000
0001
0100
1000
,
0010
0001
0100
1000
,
0001
0020
0000
2030
,
0000
3002
0000
0103
,
0000
0001
0000
1000
,
0000
0010
0000
1000
,
0000
0001
0000
1000
,
0000
0010
0000
0001
,
0010
1000
0000
0100
,
0000
1000
0000
0001
,
1000
0001
0000
1000
,
0000
0010
0000
1000
,
0010
1000
0000
0100
,
0000
1000
0001
0010
,
1000
0202
0303
0202
,
0303
0202
0303
0202
,
0303
0101
0000
0101
,
0000
0101
0000
0101
,
0000
2020
3030
2020
,
3030
2020
3030
2020
,
3030
1010
0000
1010
,
0000
1010
0000
1010
,
0000
0001
1000
0010
,
1000
0100
0001
1000
,
0010
1000
0100
1000
,
0001
0000
0010
0000
0001
0010
0001
0000
,
1000
0001
1000
0010
,
1000
0000
0010
1000
0010
0000
0001
0000
,
0010
0000
0001
0010
0001
0000
1000
0010
,
1000
0000
0010
0100
0010
0000
0100
0000
,
0001
1000
0001
1000
,
0100
0001
1000
0001
,
0000
1000
0010
1000
,
0001
0100
0010
1000
,
0001
1001
0000
0000
;

//--------------- dance-single - XLev450X -かわいい--BSP ----------------
#NOTES:
     dance-single:
     XLev450X -かわいい-:
     Easy:
     9:
     0,0,0,0,0:
0000
0000
0000
0000
,
0000
0000
0000
0000
,
0000
0000
0000
0000
,
0001
1000
0010
0000
1000
0100
0001
1000
,
0010
0000
1000
0001
0010
0000
0001
0000
1000
0000
0001
1000
0010
0000
0000
0000
,
0100
0000
1000
0000
0001
0000
0000
0000
0010
1000
0010
0000
0100
0000
0001
0010
,
0001
0000
1000
0000
0001
0000
0100
0000
1000
0000
0010
1000
0010
0000
0000
0000
,
0001
1000
0001
0100
1000
0001
0010
0000
,
1000
0100
0001
1000
0010
1000
0100
0000
,
0001
0010
0100
0000
1000
0010
1000
0000
,
0001
0000
1000
0000
0010
0000
0100
0000
0010
0000
1000
0001
1000
0000
0000
0000
,
0010
1000
0100
0001
0001
1000
0010
0000
,
1000
0100
1000
0010
0100
1000
0001
0000
,
0010
0000
1000
0000
0100
0000
0010
0000
1000
0000
0010
1000
0010
0000
0000
0000
,
0001
1000
0100
0001
1000
0001
0010
0000
,
1000
0001
0100
0000
1000
0001
0010
1000
,
0100
1000
0100
0000
0001
0010
0001
0000
,
0100
0010
1000
0100
0001
1000
0010
1000
,
0001
1000
0000
0010
0100
0000
1000
0000
0001
0000
1000
0001
0010
0000
0000
0000
,
2002
0000
0000
0000
3003
0000
0000
0000
0220
0000
0000
0000
0000
0000
0000
0000
0000
0000
0000
0000
0000
0000
0000
0000
0000
0000
0000
0000
0000
0000
0000
0000
,
0000
0000
0000
0000
0001
0000
1000
0000
0010
0000
0000
0000
1000
0001
0010
0001
,
1000
0000
0000
0000
0010
0000
0100
0000
1000
0000
0001
0000
0100
0000
0001
0010
,
0001
0000
0000
0000
1000
0000
0100
0000
1000
0000
0010
0000
1000
0010
1000
0000
,
0001
0010
0001
0000
1000
0000
0001
0000
0100
0000
0010
0000
1000
0000
0010
1000
,
0010
0000
0001
0000
1000
0000
0001
0000
,
0100
0000
0010
0000
1000
0000
0001
0000
,
1000
0000
0001
0001
1000
0000
0010
0010
,
1000
0000
0100
0000
0001
0000
1000
0000
0001
0000
0000
0000
0010
0000
1000
0010
,
1000
0000
0001
0000
1000
0000
0100
0000
,
0001
0000
0010
0000
0001
0010
0001
0000
,
0000
1000
0100
1000
,
0010
0000
1000
0010
1000
0000
0010
0100
,
0010
0001
1000
0001
,
1000
0001
1000
0000
0001
0000
0010
0000
,
1000
0000
0001
0000
0100
0001
0100
0000
,
0001
1000
0010
0002
,
0003
0000
0002
0010
0023
0100
0230
1000
,
2300
0100
3200
0010
0320
0001
0032
0010
,
0023
1000
2030
0001
3002
1000
2003
0010
,
3020
0100
0230
1000
2300
0001
0002
0000
,
3003
0000
2000
0001
3002
1000
2003
0001
,
3002
0100
0203
1000
2300
0001
3002
0010
,
0023
1000
2030
0100
3200
0001
0302
1000
,
2003
0010
3020
0100
0230
1000
2300
0000
,
3000
0000
0002
0023
0230
2300
3200
0320
,
0032
0023
0230
2300
3200
0320
0032
0023
,
0230
2300
3200
0320
0032
0023
0230
2300
,
3200
0320
0032
0023
0230
2300
3200
0320
,
0032
0023
0230
2300
3200
0320
0032
0023
,
0230
2300
3200
0320
0032
0023
0230
2300
,
3200
0320
0032
2003
3200
0320
0032
0023
,
0230
2300
3200
0320
0032
0023
0230
2300
,
3200
0000
0320
0030
0001
0000
1000
0000
0010
0000
1000
0000
0001
0010
0001
0000
,
1000
0000
0100
0000
1000
0010
1000
0000
0010
0100
0010
0000
0001
0000
1000
0000
,
0001
0000
0000
0000
1000
0000
0100
0000
0001
0000
0000
0000
1000
0001
1000
0000
,
0010
0000
1000
0000
0100
0000
0000
1000
0001
0000
0010
0000
2000
0000
0000
3000
,
0001
0000
0100
0000
0020
0000
0000
0030
0000
2002
0000
0000
0000
0000
0000
0000
,
0000
0000
0000
0000
,
3003
0000
0000
0000
;

//--------------- dance-single - XLev450X -かわいい--DSP ----------------
#NOTES:
     dance-single:
     XLev450X -かわいい-:
     Medium:
     12:
     0,0,0,0,0:
0000
0000
0000
0000
,
0000
0000
0000
0000
,
0000
0000
0000
0000
,
0001
0000
1000
0000
0010
0000
1000
0000
0001
0010
0001
1000
0010
0000
0100
1000
,
0001
0000
0100
1000
0001
0000
0010
0000
1000
0000
0010
1000
0010
0000
0001
0000
,
1000
0000
0100
1000
0001
0000
0010
0000
1000
0001
1000
0100
1000
0000
0001
1000
,
0010
0000
1000
0001
0100
0000
1000
0000
0001
0000
0010
0001
0010
0000
1000
0000
,
0010
1000
0100
0001
1000
0010
1000
0001
0100
0000
1000
0000
0001
0000
1000
0000
,
0010
1000
0100
1000
0001
0010
0100
1000
0001
0000
0010
0000
0100
0000
1000
0000
,
0001
0000
0010
1000
0100
1000
0001
0010
0001
0000
1000
0000
0100
0000
1000
0000
,
0001
0000
1000
0010
1000
0000
0001
0000
0100
0000
0001
1000
0010
0000
0001
0000
,
1000
0000
0001
1000
0010
0000
1000
0000
0010
1000
0100
0001
1000
0000
0001
1000
,
0010
0000
1000
0010
1000
0000
0001
0000
0010
0000
0001
0010
0001
0000
1000
0000
,
0100
0000
1000
0001
1000
0000
0010
0000
1000
0100
0001
1000
0010
0000
1000
0001
,
1000
0000
0010
1000
0010
0000
0100
0000
1000
0000
0001
0010
0001
0000
1000
0000
,
0001
1000
0001
1000
0010
1000
0010
1000
0001
0010
0001
0100
1000
0001
1000
0010
,
1000
0001
0100
1000
0001
1000
0010
0100
1000
0001
0010
1000
0010
1000
0010
0100
,
0001
1000
0010
1000
0010
1000
0100
0001
0010
1000
0001
1000
0010
1000
0001
0100
,
1000
0001
0000
1000
0010
0000
0100
0000
1000
0000
0001
0010
1000
0000
0001
0000
,
0020
0000
0000
0030
2002
0000
0000
0000
0000
0000
0000
0000
0000
0000
0000
0000
,
0000
0000
0000
1001
0001
0000
1000
0010
1000
0000
0001
0000
0010
0001
0010
1000
,
0010
0000
0100
0001
1000
0000
0010
1000
0001
0000
0100
0000
1000
0000
0001
0010
,
1000
0000
0001
0000
0100
0000
1000
0001
1000
0000
0010
0000
1000
0010
1000
0100
,
0001
0000
1000
0001
1000
0000
0010
0000
1000
0000
0100
0000
0001
0000
0010
0001
,
0010
1000
0002
0000
0203
0000
1300
0010
,
0200
0000
2300
0000
3002
0000
1003
0001
,
2000
0000
3010
1000
0020
0000
0031
0010
,
0001
0010
0001
0000
1000
0000
0100
0000
1000
0000
0001
1000
0001
0000
0010
0000
,
1000
0001
1000
0000
0001
0000
1000
0000
0010
0000
0000
0000
0100
0000
0000
0000
,
1000
0000
0001
0010
0001
1000
0010
0100
,
1000
0010
0001
1000
,
0010
0000
1000
0001
1000
0010
1000
0010
,
1000
0001
0010
0001
,
1000
0001
0100
0000
1000
0000
0010
0000
,
1000
0010
1000
0000
0001
0000
0010
0000
,
0100
0000
1000
0001
1000
0010
1000
0001
,
0100
0010
0001
0000
1000
0000
0010
0000
,
1000
0010
1000
0100
1000
0000
1001
0000
,
1000
0001
1000
0000
0001
0000
1000
0000
,
0010
0000
1000
0000
0001
0000
0100
1000
0010
0000
1000
0000
0002
0000
0000
0000
,
1003
0000
1000
0000
1000
0000
0100
0000
,
0001
0000
0010
0000
1000
0010
1000
0000
,
0001
0000
0010
0000
0100
1000
0001
0000
,
0010
0000
1000
0000
0001
0000
0200
0020
,
0330
0000
0001
1000
0001
1000
0010
1000
,
0010
1000
0001
0010
0001
0010
0100
1000
,
0001
1000
0010
1000
0001
0100
1000
0001
,
0100
0010
1000
0001
1000
0010
0100
1000
,
0001
1000
0010
1000
0010
1000
0001
0100
,
0001
1000
0010
1000
0010
0100
1000
0001
,
0100
0010
1000
0001
1000
0010
0100
1000
,
0001
1000
0010
1000
0001
0100
0010
1000
,
0001
0000
1000
0000
0001
0000
1000
0000
0001
0000
1000
0000
0010
1000
0010
1000
,
0001
0000
0010
0001
0010
0000
1000
0010
1000
0000
0100
0000
1000
0000
0001
0100
,
0001
0000
1000
0000
0001
0000
1000
0000
0010
0000
1000
0000
0001
1000
0001
1000
,
0010
0000
1000
0010
1000
0000
0000
0001
0100
0000
1000
0000
0001
0000
0000
0000
,
0010
0000
1000
0000
0001
0000
0000
0000
0000
2002
0000
0000
0000
0000
0000
0000
,
0000
0000
0000
0000
,
3003
0000
0000
0000
0000
0000
0000
0000
;

//--------------- dance-single - XLev450X -かわいい--ESP ----------------
#NOTES:
     dance-single:
     XLev450X -かわいい-:
     Hard:
     16:
     0,0,0,0,0:
0000
0000
0000
0000
,
0000
0000
0000
0000
,
0000
0000
0000
0000
,
0001
0000
1000
0000
0010
0000
1000
0000
0001
0010
0001
0010
1000
0000
0010
1000
,
0010
0000
0100
0001
0010
0000
0001
0000
1000
0000
0010
0000
0202
0000
0000
0303
,
1000
0000
0010
1000
0010
0000
0100
0000
1000
0001
0100
0001
1000
0000
0010
0001
,
0010
0000
1000
0001
0100
0000
1000
0000
0001
0000
0010
0000
2002
0000
0000
3003
,
1000
0000
0001
0100
1000
0000
0010
0000
1000
0010
1000
0010
0100
0000
0001
0000
,
0010
0000
0001
1000
0010
0000
1000
0000
0010
0000
1000
0001
0100
0000
0000
0000
,
1000
0000
0010
1000
0010
0000
0100
0000
0001
0010
0001
1000
0010
0000
0001
1000
,
0010
0000
0100
0010
1000
0000
0001
0000
0100
0000
0010
1000
0001
0000
0000
0000
,
0010
0000
1000
0100
0001
0000
0010
0000
0001
0010
0001
0010
0001
0000
1000
0010
,
1000
0000
0100
1000
0001
0000
0010
0000
0100
0000
1000
0000
0202
0000
0000
0303
,
1000
0000
0010
1000
0010
0000
0100
0000
1000
0001
0100
0010
1000
0000
0001
0010
,
1000
0000
0100
0001
0100
0000
0001
0000
1000
0000
0001
0000
0020
0000
0000
0030
,
1000
0010
1000
0010
0100
0001
0010
0001
0010
0001
0100
1000
0010
1000
0010
1000
,
0010
0100
0001
1000
0010
1000
0001
0100
0010
1000
0001
0010
1000
0010
1000
0100
,
0001
0010
0001
1000
0010
1000
0010
1000
0001
0100
0010
1000
0001
0010
1000
0100
,
0001
0000
0100
0000
0000
0000
1000
0000
0010
0000
0000
0000
0100
0000
0000
0000
0001
0000
0000
0000
0010
0000
0001
0000
0020
0000
0000
0000
0030
0000
0000
0000
,
2002
0000
0000
0000
0000
0000
0000
0000
0000
3003
0000
0000
0000
0000
0000
0000
0220
0000
0000
0000
0000
0000
0000
0000
0000
0000
0000
0000
0000
0000
0000
0000
0000
0000
0000
0000
0000
0000
0000
0000
0000
0000
0000
0000
0000
0000
0000
0000
0000
0000
0000
0000
0000
0000
0000
0000
0000
0000
0000
0000
0000
0000
0000
0000
,
0000
0000
0000
0330
0000
0000
2002
3003
0001
0000
0000
0000
1000
0000
0000
0000
0100
0000
0000
0000
0001
0000
0000
0000
0010
0000
1000
0000
0010
0000
1000
0000
,
0001
0000
0010
0001
0010
0000
1000
0100
1000
0000
0001
0000
0010
0000
1000
0010
,
1000
0000
0001
0000
0010
0000
0100
0001
1000
0000
0010
0000
1000
0010
1000
0010
,
0100
0000
0001
0010
0001
0000
1000
0000
0100
0000
1000
0000
0001
0000
0010
0001
,
1000
0000
0000
0000
0010
0000
0000
0000
0200
0000
0000
0000
0300
0000
0000
0000
0002
0000
0000
0000
0003
0000
0000
0000
2000
0000
0000
0100
3000
0000
0000
0000
,
0010
0000
2100
3000
0012
0003
0200
0310
,
0020
0000
0130
0000
0010
0001
0010
0000
1000
0000
0100
0000
1000
0100
1000
0000
,
0010
0000
0100
0000
0010
1000
0010
0000
0001
0000
0010
0000
1000
0001
0100
0010
,
1000
0100
0001
0010
0100
1000
0100
0010
0001
0000
0010
0000
0100
0000
1000
0000
0100
0000
0010
0000
0001
0000
0010
0000
0100
0000
1000
0000
0100
0000
0010
0000
,
0001
0010
0100
1000
0100
0010
0001
0010
0100
1000
0100
0010
0001
0010
0100
1000
,
0100
0010
0001
0010
0100
1000
0100
0010
0001
0010
0100
1000
0100
0010
0001
0010
,
0100
1000
0100
0010
0001
0010
0100
1000
0100
0010
0001
0010
0100
1000
0100
0010
,
0001
0010
0100
1000
0001
0010
0100
1000
0001
0010
0100
1000
0001
0010
0100
1000
,
0001
0010
0100
1000
1000
0100
0010
0001
1000
0100
0010
0001
1000
0100
0010
0001
,
0001
0010
0100
1000
0001
0010
0100
1000
0001
0010
0100
1000
1000
0100
0010
0001
,
1000
0100
0010
0001
1000
0100
0010
0001
0001
0010
0100
1000
0001
0010
0100
1000
,
0100
0010
0001
0010
1001
0000
1000
0000
1010
0000
0010
0000
1100
0000
0100
0000
,
0110
0010
1010
0010
0101
0001
0011
0010
,
1100
1000
0101
0001
0110
0100
1010
0010
,
0110
0100
0011
0001
1001
1000
2200
0000
,
3300
0000
1001
0001
0110
0010
1010
1000
,
0011
0010
0110
0100
1100
1000
0011
0001
,
0110
0010
1001
1000
0011
0010
1100
0100
,
0110
0010
0101
0001
0011
0010
2020
0000
,
3030
0000
0000
0000
1000
0100
0010
0001
0010
0100
1000
0100
0010
0001
0010
0100
,
1000
0100
0010
0001
0010
0100
1000
0100
0010
0001
0010
0100
1000
0100
0010
0001
,
0010
0100
1000
0100
0010
0001
0010
0100
1000
0100
0010
0001
0010
0100
1000
0100
,
0010
0001
0010
0100
1000
0100
0010
0001
0010
0100
1000
0100
0010
0001
0010
0100
,
1000
0100
0010
0001
1000
0100
0010
0001
1000
0100
0010
0001
1000
0100
0010
0001
,
1000
0100
0010
0001
0001
0010
0100
1000
0001
0010
0100
1000
0001
0010
0100
1000
,
1000
0100
0010
0001
1000
0100
0010
0001
1000
0100
0010
0001
0001
0010
0100
1000
,
0001
0010
0100
1000
0001
0010
0100
1000
1000
0100
0010
0001
1000
0100
0010
0001
,
0010
0100
1000
0100
0001
0000
1000
0000
0010
0000
0100
0000
1000
0010
1000
0010
,
0100
0000
0001
0010
0001
0000
1000
0010
1000
0000
0100
0000
1000
0000
0001
0100
,
2002
0000
0000
3003
0010
0000
1000
0000
0100
0000
1000
0000
0001
1000
0001
1000
,
0010
0000
1000
0010
1000
0000
0001
0100
0001
0000
1000
0000
0010
0000
0000
0000
,
1000
0001
0200
0000
0300
0000
0001
0010
,
0100
1000
0100
0010
0001
0010
0100
1000
,
0100
0000
0000
0000
;
