#TITLE:Moon Over The Castle (A-Spec Mix);
#ARTIST:Masahiro Andoh arranged by pentagon;
#MUSIC:Moon Over The Castle (A-Spec Mix).ogg;
#BANNER:Moon Over The Castle (A-Spec Mix).png;
#BACKGROUND:Moon Over The Castle (A-Spec Mix)-bg.png;
#SAMPLESTART:9.498;
#SAMPLELENGTH:15;
#OFFSET:-0.250;
#BPMS:0=206
,97=103
,109=206;
#STOPS:;
#BGCHANGES:0=Moon Over The Castle (A-Spec Mix).mp4=1.000=0=0=0=StretchNoLoop====,
99999=-nosongbg-=1.000=0=0=0 // don't automatically add -songbackground-;
#BGSTAGE:29;

//--------------- dance-single - XLev450X-bSP ----------------
#NOTES:
     dance-single:
     XLev450X:
     Beginner:
     3:
     0,0,0,0,0:
0000
0000
0000
0000
,
0000
0000
0000
0000
,
0000
0000
0000
0000
,
0000
0000
0000
0000
,
0000
0000
0000
0000
,
0000
0000
0000
0000
,
0000
0000
0000
0000
,
0000
0000
0000
0000
,
0000
0001
0000
0001
,
0000
0001
0000
0000
,
0000
1000
0000
0010
,
0000
1000
0000
0000
,
0000
0010
0000
0100
,
0000
0010
0000
1000
,
0000
0001
0000
1000
,
0000
0010
0000
0000
,
0000
0010
0000
0001
,
0000
0010
0000
0000
,
0000
0100
0000
1000
,
0000
1000
0000
0000
,
0000
0010
0000
0100
,
0000
0010
0000
0000
,
0000
1001
0000
0000
,
0000
0000
0000
0000
,
0000
0001
0000
1000
,
0000
0010
0000
0100
,
0000
0001
0000
1000
,
0000
0001
0001
0001
,
0000
1000
1000
1000
,
0000
0010
1000
0010
,
0000
0100
0001
0100
,
0000
1001
0000
0000
,
0000
0000
0000
0000
,
0000
0001
0000
1000
,
0000
0010
1000
0010
,
0000
0100
0000
0001
,
0000
0010
0001
0010
,
0000
1000
0000
0100
,
0000
1000
0000
0001
,
0000
0100
0000
0000
,
0000
0010
0000
0000
,
0000
1000
0000
0010
,
0000
1000
0000
0000
,
0000
0100
0000
0010
,
0000
0100
0000
0000
,
0000
0010
0000
0001
,
0000
0010
0000
0000
,
0000
1000
0000
0001
,
0000
0100
0000
0000
,
0000
0010
0000
0010
,
0000
0010
0000
0010
,
0000
1000
0000
0001
,
0000
1000
0000
0001
,
0000
0100
0000
1000
,
0000
0100
0000
1000
,
0000
0010
0000
0001
,
0000
0010
0000
0001
,
0000
1000
1000
1000
,
0000
0001
0001
0001
,
0000
0010
0000
1000
,
0000
0010
0000
0000
,
0000
0100
0100
0100
,
0000
0001
0000
1000
,
0000
0110
0000
0000
,
0000
0011
0000
0000
,
0000
2002
0000
0000
,
0000
0000
0000
0000
,
0000
3003
0000
0000
,
0000
0000
0000
0000
,
0000
0010
0000
0010
,
0000
0010
0000
0000
,
0000
1000
0000
0100
,
0000
1000
0000
0000
,
0000
0001
0000
1000
,
0000
0010
1000
0010
,
0000
0100
0000
0001
,
0000
0010
0000
0000
,
0000
1000
0000
0001
,
0000
0100
0000
1000
,
0000
0010
0000
0000
,
0000
0100
0000
0000
,
0000
0001
0000
0001
,
0000
0001
0000
0000
,
0000
1000
0000
1000
,
0000
1000
0000
0000
,
0000
0010
0000
0100
,
0000
0010
0000
1000
,
0000
0001
0000
0000
,
0000
0100
0000
0010
,
0000
2002
0000
0000
,
0000
0000
0000
0000
,
3003
0000
0000
0000
;

//--------------- dance-single - XLev450X-BSP ----------------
#NOTES:
     dance-single:
     XLev450X:
     Easy:
     6:
     0,0,0,0,0:
0000
0000
0000
0000
,
0000
0000
0000
0000
,
0000
0000
0000
0000
,
0000
0000
0000
0000
,
0000
0000
0000
0000
,
0000
0000
0000
0000
,
0000
0000
0000
0000
,
0000
0000
0000
0000
,
0000
0001
0000
1000
,
0000
0001
0000
0000
,
0000
0010
0000
1000
,
0000
0000
0100
0001
,
1000
0000
0001
0000
,
0010
0000
0100
0000
,
0000
0000
1000
0000
,
0100
0000
1000
0001
,
1000
0010
1000
0000
,
0100
0000
0001
0000
,
0000
0000
0010
0000
,
0100
0000
1000
0001
,
1000
0010
0100
0000
,
1000
0000
0001
1000
,
0010
2002
0000
0000
,
0000
0000
0000
0000
,
3003
0001
1000
0100
,
0001
0010
0001
0000
0100
0000
1000
0000
,
0010
1000
0010
0000
0100
0000
0001
1000
,
0001
0001
0000
1000
,
0000
0100
0000
1000
,
0000
0001
0010
0001
,
0000
0100
1000
0100
,
0010
2002
0000
0000
,
0000
0000
0000
0000
,
3003
1000
0000
0100
,
0000
0001
0000
0010
,
0000
0100
0010
0100
,
0000
0001
0000
1000
,
0000
0010
1000
0010
,
0000
0001
0010
0001
,
0000
0100
0000
1000
,
0000
0001
0000
0000
,
0000
1000
0000
0001
,
0000
1000
0000
0100
,
0000
0010
1000
0010
,
0000
0001
0010
0001
,
0000
1000
0000
0100
,
0000
0001
0000
1000
,
0000
0010
0000
0000
,
0000
0100
0000
0001
,
0000
1000
0000
0001
,
0000
0001
0000
0001
,
0000
0001
0000
1000
,
0000
1000
0000
1000
,
0000
0010
0000
0100
,
0000
0100
0000
0100
,
0000
0100
0000
0010
,
0000
0010
0000
0010
,
0000
0001
0000
1000
,
0000
0001
0000
1000
,
0000
0100
0000
0010
,
0000
1000
0001
0100
,
0000
2002
0000
0000
,
0000
0000
0000
0000
,
3003
0001
0000
1000
,
0000
0001
1000
0001
,
1000
2002
0000
0000
,
0000
0000
0000
0000
,
0000
0000
0000
0000
,
0000
0000
0000
0000
,
3003
0001
0000
1000
,
0000
0010
0000
1000
,
0000
0010
1000
0010
,
0000
0001
0010
0001
,
0000
0001
0000
1000
,
0000
0100
0000
1000
,
0000
0100
0010
0100
,
0000
1000
0010
1000
,
0000
0001
0000
1000
,
0000
0100
0000
0001
,
0000
2002
0000
0000
,
0000
0000
0000
3003
,
0000
0010
0000
1000
,
0000
0100
0000
0001
,
0000
0001
0010
0001
,
1000
0001
0100
1000
,
0000
0001
0000
0100
,
0000
1000
0010
1000
,
0010
0200
0000
0000
,
0300
0001
0000
1000
,
0001
2002
0000
0000
,
0000
0000
0000
0000
,
0000
0000
0000
0000
,
0000
0000
0000
0000
,
0000
3003
0000
0000
;

//--------------- dance-single - XLev450X-DSP ----------------
#NOTES:
     dance-single:
     XLev450X:
     Medium:
     10:
     0,0,0,0,0:
0000
0000
0000
0000
,
0000
0000
0000
0000
,
0000
0000
0000
0000
,
0000
0000
0000
0000
,
0000
0000
0000
0000
,
0000
0000
0000
0000
,
0000
0000
0000
0000
,
0000
0000
0000
0000
,
0000
0001
1000
0010
,
1000
0000
0010
0000
0100
0000
0010
0001
,
0000
0100
0000
0000
0001
0000
1000
0000
,
0010
0000
1000
0100
,
1000
0001
0010
0000
,
0001
0100
0001
0000
,
1000
0000
0010
0000
1000
0000
0010
0100
,
0000
0001
0000
0000
1000
0000
0010
0000
,
0001
0000
0010
0100
,
1000
0000
0001
0000
1000
0000
0001
1000
,
0000
0010
0000
0000
0100
0000
1000
0000
,
0010
0000
0001
0100
,
0001
0000
1000
0000
0010
0000
0001
0010
,
0001
1000
0001
0100
,
0010
0000
0001
0000
0000
0100
0000
0000
,
1000
0000
0000
0010
0000
0000
0100
0000
,
0001
0000
0000
0000
0001
0000
0000
0000
0100
0000
0000
0001
0000
0000
1000
0000
,
0010
0000
0100
0000
1000
0000
0010
0000
0100
0000
0000
0001
0000
0000
1000
0000
,
0001
0000
0000
0000
0100
0000
0010
0000
1000
0000
0000
0010
0000
0100
0001
0000
,
1000
0010
0001
0000
1000
0000
0001
0000
,
1000
0100
1000
0010
,
1000
0000
0010
0000
0001
0010
0001
0000
,
1000
0000
0100
0000
1000
0001
0000
1000
,
0001
0000
0001
0000
0000
1000
0000
0000
,
0100
0000
0010
0000
0000
1000
0000
0000
,
0010
1000
0100
1000
,
0000
0001
0010
0001
,
0000
0100
1000
0010
,
1000
0100
1000
0001
,
0000
0001
0010
0001
,
0000
1000
0100
1000
,
0000
0000
0101
0000
0000
1010
0000
0000
,
0110
0000
0000
1001
0000
0000
0000
0000
,
0000
0001
1000
0001
,
0000
0010
0001
0010
,
0000
0100
1000
0001
,
0100
0010
1000
0010
,
0000
1000
0100
1000
,
0000
0001
1000
0001
,
0100
0000
0001
0000
0000
1000
0000
0000
,
0010
0000
0100
0000
0000
0001
0000
0000
,
1000
0001
1000
0001
,
0000
1000
0010
1000
,
0000
0100
0010
0100
,
1000
0001
0010
0100
,
0000
0001
0010
0001
,
0000
1000
0001
1000
,
0000
0010
1000
0100
,
0001
1000
0001
0010
,
0000
1000
0010
0100
,
1000
0001
0100
0001
,
0000
1000
0001
0100
,
0010
1000
0001
0010
,
0000
1000
0100
1000
,
0001
0100
1000
0001
,
0000
1000
0000
0001
,
0000
1000
0000
0000
,
0000
0001
0000
1000
,
0000
0010
1000
0010
,
0000
0100
0000
0001
,
0000
0010
0001
0010
,
0000
0000
0001
0000
0000
1000
0000
0000
,
0001
0000
0000
0100
0000
0000
1000
0000
,
0001
0000
0010
0100
1000
0100
0001
0010
,
0100
1000
0001
0100
0010
0100
2002
0000
,
0000
3003
0001
0000
1000
0000
0100
0000
,
1000
0010
0001
1000
,
0000
0010
1000
0100
,
1000
0000
0001
0000
0010
0001
0010
0000
,
0000
1000
0100
1000
,
0001
0000
0100
0000
0010
1000
0010
0000
,
0000
0000
0100
0000
0000
0001
0000
0000
,
1000
0000
0000
0100
0000
0000
0010
0000
,
1000
0001
0100
0010
,
0000
1000
0100
1000
,
0000
0001
0010
0001
,
0100
1000
0001
0100
,
0000
0010
0100
0010
,
0000
1000
0001
0100
,
0010
0000
1000
0000
0000
0001
0000
0000
,
0100
0000
0010
0000
0000
1000
0000
0000
,
0001
2002
0000
0000
,
0000
0000
0000
0000
,
0000
0000
0000
0000
,
0000
0000
0000
0000
,
0000
3003
0000
0000
;

//--------------- dance-single - XLev450X-ESP ----------------
#NOTES:
     dance-single:
     XLev450X:
     Hard:
     13:
     0,0,0,0,0:
0000
0000
0000
0000
,
0000
0000
0000
0000
,
0000
0000
0000
0000
,
0000
0000
0000
0000
,
0000
0000
0000
0000
,
0000
0000
0000
0000
,
0000
0000
0000
0000
,
0000
0000
0000
0000
,
0000
0001
1000
0010
,
0001
0010
0001
0000
1000
0000
0100
0001
,
0010
1000
0010
0000
0100
0000
1000
0100
,
0001
0000
1000
0001
0010
0000
1000
0000
,
0101
0000
0100
0001
0010
0000
1000
0000
,
1000
0000
0010
1000
0100
0000
0001
0010
,
0001
0000
0010
0001
0100
1000
0001
0000
,
1000
0000
0010
0000
1000
0000
0010
1000
,
0001
0100
1000
0000
0001
0000
0010
0000
,
1000
0000
0010
0000
0100
0000
0010
1000
,
0010
0001
0010
1000
,
0100
1000
0001
0010
,
0001
0100
1000
0000
0001
0000
1000
0000
,
0001
0000
1000
0001
0010
0000
1000
0000
,
0010
0000
0001
0000
0000
1001
0000
0000
,
1010
0000
0000
0011
0000
0000
0101
0000
,
1001
0000
0000
0000
0010
0000
1000
0000
0001
0000
0100
0010
0100
0000
1000
0000
,
0001
0000
0000
1000
0000
0000
0001
0000
0010
0000
0000
0000
0100
0000
0000
0000
1000
0000
0000
0000
0001
0000
0100
0000
1000
0000
0000
0100
0000
0000
0001
0000
,
0000
1000
0000
0000
0100
0000
0000
0000
0001
0000
0000
0000
1000
0000
0000
0000
0010
0000
0000
0000
0100
0000
0000
0000
1000
0000
0000
0000
0001
0000
0010
0000
,
0001
0100
1000
0100
0010
0000
0000
0000
0001
0000
0000
0000
1000
0000
0000
0000
,
0010
0001
0010
0000
1000
0000
0100
0000
,
1000
0000
0001
1000
0010
0100
0000
1000
,
0001
0000
0010
0000
1000
0001
1000
0000
,
0010
0000
1000
0000
0001
1000
0001
0000
,
1000
0000
0010
1000
0010
0100
0001
1000
,
0010
1000
0001
0000
0010
0000
1000
0000
,
0010
0000
0001
0000
0010
0001
0010
0000
,
1000
0000
0001
0000
1000
0001
0000
1000
,
0010
0100
1000
0001
,
0010
0000
0001
0000
0010
0001
0010
0000
,
1000
0100
1000
0000
0001
1000
0010
0000
,
1000
0000
0101
0000
0000
1010
0000
0000
,
0110
0000
0000
1001
0000
0000
0010
0000
,
0001
1000
0010
0100
,
1000
0001
1000
0000
0010
0000
1000
0000
,
0010
1000
0010
0100
0000
1000
0000
0000
,
0001
0000
0100
0000
0001
1000
0001
0000
,
0010
0000
1000
0000
0010
1000
0010
0000
,
0100
1000
0001
0010
,
1000
0000
0001
0000
0000
0100
0000
0000
,
1000
0000
0010
0000
0000
0100
0000
0000
,
0001
0000
1000
0000
0001
1000
0001
0000
,
1000
0000
0010
0000
0010
0001
0010
0000
,
1000
0000
0010
0000
1000
0010
1000
0000
,
0100
0000
1000
0000
0001
1000
0001
0000
,
0010
0000
1000
0000
0010
1000
0001
0010
,
0001
0000
0100
1000
0100
0000
0010
0100
,
0010
0000
1000
0010
1000
0000
0001
0010
,
0001
1000
0100
1000
,
0001
0000
1000
0001
1000
0010
1000
0000
,
0001
0010
0100
1000
,
0001
0000
0001
0100
0001
0000
1000
0000
,
1000
0001
1000
0010
,
1000
0000
0010
0001
0000
1000
0100
0000
,
0010
0100
0000
1000
0001
1000
0001
1000
,
0001
0100
0010
0100
0010
0100
0010
0000
,
1000
0001
1000
0001
1000
0001
1000
0001
,
1000
0001
0010
0000
1000
0000
0010
0000
,
1000
0001
0100
0000
1000
0001
0010
0000
,
1000
0100
1000
0001
,
0010
0000
0100
0000
1000
0010
1000
0000
,
0010
0100
0001
1000
0000
0010
1000
0000
,
0100
1000
0000
0001
0000
0010
1000
0000
,
0100
0000
0000
0000
0001
0010
0100
1000
0001
0010
0100
1000
0001
0010
0100
1000
,
0001
0010
0100
1000
0001
0010
0100
1000
0001
0010
0100
1000
2002
0000
0000
0000
,
0000
3003
0001
0000
1000
0000
0010
0000
,
1000
0010
1000
0000
0010
0000
0100
0000
,
1000
0000
0001
0000
0100
0001
0000
1000
,
0010
0010
1000
0100
,
1000
0000
0001
0000
0010
0001
0000
1000
,
0100
1000
0001
0100
,
1000
0000
0101
0000
0000
1010
0000
0000
,
0110
0000
0000
1001
0000
0000
0001
0000
,
1000
0000
0001
0000
0010
0001
0010
0000
,
1000
0000
0100
0000
1000
0010
1000
0000
,
0100
0000
1000
0000
0001
0100
0000
0000
,
0010
0000
1000
0000
0010
1000
0000
0000
,
0010
0000
0001
0000
1000
0001
1000
0000
,
0001
0000
1000
0000
0100
1000
0001
0000
,
0100
0000
0010
0000
0000
1000
0000
0000
,
0001
0000
0100
0000
0000
1000
0000
0000
,
0010
2002
0000
0000
,
0000
0000
0000
0000
,
0000
0000
0000
0000
,
0000
0000
0000
0000
,
0000
3003
0000
0000
;
