#TITLE:Money Pull Up;
#ARTIST:Blaiz Fayah & Maureen;
#GENRE:HIP-HOP;
#MUSIC:Money Pull Up.ogg;
#BANNER:Money Pull Up.png;
#BACKGROUND:Money Pull Up-bg.png;
#SAMPLESTART:28.441;
#SAMPLELENGTH:15;
#OFFSET:-0.096;
#BPMS:0=100.015;
#DISPLAYBPM:100;
#BGSTAGE:4;

//--------------- dance-single - XLev450X-bSP ----------------
#NOTES:
     dance-single:
     XLev450X:
     Beginner:
     2:
     0,0,0,0,0:
0000
0000
0000
0000
,
0000
0000
0000
0000
,
0000
0000
0000
0000
,
0000
0000
0000
0000
,
0001
0000
1000
0000
,
0001
0000
0000
0000
,
1000
0000
0001
0000
,
1000
0000
0000
0000
,
1000
1000
0000
0000
,
0010
0010
0000
0000
,
0100
0100
0000
0000
,
0001
0001
0000
0000
,
1001
0000
0000
0000
,
0010
0000
0100
0000
,
0010
0000
1000
0000
,
0001
0000
1000
0000
,
0001
0000
0000
0000
,
1000
0000
0000
0000
,
0100
0000
0000
0000
,
0010
0000
0000
0000
,
0001
0000
0010
0000
,
0100
0000
0000
0000
,
1000
0000
0100
0000
,
0010
0000
0000
0000
,
1000
0000
0001
0000
,
1000
0000
0000
0000
,
0010
0000
1000
0000
,
0010
0000
0000
0000
,
1001
0000
0000
0000
,
1000
0000
0001
0000
,
0100
0000
0010
0000
,
1000
0000
0001
0000
,
0010
0000
0000
0000
,
0100
0000
0000
0000
,
0001
0000
0000
0000
,
1000
0000
0000
0000
,
1001
0000
0000
0000
;

//--------------- dance-single - XLev450X-BSP ----------------
#NOTES:
     dance-single:
     XLev450X:
     Easy:
     5:
     0,0,0,0,0:
0000
0000
0000
0000
,
0000
0000
0000
0000
,
0000
0000
0000
0000
,
0000
0000
0000
0000
,
0001
1000
0010
0100
,
0001
1000
0010
1000
,
0100
0000
0010
0000
0001
0010
0001
0000
,
1000
0000
0010
0000
0100
0010
0100
0000
,
1000
0010
1000
0100
,
0001
0000
0010
0000
1000
0001
1000
0000
,
0010
0000
1000
0000
0100
0010
0100
0000
,
0001
0000
1000
0000
0001
1000
0001
0000
,
2002
0000
0000
3003
,
0001
1000
0010
0100
,
0001
0000
0010
0000
1000
0000
0100
0010
,
0100
0000
0001
0000
1000
0000
0010
1000
,
0010
0000
0001
0000
0100
0000
1000
0001
,
1000
0000
0010
0000
1000
0000
0100
0010
,
0001
1000
0010
0000
,
1000
0001
0100
0000
,
1000
0001
1000
0000
,
0010
1000
0010
0000
,
0001
0100
0001
0000
,
0100
0010
0100
0000
,
0001
0000
1000
0000
0010
0000
1000
0010
,
1000
0100
0010
0001
,
1000
0001
1000
0010
,
0100
0000
0010
0000
1000
0001
1000
0000
,
2002
0000
0000
3003
,
0010
0100
0001
0000
,
1000
0100
0010
0000
,
0001
1000
0001
0000
,
0010
1000
0100
0000
,
0010
0001
1000
0000
,
1000
0000
0100
0000
0010
0100
0010
0000
,
0001
0010
0001
0000
0100
1000
0100
0000
,
1001
0000
0000
0000
;

//--------------- dance-single - XLev450X-DSP ----------------
#NOTES:
     dance-single:
     XLev450X:
     Medium:
     9:
     0,0,0,0,0:
0000
0000
0000
0000
,
0000
0000
0000
0000
,
0000
0000
0000
0000
,
0000
0000
0000
0000
,
0001
0000
0010
0000
1000
0010
0010
0000
,
1000
0000
0001
0000
0100
0001
0001
0000
,
1000
0000
0010
0000
1000
0001
0001
0000
,
0100
0000
1000
0000
0001
0010
0010
0000
,
1000
0000
0001
0000
0100
0010
1000
0000
,
0010
0000
0001
0000
1000
0001
1000
0000
,
0100
0000
0001
0000
1000
0010
1000
0000
,
0100
0000
0001
0000
0010
0100
0010
0000
,
2002
0000
0000
3003
,
0001
0000
1000
0000
0010
0000
1000
0100
,
0010
0000
0001
0000
1000
0000
0010
0100
,
0001
0000
0010
0000
1000
0000
0001
0010
,
1000
0000
0001
0000
0100
0000
1000
0010
,
1000
0000
0100
0000
0010
0000
0001
0010
,
0001
0000
1000
0000
0001
0000
0100
0010
,
0100
1000
0001
0000
,
1000
0000
0000
0010
0000
0000
0100
0000
0001
0000
0000
1000
0000
0000
0010
0000
,
0100
0000
0000
0001
0000
0000
1000
0000
0010
0000
0000
0100
0000
0000
1000
0000
,
0010
0000
0000
0100
0000
0000
0001
0000
1000
0000
0000
0001
0000
0000
0100
0000
,
0010
0000
1000
0000
0001
1000
0001
0000
,
0010
0000
1000
0000
0100
0010
0001
0000
,
1000
0000
0100
0000
1000
0001
1000
0000
,
0010
0101
0010
1100
,
0010
0000
0020
0000
2000
0000
3030
0010
,
2001
0001
0001
3001
,
0001
0000
1000
0000
0010
0000
0100
0001
,
1000
0000
0010
0000
1000
0000
0010
0001
,
0010
0000
0100
0000
1000
0000
0001
1000
,
0001
0000
0010
0000
1000
0000
0100
0010
,
0100
0000
0001
0000
1000
0000
0010
1000
,
0010
0000
0001
0000
0100
0000
1000
0001
,
1000
0000
0010
0000
0100
0000
0010
0100
,
1001
0000
0000
0000
;

//--------------- dance-single - XLev450X-ESP ----------------
#NOTES:
     dance-single:
     XLev450X:
     Hard:
     11:
     0,0,0,0,0:
0000
0000
0000
0000
,
0000
0000
0000
0000
,
0000
0000
0000
0000
,
0000
0000
0000
0000
,
0001
0000
0000
1000
0000
0000
0010
0000
0100
0000
0001
0000
0010
0000
1000
0000
,
0001
0000
0000
0100
0000
0000
0010
0000
1000
0000
0010
1000
0010
0000
0100
0000
,
0001
0000
0000
1000
0000
0000
0010
0000
0100
0000
0001
0000
0010
0000
0001
0010
,
0001
0000
0000
1000
0000
0000
0001
0000
0100
0000
0010
0000
1000
0000
0000
0000
,
0010
0000
1000
0000
0100
0000
0001
0000
0001
0100
0001
0000
0010
1000
0010
0000
,
0100
0000
1000
0000
0001
0000
0010
0000
1000
0010
1000
0000
0010
0100
0010
0000
,
0001
0000
0010
0000
1000
0000
0001
0000
0010
0001
0010
0000
0010
1000
0010
0000
,
0100
0000
0001
0000
1000
0000
0010
0000
1000
0001
1000
0000
0010
0000
0100
0000
,
2002
0000
0000
3003
,
1000
0000
0010
0000
0100
0000
0001
0000
0010
0001
0010
0000
0010
0100
0010
0000
,
1000
0000
0001
0000
1000
0000
1000
0000
0001
0000
0100
0010
0100
0000
0010
0000
,
1000
0000
0001
0000
0010
0001
1000
0010
0100
1000
0001
0010
1000
0000
0001
0000
,
0010
0000
0000
1000
0000
0000
0001
0000
0100
0000
0000
0010
0000
0000
1000
0000
,
0001
0100
0010
1000
0001
0100
0010
0000
1000
0000
0001
0000
0010
0000
0100
0000
,
0001
0000
0000
1000
0000
0000
0010
0000
0100
0000
0000
0001
0000
0000
0010
0000
,
1000
0000
0001
0000
1000
0010
0100
0001
1000
0010
0100
0001
1000
0000
0010
0000
,
1000
0000
0000
0001
0000
0000
0100
0000
0010
0000
0000
1000
0000
0000
0001
0000
,
0010
0000
0000
0100
0000
0000
0001
0000
1000
0000
0000
0010
0000
0000
0100
0000
,
0001
0000
0000
1000
0000
0000
0010
0000
0100
0000
0000
0001
0000
0000
0010
0000
,
1000
0000
0000
0000
0001
0000
1000
0000
0001
1000
0010
1000
0010
0100
0001
1000
,
0010
0000
0001
0000
1000
0000
0010
0000
0001
0010
0001
0000
0010
0000
1000
0000
,
0010
1000
0010
0000
0010
0100
0010
0000
0001
0000
0010
0000
1000
0000
0000
0000
,
0001
0010
1000
0000
0010
0100
0001
0000
,
0001
0000
1000
0000
0010
0000
1000
0000
0010
1000
0010
0000
0100
0000
0010
0000
,
2001
0001
0001
3001
,
1000
0000
0010
0000
0100
0000
0001
0000
0010
1000
0010
0100
0001
1000
0010
1000
,
0001
0000
0010
0000
1000
0000
0010
0000
0100
0000
0010
0100
0010
0000
0001
0000
,
0001
0000
1000
0000
0010
1000
0010
0100
0001
1000
0010
1000
0010
0000
0001
0000
,
0010
0000
1000
0000
0010
0000
0100
0000
0001
0000
0010
0001
0010
0000
1000
0000
,
0010
1000
0010
0000
0010
0100
0010
0000
0001
0010
0001
0000
1000
0000
0001
0000
,
0100
0000
1000
0010
1000
0000
0010
0000
0100
0000
0010
0100
0010
0000
0001
0000
,
1000
0000
0001
0000
1000
0010
1000
0010
0100
0000
0001
0010
1000
0000
0010
0000
,
1001
0000
0000
0000
;
