#TITLE:Modern Girl (RGR-Special);
#ARTIST:Sheena Easton;
#GENRE:POP;
#MUSIC:Modern Girl (RGR-Special).ogg;
#BANNER:Modern Girl (RGR-Special).png;
#BACKGROUND:Modern Girl (RGR-Special)-bg.png;
#SAMPLESTART:27.41;
#SAMPLELENGTH:15;
#BPMS:0=119.205
,24=120.401
,32=120
,36=119.205
,40=120
,44=119.337
,56=119.701
,104=118.812
,108=119.681
,128=119.205
,136=119.601
,140=120.805
,144=119.601
,160=119.008
,168=119.601
,172=120.805
,176=120.401
,180=120;
#DISPLAYBPM:118:120;
#BGSTAGE:17;

//--------------- dance-single - XLev450X ----------------
#NOTES:
     dance-single:
     XLev450X:
     Challenge:
     13:
     0,0,0,0,0:
0000
0000
0000
0000
,
0000
0000
0000
0000
,
0000
0000
0000
0000
,
0000
0000
0000
0000
,
0000
0000
0000
0000
,
0001
1000
0010
0000
0100
0001
0010
1000
,
0001
1000
0010
0000
0101
0000
1010
0000
,
0010
0100
0001
1000
0010
0100
0001
0010
,
0101
0000
0000
0000
1010
0000
0000
0000
0110
0000
0000
1001
0000
0000
0100
0000
,
0001
0000
0000
1000
0000
0000
0010
0000
0001
0000
0000
1000
0000
0000
0001
0000
,
0100
0000
0000
0010
0000
0000
1000
0000
0101
0000
0000
0000
1010
0000
0000
0000
,
0001
0000
0000
0100
0000
0010
0000
0001
1000
0000
0001
0000
1000
0000
0010
0000
,
0100
0000
0000
0001
0000
0000
1000
0000
0000
0000
0020
0000
0000
0000
0000
0000
,
0000
0000
0000
0000
0000
0000
0000
0000
0000
0000
0000
0000
0000
0000
0000
0000
0030
0000
0000
0000
0001
0000
0000
0000
0000
0000
1000
0000
0000
0001
0010
0100
,
1000
0000
0000
0100
0000
0000
0001
0000
0000
0000
1000
0001
0000
0010
0000
0000
,
0100
0000
0000
0001
0000
0000
1000
0000
0000
0000
0001
0000
0000
0100
0000
0000
,
0010
0000
0000
1000
0000
0000
0100
0000
0000
0000
0001
0000
0000
1000
0000
0000
,
0010
0000
0000
0100
0000
0000
0001
0000
0000
0000
0020
0000
0100
0000
0000
0030
,
0001
0000
0000
1000
0000
0000
0001
0000
0000
0000
0100
0001
0000
0010
0000
0000
,
1000
0000
0000
0001
0000
0000
0100
0000
0000
0000
0010
0000
0000
1000
0000
0000
,
0001
0000
0000
0100
0000
0000
0010
0000
0000
0000
1000
0000
0000
0001
0000
0000
,
0100
0000
0000
0010
0000
0000
1000
0000
0000
0000
0101
0000
0000
1010
0000
0000
,
0110
0000
0000
1001
0000
0000
0101
0000
0000
0000
1010
0000
0000
0110
0000
0000
,
1001
0000
0000
1001
0000
0000
0110
0000
0000
0000
1100
0000
0000
1100
0000
0000
,
1100
0000
0000
0000
0000
0011
0000
0000
0000
0000
0000
0000
0011
0000
0000
0000
0000
0000
0000
0000
1000
0000
0000
0000
0000
0000
0001
0000
0000
0000
0000
0000
,
1000
0000
0000
0010
0000
0000
0100
0000
0001
0000
0000
0000
1000
0000
0000
0000
,
0010
0000
0000
0000
1000
0000
0000
0000
0010
0000
0000
0000
0100
0000
0000
0000
0001
0000
0000
0000
1000
0100
0001
0000
0000
0000
0000
0000
0100
0000
0000
0000
,
0010
0000
0000
0000
1000
0000
0000
0000
0010
0000
0001
0000
0010
0000
0000
0000
1000
0000
0000
0000
0010
0000
1000
0000
0010
0001
1000
0000
0100
0000
0000
0000
,
0001
0000
0100
0000
1000
0000
0001
0000
0100
0000
0001
1000
0001
0000
0001
0000
,
0101
1010
0110
1100
,
0010
0000
0000
0000
1000
0000
0000
0000
0001
0000
0000
0000
0100
0000
0000
0000
1000
0000
0000
0000
0010
0100
1000
0000
1000
0000
0000
0000
0100
0000
0000
0000
,
0001
0000
0010
0000
0001
0000
0010
0000
0001
0010
0001
0100
1000
0100
1000
0000
,
0001
0000
0000
0000
0000
0100
0001
0000
1000
0000
0000
0000
0010
0000
0000
0000
1000
0000
0000
0000
1000
0000
0100
0000
0001
0000
0000
0000
1000
0000
0000
0000
,
0010
1000
0010
0000
0100
0001
0100
0000
1000
0000
0001
0000
0100
0000
0010
0000
,
1000
0000
0100
0001
0000
0000
0100
0000
0001
0000
1000
0010
0000
0000
1000
0000
,
0001
0000
1000
0000
0010
0000
0001
0000
0010
0000
1000
0100
0001
0000
0100
0000
0010
0000
1000
0100
0001
0000
0100
0000
0010
0000
1000
0001
0010
0100
1000
0100
,
0010
0000
1000
0000
0010
0000
1000
0010
1000
0000
0100
0000
0001
0000
0010
0000
,
0001
0010
0001
0000
1000
0000
0001
0000
0100
0000
0000
0000
1100
0000
0000
0000
,
0010
0000
1000
0000
0001
0000
0100
0000
0010
1000
0010
0000
0010
0000
0000
0000
,
0001
0000
0000
1000
0000
0000
0001
0000
0010
0000
0000
0001
0000
0000
1000
0000
,
0100
0001
0000
1000
0000
0010
0000
0100
0000
0010
0001
0000
1000
0000
0010
0000
,
1000
0000
0000
0000
0000
0000
0001
0000
0000
0000
0000
0000
0100
0000
0000
0000
0020
0000
0000
0000
0000
0030
0000
0000
1000
0000
0000
0000
0010
0000
0000
0000
,
1000
0000
0000
0000
0000
0000
0001
0000
0000
0000
0000
0000
0100
0000
0000
0000
0010
0000
0000
0000
1000
0000
0001
0000
0000
0000
0000
1001
0000
0000
0000
0000
,
0001
0000
0000
0000
1000
0000
0000
0000
0010
0000
0000
0000
0100
0000
0000
0000
0000
0000
0100
0000
0010
0000
0001
0000
0100
0000
0001
0000
1000
0100
0001
0000
,
0010
0000
0001
0000
0010
0000
0100
0000
1000
0000
0100
0000
0010
0000
0001
1000
0020
0000
0000
0030
0000
0000
0000
0000
0000
0000
0000
0000
0000
0000
0000
0000
;
