#TITLE:Mixed Layer;
#SUBTITLE:;
#ARTIST:XLev450X;
#TITLETRANSLIT:;
#SUBTITLETRANSLIT:;
#ARTISTTRANSLIT:;
#GENRE:;
#CREDIT:;
#MUSIC:Mixed Layer.ogg;
#BANNER:Mixed Layer.png;
#BACKGROUND:Mixed Layer-bg.png;
#CDTITLE:;
#SAMPLESTART:52.800;
#SAMPLELENGTH:15.000;
#SELECTABLE:YES;
#OFFSET:-0.097;
#BPMS:0.000=150.000;
#STOPS:;
#BGSTAGE:3;
#BGCHANGES:;
#FGCHANGES:;

//--------------- dance-single - XLev450X-bSP ----------------
#NOTES:
     dance-single:
     XLev450X:
     Beginner:
     2:
     0,0,0,0,0:
0000
0000
0000
0000
,
0000
0000
0000
0000
,
0000
0000
0000
0000
,
0000
0000
0000
0000
,
0000
0000
0000
0000
,
0001
0000
0100
0000
,
0001
0000
0010
0000
,
0001
0000
0100
0000
,
0001
0000
0010
0000
,
0010
0000
0000
0000
,
0000
0000
0000
0000
,
0010
0000
0000
0000
,
0000
0000
0000
0000
,
1000
0000
0000
0000
,
0000
0000
0000
0000
,
0001
0000
0000
0000
,
0000
0000
0000
0000
,
0001
0000
0001
0000
,
0001
0000
0001
0000
,
0100
0100
0100
0000
,
0010
0010
0010
0000
,
1000
0000
0000
0000
,
1000
0000
0000
0000
,
0001
0000
0000
0000
,
0001
0000
0000
0000
,
0100
0000
0000
0000
,
1000
0000
1000
0000
,
0100
0000
0000
0000
,
0010
0000
0000
0000
,
0001
0000
0000
0000
,
0100
0000
0100
0000
,
1000
0000
0000
0000
,
0010
0000
0000
0000
,
1000
0000
0001
0000
,
0010
0010
0010
0000
,
0001
0000
0001
0000
,
1000
0000
1000
0000
,
0100
0000
0001
0000
,
0100
0100
0100
0000
,
0001
0000
0010
0000
,
1000
0000
0010
0000
,
0001
0000
1000
0000
,
0010
0010
0010
0000
,
1000
0000
0001
0000
,
1000
1000
1000
0000
,
0010
0000
0100
0000
,
0001
0000
1000
0000
,
0001
0001
1000
1000
,
0001
0001
1000
0000
,
1001
0000
0000
0000
,
0000
0000
0000
0000
,
0110
0000
0000
0000
,
0000
0000
0000
0000
,
0001
0001
0001
0001
,
0001
0001
0001
0000
,
0100
0100
0100
0000
,
0100
0000
0010
0000
,
1000
0000
0001
0000
,
1001
0000
0000
0000
;

//--------------- dance-single - XLev450X-BSP ----------------
#NOTES:
     dance-single:
     XLev450X:
     Easy:
     6:
     0,0,0,0,0:
0000
0000
0000
0000
,
0000
0000
0000
0000
,
0000
0000
0000
0000
,
0000
0000
0000
0000
,
0000
0000
0000
0000
,
0000
1001
0100
0001
,
0000
1001
0010
1000
,
0000
1001
0010
0100
,
0000
1001
0100
0010
,
1001
0000
0000
0000
,
0000
0000
0000
0000
,
1000
0000
0000
0000
,
0001
0000
0001
0000
,
1000
0000
1000
0000
,
0010
0000
0010
0000
,
0100
0000
0100
0000
,
0001
0000
1000
0000
,
0000
1001
1000
0100
,
0000
0110
0010
0001
,
1000
0010
0100
1000
,
0001
0010
0100
0001
,
0100
0000
0001
0000
,
0010
0000
0100
0000
,
1000
0000
0001
0000
,
0100
0000
0010
0000
,
0200
0000
0000
0300
,
0002
0000
0023
0000
,
0230
0000
2300
0000
,
0000
0000
3000
0000
,
0020
0000
0000
0030
,
0200
0000
0320
0000
,
2030
0000
3002
0000
,
1003
0000
0000
0000
,
0010
0000
0010
0000
0010
0010
0010
0000
,
0100
1001
0100
0000
,
0001
0001
1000
1000
,
0001
0110
1000
0010
,
0200
0000
0310
1000
,
0100
1000
0001
0010
,
0100
1001
0100
1001
,
0010
1001
2002
3003
,
0100
0000
0100
0000
0010
0010
0010
0000
,
0100
1001
0020
0130
,
1000
0100
0001
0100
,
1000
1000
0001
0100
,
0020
0000
1030
0100
,
0001
0010
0001
0100
,
0010
0110
0010
0110
,
1000
1001
2002
3003
,
0100
0000
0100
0000
,
0010
0000
0010
0000
,
1000
0000
1000
0000
,
0001
0001
0100
0100
,
1000
0100
0001
1000
,
0010
0100
0001
0010
,
1000
0001
2002
0000
,
0000
3003
0010
1000
,
0200
0000
0020
0330
,
1001
0000
0000
0000
;

//--------------- dance-single - XLev450X-DSP ----------------
#NOTES:
     dance-single:
     XLev450X:
     Medium:
     11:
     0,0,0,0,0:
0000
0000
0000
0000
,
0000
0000
0000
0000
,
0000
0000
0000
0000
,
0000
0000
0000
0000
,
0000
0000
0000
0000
,
0000
0010
1000
0000
0001
1000
0010
0100
,
0000
0100
0010
0000
1000
0001
0100
0001
,
0000
0010
0001
0000
1000
0010
0100
0001
,
0000
0001
1000
0000
0100
1000
0001
0100
,
1001
0001
0010
0100
,
1000
0001
0100
0001
,
1000
0010
0100
0001
,
1000
0100
0010
0001
,
1000
1000
0010
0100
,
0001
0010
0001
1000
,
0010
0100
0001
0010
,
0100
0000
1000
0000
0001
0000
0100
0010
,
0100
1000
0001
0000
1000
0000
0101
0000
,
0000
0010
1000
0000
0100
0000
0011
0000
,
1000
0000
0000
1000
0000
0000
1000
0000
0001
0000
0000
0001
0000
0000
0001
0000
,
0100
0000
0000
0100
0000
0000
0100
0000
0010
0000
0000
0010
0000
0000
0010
0000
,
0010
0010
0001
0001
,
0100
0100
0010
1000
,
0001
0010
0100
1000
,
1001
0000
0000
0000
1000
0001
0100
0000
,
0001
0000
1000
0000
0000
0000
0000
1000
,
0100
0000
0000
0100
0010
0000
0000
0010
,
0001
0000
1000
0002
0000
0000
0100
0000
,
1000
0013
0010
0100
,
1000
0000
0000
0000
0000
0001
1000
0000
,
0010
0100
0001
0100
,
1000
0010
0100
0001
,
0010
0000
0000
0010
0200
0000
0300
0000
,
1000
0010
1000
0001
0100
0010
0100
0001
,
0010
0001
0100
0010
1000
0001
1000
0100
,
0010
0000
0001
0000
1000
0010
1000
0000
,
0001
0000
0100
0000
0010
1000
0100
0000
,
2100
0000
0000
3001
0100
0000
0001
0000
,
0010
0100
1000
0100
0010
0000
0001
0000
,
1000
0000
0000
1000
0000
0000
0001
0000
0010
0000
0000
0010
0000
0000
0100
0000
,
1000
0000
0000
1000
0000
0000
0010
0000
0100
0000
0000
0100
0000
0000
0001
0000
,
1000
0001
0010
0001
0100
0010
0100
0001
,
1000
0010
0100
0001
0010
0100
0010
0001
,
1000
0101
0001
1100
,
1000
0000
0100
0000
0010
0001
0100
0000
,
1002
0000
0000
1003
0100
1000
0010
0000
,
0100
0000
0100
0001
0000
0010
0100
0000
,
1000
0000
0000
0100
0000
0000
1000
0000
0100
0000
0000
0010
0000
0000
0100
0000
,
0010
0000
0000
0001
0000
0000
0010
0000
0001
0000
0000
0000
1001
0000
0000
0000
,
2000
3200
0320
0032
,
2003
3002
0023
0230
,
1300
1010
0001
0101
,
0000
0000
1000
0000
1000
0000
0000
0000
0000
0000
0001
0000
0000
0100
0000
0000
,
1000
0001
1000
0000
0100
0000
0001
0000
,
1000
0010
1000
0000
0001
0000
0100
0000
,
0020
0000
0000
1000
2000
0000
0000
0000
,
0000
0000
0000
0000
3030
0000
0000
0000
0001
0000
0000
0010
0000
0000
0100
0000
,
2000
0000
0000
0001
0002
0000
3003
0000
,
1001
0000
0000
1001
;

//--------------- dance-single - XLev450X-ESP ----------------
#NOTES:
     dance-single:
     XLev450X:
     Hard:
     14:
     0,0,0,0,0:
0000
0000
0000
0000
,
0000
0000
0000
0000
,
0000
0000
0000
0000
,
0000
0000
0000
0000
,
0000
0000
0000
0000
,
0001
0000
0010
0000
0001
0000
1000
0000
0010
0000
0100
0001
0000
1000
0000
0001
,
0100
0000
0010
0000
0100
0000
0001
0000
0010
0000
0100
1000
0000
0001
0000
1000
,
0010
0000
0100
0000
0001
0000
0010
0000
0100
0000
1000
0001
0000
0010
0000
0001
,
0100
0000
0010
0000
1000
0000
0100
0000
0010
0000
0100
1000
0000
0001
0000
0100
,
0010
0001
1000
0010
0100
0001
0010
0100
,
1000
1000
0100
0010
0002
2003
3020
0130
,
0001
0001
0010
0100
1000
0001
0100
0010
,
0100
0001
0010
0100
1000
0001
0100
0010
,
1000
0001
0100
0001
0010
0100
1000
0100
,
0010
0001
0100
0010
0100
0001
0010
0100
,
0010
0001
0010
0100
1000
0001
0100
0010
,
1000
0000
0001
0000
0010
0000
0100
0000
1000
0000
0001
1000
0010
0100
0010
1000
,
0001
0000
1000
0000
0001
0000
1000
0001
0000
0010
0000
0001
1000
0000
0001
0000
,
0100
0000
0010
0000
1000
0000
0010
1000
0000
0001
0000
0100
0001
0000
1000
0000
,
0001
0000
0010
0100
0000
0010
0100
0000
1000
0000
0010
0100
0000
0010
0100
0000
,
0001
0000
0010
0100
0000
0010
0100
0000
1000
0000
0010
0100
0000
0010
0100
0000
,
0010
1000
0100
0010
0001
0100
0001
0010
,
0100
1000
0001
0100
0001
0010
0100
0010
,
0001
1000
0010
0100
0001
1000
0100
1000
,
0010
0000
0100
0001
0000
1000
0100
0000
1000
0001
0100
0010
0100
0001
1000
0100
,
2000
0000
0000
0000
0002
0000
0000
0000
0000
0000
0000
0000
3003
0000
0010
0001
,
0010
0000
0000
0001
0000
0000
0001
0000
1000
0000
0000
0010
0000
0000
0010
0000
,
1000
0000
0000
0001
0000
0000
0100
0000
0000
0000
0020
0000
0230
0000
0320
0000
,
2030
3200
0320
0032
1003
0020
0130
0002
,
0010
0000
0000
0000
0003
1000
0010
0001
,
0010
0100
0001
0010
,
1000
0000
0000
0001
0000
0000
1000
0000
0000
0000
0000
0000
0000
0000
0010
1000
,
0010
0000
0000
0001
0001
0000
0000
0000
,
1100
0000
0001
0100
0010
0100
0001
1000
,
0100
0010
0001
0000
1000
0000
0010
0000
0100
0000
0010
0000
1000
0000
0100
0000
,
1000
0001
0100
0000
0010
0000
1000
0000
0001
0000
0010
0000
0100
0000
1000
0000
,
0001
0100
0010
0000
0100
0000
0001
0000
0010
0000
0100
0000
1000
0001
0100
0010
,
0100
0001
0000
0000
0010
0000
0001
1000
0001
0000
1000
0000
0010
0000
0100
0000
,
0001
0100
1000
0100
0100
0001
0100
0010
,
0100
0000
1000
0001
0000
0010
0001
0000
1000
0000
1000
0100
0000
0010
0100
0000
,
0100
0000
0010
0001
0000
0100
0001
0000
0001
1000
0100
0010
0001
1000
0001
0100
,
0001
0100
0001
0010
0100
1000
0010
1000
,
0100
0010
0001
0100
0001
0010
0100
1000
,
0002
0100
2003
0010
3002
0100
2003
0010
,
3002
0000
0010
0000
2003
0000
0100
0000
3001
0000
1000
0010
0100
0010
1000
0001
,
0200
0000
0000
0000
0310
0000
1000
0010
1000
0000
0100
0000
0010
0000
0001
0000
,
0100
0010
0001
0010
0010
0100
0001
1000
,
1001
0000
1000
0100
0000
1000
0010
1000
0001
0000
0001
0010
0000
0001
0100
0001
,
0010
0000
0010
0100
0000
1000
0001
1000
0010
0000
0010
0100
0000
0001
1000
0000
,
0020
2030
3002
0023
,
0230
0000
0000
0000
2300
0000
0000
0000
3002
0000
0000
0000
0103
0000
0001
0010
,
0100
0000
1000
0001
0100
0000
0010
1000
0001
0000
1000
0100
0010
0001
1000
0010
,
0100
0000
0001
0000
1001
0000
0000
0000
1000
0000
1100
0000
0000
0011
0000
0000
,
0010
0000
0100
0000
0001
1000
0001
1000
0010
0000
0100
0001
1000
0100
0000
0100
,
0010
0000
0001
0000
1000
0010
1000
0010
0100
0000
0001
1000
0001
0000
0100
0000
,
0102
0000
1003
0100
2100
0000
0001
0000
,
0010
0000
3001
0000
0100
0001
1000
0010
,
0102
0000
0000
0000
0013
0000
0100
0000
1000
0001
1000
0001
1000
0001
1000
0001
,
0020
0000
0030
1001
;
