#TITLE:Mirror;
#ARTIST:Monica;
#GENRE:R&B;
#MUSIC:Mirror.ogg;
#BANNER:Mirror.png;
#BACKGROUND:Mirror-bg.png;
#SAMPLESTART:53.679;
#SAMPLELENGTH:15;
#OFFSET:-0.154;
#BPMS:0=139;
#BGSTAGE:4;

//--------------- dance-single - XLev450X-bSP ----------------
#NOTES:
     dance-single:
     XLev450X:
     Beginner:
     1:
     0,0,0,0,0:
0000
0000
0000
0000
,
0000
0000
0000
0000
,
0000
0000
0000
0000
,
0000
0000
0000
0000
,
0000
0000
0000
0000
,
0000
0000
0000
0000
,
0000
0000
0000
0000
,
0000
0000
0000
0000
,
0000
1000
0000
0000
,
0000
1000
0000
0000
,
0000
1000
0000
0000
,
0000
0000
0000
0000
,
0000
1000
0000
0000
,
0000
1000
0000
0000
,
0000
1000
0000
0000
,
0000
0000
0000
0000
,
0000
1000
0000
0000
,
0000
0000
0000
0000
,
0000
1000
0000
0000
,
0000
0000
0000
0000
,
0000
1000
0000
0000
,
0000
0000
0000
0000
,
0000
1000
0000
0000
,
0000
0000
0000
0000
,
0000
1000
0000
0000
,
0000
1000
0000
0000
,
0000
1000
0000
0000
,
0000
0000
0000
0000
,
0000
1000
0000
0000
,
0000
1000
0000
0000
,
0000
0000
0000
0000
,
0000
0000
0000
0000
,
0000
1000
0000
0000
,
0000
1000
0000
0000
,
0000
1000
0000
0000
,
0000
0000
0000
0000
,
0000
1000
0000
0000
,
0000
1000
0000
0000
,
0000
1000
0000
0000
,
0000
0000
0000
0000
,
0000
1000
0000
0000
,
0000
1000
0000
0000
,
0000
1000
0000
0000
,
0000
0000
0000
0000
,
0000
1000
0000
0000
,
0000
1000
0000
0000
,
0000
1000
0000
0000
,
0000
0000
0000
0000
,
0000
1000
0000
0000
;

//--------------- dance-single - XLev450X-BSP ----------------
#NOTES:
     dance-single:
     XLev450X:
     Easy:
     4:
     0,0,0,0,0:
0000
0000
0000
0000
,
0000
0000
0000
0000
,
0000
0000
0000
0000
,
0000
0000
0000
0000
,
0000
0000
0000
0000
,
0000
0000
0000
0000
,
0000
0000
0000
0000
,
0000
0000
0000
0000
,
0000
0001
0000
1000
,
0000
0010
0000
0000
,
0000
1000
0000
0001
,
0000
1000
0000
0000
,
0000
0010
0000
1000
,
0000
0100
0000
0001
,
0000
1000
0000
0010
,
0000
0100
0000
0000
,
0000
1000
0000
0001
,
0000
1000
0000
0000
,
0000
0010
0000
1000
,
0100
0001
0000
0000
,
0000
1000
0000
0001
,
0100
0010
0000
1000
,
0010
0100
1000
0001
,
0000
1000
0001
1000
,
0000
1001
0000
0000
,
0000
1001
0000
0000
,
0000
1001
0001
1000
,
0001
1001
0000
0000
,
0000
0010
1000
0010
,
0000
0100
0001
1000
,
0000
0001
1000
0001
,
0000
0010
1000
0010
,
0000
0001
1000
0100
,
0001
1000
0000
0000
,
0000
0010
1000
0100
,
0010
0001
0000
0000
,
0000
0010
1000
0100
,
0000
0001
1000
0001
,
0000
0010
1000
0100
,
0010
0000
1000
0000
0001
0000
1000
0001
,
1000
0010
1000
0100
,
0000
0010
1000
0010
,
0000
0001
0010
1000
,
0000
0001
1000
0100
,
1000
0000
0001
1000
0001
0000
0010
0000
,
1000
0000
0010
1000
0010
0000
0100
0000
,
0001
1000
0000
0001
,
0000
0000
1000
0000
0001
0000
1000
0001
,
1000
2002
0000
0000
,
0000
0000
0000
3003
;

//--------------- dance-single - XLev450X-DSP ----------------
#NOTES:
     dance-single:
     XLev450X:
     Medium:
     6:
     0,0,0,0,0:
0000
0000
0000
0000
,
0000
0000
0000
0000
,
0000
0000
0000
0000
,
0000
0000
0000
0000
,
0000
0000
0000
0000
,
0000
0000
0000
0000
,
0000
0000
0000
0000
,
0000
0000
0000
0000
,
0000
0001
1000
0100
,
0010
1000
0001
0100
,
0000
0010
1000
0100
,
0001
0000
1000
0000
0001
0000
1000
0010
,
1000
0010
0001
0100
,
1000
0100
0001
1000
,
0000
0001
1000
0100
,
0010
0000
1000
0000
0010
0000
0010
0100
,
0010
0001
1000
0010
,
0100
1000
0010
1010
,
0000
0001
1000
0100
,
0001
1000
0010
0101
,
0000
0001
1000
1001
,
0000
0010
1000
1010
,
0000
0010
0100
0110
,
0000
0001
1000
0010
,
0000
0000
1000
0000
0100
0000
0001
1000
,
0001
0100
1000
0001
,
0000
0000
0010
0000
1000
0000
0100
0010
,
0100
1000
0001
1000
,
0000
0000
0001
0000
1000
0000
0001
1000
,
0001
0000
0000
0100
0000
0000
0001
0000
,
0000
1000
0000
0001
0000
0000
0100
0000
,
0000
0010
1000
0010
1000
0001
1000
0000
,
0001
1000
0001
0000
1000
0000
0001
0000
,
0100
0000
0010
1000
0010
0000
0001
0010
,
0001
1000
0100
0001
,
1000
0000
0001
1000
0001
1000
0010
0000
,
0000
0010
1000
0100
,
0001
1000
0010
0101
,
0000
0001
1000
0001
,
0100
0000
1000
0010
1000
0000
0010
0100
,
0010
0001
1000
0001
,
0100
0001
1000
0001
,
0000
1000
0010
0100
,
1000
0010
0001
0101
,
0000
0001
1000
0010
,
1000
0000
0010
1000
0010
0000
0001
0000
,
0100
0000
1000
0001
1000
0000
0010
0000
,
0100
0000
0001
0010
0001
0000
1000
0100
,
1000
2002
0000
0000
,
0000
0000
0000
0000
0000
0000
0000
0000
0000
0000
0000
0000
0000
0000
0000
0000
0000
0000
0000
0000
0000
0000
0000
0000
0000
0000
0000
0000
0000
0000
0000
0000
0000
0000
0000
0000
0000
0000
0000
0000
0000
0000
0000
0000
0000
0000
0000
0000
0000
0000
0000
0000
0000
0000
0000
0000
0000
0000
0000
0000
0000
0000
0000
0000
0000
0000
0000
0000
0000
0000
0000
0000
3003
0000
0000
0000
0000
0000
0000
0000
0000
0000
0000
0000
0000
0000
0000
0000
0000
0000
0000
0000
0000
0000
0000
0000
;

//--------------- dance-single - XLev450X-ESP ----------------
#NOTES:
     dance-single:
     XLev450X:
     Hard:
     8:
     0,0,0,0,0:
0000
0000
0000
0000
,
0000
0000
0000
0000
,
0000
0000
0000
0000
,
0000
0000
0000
0000
,
0000
0000
0000
0000
,
0000
0000
0000
0000
,
0000
0000
0000
0000
,
0000
0000
0000
0000
,
0000
0000
0010
1000
0010
0100
0001
0000
,
1000
0000
0001
1000
0001
0000
0010
1000
,
0010
0000
0010
0001
0010
1000
0001
0100
,
1000
0000
0001
0000
1000
0001
1000
0000
,
0000
0000
0010
1000
0010
0000
0010
0000
,
0100
1000
0010
0000
0010
0001
0010
0000
,
1000
0100
0001
1000
0001
0000
1000
0010
,
1000
0000
0010
0100
0010
1000
0001
0000
,
1000
0000
0001
1000
0001
0100
1000
0000
,
0001
0000
0001
1000
0001
0000
0010
1000
,
0010
0000
0010
0100
0010
0000
0001
0010
,
0001
1000
0001
0100
,
0010
0000
1000
0010
1010
0000
0010
0001
,
0011
0000
0010
0100
0110
0000
1000
0001
,
1001
0000
0001
0000
1000
0000
0001
1000
,
0001
0000
0010
0000
1000
0000
0010
0100
,
1000
0010
0001
0000
1000
0000
0100
1000
,
0010
0001
1000
0001
,
0010
0000
1000
0010
1000
0000
0100
0000
,
0001
1000
0001
0100
,
0001
0000
1000
0001
1000
0000
0010
0000
,
1000
0010
0000
0100
0000
0000
0001
0000
,
0000
1000
0000
0001
0000
0000
0100
0000
,
0000
0000
1000
0000
0010
0000
1000
0000
0010
0000
1000
0000
0001
0010
0100
0000
,
1000
0001
1000
0000
0001
0000
1000
0010
,
1000
0000
0100
0000
1000
0000
0001
1000
,
0010
0000
0001
0001
1000
0000
0100
0000
,
1000
0000
0010
1000
0100
0001
1000
0000
,
0001
0010
1000
0100
,
1000
0000
0010
1000
0010
0100
1000
0000
,
0001
0000
1000
0001
0000
0100
1000
0000
,
0010
0100
0000
0001
1000
0000
0001
0000
,
0100
1000
0001
0000
0100
0000
1000
0000
,
0100
0000
0010
1000
0100
1000
0001
0000
,
0010
0000
1000
1000
0100
0001
1000
0000
,
0001
0010
1000
0100
,
1000
0000
0001
1000
0001
0000
0010
1000
,
0010
0000
0100
0000
1000
0000
0001
0100
,
1000
0001
0010
1000
,
0100
0000
0001
1000
0010
0100
1000
0001
,
0010
0100
2002
0000
0000
0000
0000
0000
,
0000
0000
0000
3003
;
