#TITLE:Mind Parasite (RGR-Special);
#SUBTITLE:;
#ARTIST:TOMOSUKE;
#TITLETRANSLIT:;
#SUBTITLETRANSLIT:;
#ARTISTTRANSLIT:;
#GENRE:;
#CREDIT:;
#MUSIC:Mind Parasite (RGR-Special).ogg;
#BANNER:Mind Parasite (RGR-Special).png;
#BACKGROUND:Mind Parasite (RGR-Special)-bg.png;
#CDTITLE:./CDTITLES/DANCEMANIAX.PNG;
#SAMPLESTART:56.290;
#SAMPLELENGTH:15.000;
#SELECTABLE:YES;
#OFFSET:0.000;
#BPMS:0.000=145.000;
#STOPS:;
#BGSTAGE:15;
#DISPLAYBPM:145.000;
#BGCHANGES:;
#FGCHANGES:;

//--------------- dance-single - XLev450X ----------------
#NOTES:
     dance-single:
     XLev450X:
     Challenge:
     16:
     0,0,0,0,0:
0000
0000
0000
0000
,
0000
0000
0000
0000
,
0000
0000
0000
0000
,
0000
0000
0000
0000
,
0000
0000
0000
0000
,
0000
0000
0000
0000
,
0000
0000
0000
0000
,
0000
0000
0000
0000
,
0000
0000
0000
0000
,
0000
0000
0000
0000
,
1001
0000
0000
0000
0010
1000
0100
0000
0001
0000
1000
0000
0010
1000
0000
0100
,
0001
0000
0100
0001
1000
0000
0001
0000
0100
0000
0010
0000
1000
0100
0001
0100
,
1000
0000
0100
0000
0001
0000
1000
0000
0010
0000
0100
0000
0001
0010
1000
0100
,
0010
0001
0010
1000
0100
0000
0001
0000
1000
0000
0010
0000
0100
0000
0000
0000
,
1000
0000
0001
0100
0010
0000
0100
0010
0001
0000
1000
0000
0010
0000
0000
0000
,
0100
1000
0001
0000
0010
0100
0001
0000
1000
0000
0010
0000
0100
1000
0001
0100
,
2002
0000
0000
0000
0000
0000
0000
0000
0000
0000
0000
0000
0000
0000
0000
0000
0000
0000
0000
0000
0000
0000
0000
0000
3003
0000
0000
0000
0000
0000
0100
0000
0010
0000
0100
0000
1000
0000
0100
0010
0000
0000
0001
0000
0000
1000
0000
0000
,
0100
0000
0000
0001
0000
0000
1000
0000
0000
0000
0010
0000
0000
0100
0001
0000
,
0001
1000
0010
0100
0001
1000
0010
0100
,
0001
1000
0010
0100
0001
1000
0010
0000
,
0001
0010
1000
0000
0010
0000
0100
0000
0001
0100
1000
0000
0010
0000
0100
0000
,
0010
0001
1000
0000
0010
0000
0100
0000
1000
0100
0001
0000
0010
0000
0100
0000
,
1000
0001
0100
0001
1000
0000
0001
0000
1000
0000
0010
0000
0001
0000
0100
0000
,
0001
0010
0100
0010
0001
0000
0010
0000
1000
0000
0010
0000
0100
0000
1000
0000
,
0001
1000
0100
1000
0100
0000
0001
0000
1000
0000
0010
0000
0001
0000
0100
0000
,
0010
1000
0001
0010
0001
0000
0010
0000
0100
0010
0001
1000
0001
0100
0001
1000
,
0100
0000
0000
0001
0000
0000
1000
0000
0000
0010
0000
0000
0100
0000
0000
0001
,
0000
0000
1000
0000
0010
0000
0100
1000
0001
0010
0100
1000
0001
1000
0100
0010
,
0100
0000
0000
0001
0000
0000
1000
0000
0000
0010
0000
0000
0100
0000
0000
0001
,
0000
0000
1000
0000
0010
0000
0001
0000
0100
0010
0001
1000
0100
1000
0010
0100
,
0001
0000
0000
0010
0000
0000
1000
0000
0000
0100
0000
0000
0001
0000
0000
1000
,
0000
0000
0010
0000
0100
0000
0001
0000
0100
1000
0010
0100
0010
1000
0001
0010
,
0100
1000
0010
0100
0010
1000
0010
0100
0001
0100
0001
1000
0010
1000
0010
0100
,
0010
0000
0000
1000
0000
0000
0001
0000
0000
0100
0000
0000
0010
0000
0000
1000
0000
0000
0001
0000
0010
0100
1000
0000
0001
0000
0000
0010
0000
0000
0100
0000
0000
1000
0000
0000
0001
0000
0000
0100
0000
0000
0001
0000
0000
0100
0000
0000
,
0001
1000
0000
0010
0100
0000
0001
1000
0000
0010
0100
0000
0001
1000
0010
0100
,
0001
0010
0000
1000
0001
0000
0100
0001
0000
1000
0010
0000
0100
0001
1000
0010
,
1000
0001
0000
0100
1000
0000
0010
1000
0000
0001
0100
0000
0010
1000
0001
0100
,
1000
0001
0000
1000
0010
0000
1000
0100
0000
0001
0100
0000
0010
1000
0001
0100
,
0010
1000
0100
0001
0100
0000
0010
1000
0000
0001
0100
0000
0010
1000
0001
0100
,
0010
0001
0000
1000
0001
0000
0100
0010
0000
1000
0001
0000
0100
0010
1000
0010
,
0001
0100
0000
0010
1000
0000
0001
0000
0000
0100
0000
0000
0001
0000
0000
1000
,
0000
0000
0010
0000
0000
0000
0100
0000
0001
0010
1000
0010
0100
0001
1000
0000
,
0001
0010
0100
1000
0010
1000
0100
1000
0010
0100
0010
1000
0010
1000
0001
1000
,
0001
0010
0100
0010
0100
1000
0010
0100
0010
1000
0010
1000
0100
1000
0001
0010
,
0001
0010
0100
0010
0100
1000
0001
0010
0100
1000
0100
0010
0100
0010
0001
0010
,
0100
1000
0100
0010
0001
0100
0001
1000
0100
0010
0001
0010
0001
0100
0010
0100
,
0010
1000
0010
1000
0001
0010
0100
0010
0001
1000
0010
1000
0010
1000
0001
0010
,
0100
1000
0100
0010
0100
1000
0010
1000
0010
0100
0001
1000
0100
1000
0100
0010
,
0001
1000
0001
0100
0001
1000
0010
1000
0100
0010
0001
1000
0010
1000
0100
0010
,
0001
0100
0001
0100
0010
0100
0001
1000
0010
0100
0001
1000
0100
1000
0010
0100
,
0020
0000
0000
0000
,
0000
0030
0000
0000
;
