#TITLE:Meet the Beat;
#MUSIC:Meet the Beat.ogg;
#BANNER:Meet the Beat.png;
#BACKGROUND:Meet the Beat-bg.png;
#SAMPLESTART:8.821;
#SAMPLELENGTH:15;
#SELECTABLE:YES;
#OFFSET:-0.077;
#BPMS:0=110;

//--------------- dance-single - XLev450X-bSP ----------------
#NOTES:
     dance-single:
     XLev450X:
     Beginner:
     4:
     0,0,0,0,0:
0000
0000
0000
0000
,
0000
0000
0000
0000
,
0000
0000
0000
0000
,
0000
0000
0000
0000
,
0001
1000
0010
0000
,
0100
0001
1000
0000
,
0001
1000
0010
0000
,
0010
0100
0001
0000
,
0001
0001
0001
0000
,
1000
0010
0100
0000
,
0010
1000
0001
0000
,
0100
0010
0001
0000
,
0010
0010
0010
0000
,
1000
0001
0100
0000
,
1000
0001
0010
0000
,
0100
0001
1000
0000
,
0010
1000
0001
0100
,
0010
1000
0001
0000
,
0010
0001
1000
0010
,
0100
0001
0010
0000
,
1000
0001
0100
0010
,
1000
0001
0010
0000
,
1000
0001
0010
1000
,
0001
0100
0010
0000
,
1000
0010
0001
0100
,
0010
1000
0001
0010
,
1000
0010
0100
0001
,
1000
0010
0100
0000
,
0001
1000
0001
0100
,
0010
1000
0001
0010
,
1000
0001
0010
0100
,
0001
1000
0010
0000
,
0001
0001
0001
0000
,
1000
0010
0100
0000
,
0010
1000
0001
0000
,
0100
0010
0001
0000
,
0010
0010
0010
0000
,
1000
0001
0100
0000
,
1000
0001
0010
0000
,
0100
0001
1000
0000
,
0010
1000
0001
0100
,
0010
1000
0001
0000
,
0010
0001
1000
0010
,
0100
0001
0010
0000
,
1000
0001
0100
0010
,
1000
0001
0010
0000
,
1000
0001
0010
1000
,
0001
0100
0010
0000
,
1000
0010
0001
0100
,
0010
1000
0001
0010
,
1000
0010
0100
0001
,
1000
0010
0100
0000
,
0001
1000
0001
0100
,
0010
1000
0001
0010
,
1000
0001
0010
0100
,
0001
1000
0010
0000
,
0001
1000
0010
0000
,
0100
0001
1000
0000
,
1001
0000
0000
0000
;

//--------------- dance-single - XLev450X-BSP ----------------
#NOTES:
     dance-single:
     XLev450X:
     Easy:
     6:
     0,0,0,0,0:
0000
0000
0000
0000
,
0000
0000
0000
0000
,
0000
0000
0000
0000
,
0000
0000
0000
0000
,
1000
0001
0010
0100
,
1000
0000
0010
0000
0200
0000
0000
0300
,
0001
1000
0010
0100
,
0001
0000
1000
0000
0020
0000
0000
0030
,
1001
1001
1001
0010
,
0100
0001
1000
0010
,
0001
1000
0010
0100
,
0001
0000
1000
0000
0020
0000
0000
0030
,
1001
1001
1001
0010
,
1000
0001
0100
0010
,
1000
0001
0010
1000
,
0001
0100
0020
0000
,
0030
0010
0000
1000
0001
0000
0100
0000
,
0010
0000
1000
0000
0001
0010
1000
0000
,
0001
0000
0100
0000
0001
1000
0010
0000
,
0100
0000
0001
0000
1000
0001
1000
0000
,
0010
0000
1000
0000
0001
0100
0010
0000
,
1000
0000
0001
0000
1000
0010
0100
0000
,
0001
0000
1000
0000
0001
0100
0001
0000
,
0010
0000
1000
0000
0010
0100
0001
0000
,
2000
0000
3001
0100
,
0020
0000
1030
0001
,
0200
0000
0310
1000
,
0002
0000
0103
0010
,
0001
0010
0001
0000
1000
0010
1000
0000
,
0010
0000
0100
0000
0001
1000
0010
0000
,
0100
0001
1000
0010
,
0100
0001
1000
0000
0010
0100
0001
0000
,
1001
1001
1001
0010
,
0100
0001
1000
0010
,
0001
1000
0010
0100
,
0001
0000
1000
0000
0020
0000
0000
0030
,
1001
1001
1001
0010
,
1000
0001
0100
0010
,
1000
0001
0010
1000
,
0001
0100
0020
0000
,
0030
0010
0000
1000
0001
0000
0100
0000
,
0010
0000
1000
0000
0001
0010
1000
0000
,
0001
0000
0100
0000
0001
1000
0010
0000
,
0100
0000
0001
0000
1000
0001
1000
0000
,
0010
0000
1000
0000
0001
0100
0010
0000
,
1000
0000
0001
0000
1000
0010
0100
0000
,
0001
0000
1000
0000
0001
0100
0001
0000
,
0010
0000
1000
0000
0010
0100
0001
0000
,
2000
0000
3001
0100
,
0020
0000
1030
0001
,
0200
0000
0310
1000
,
0002
0000
0103
0010
,
0001
0010
0001
0000
1000
0010
1000
0000
,
0010
0000
0100
0000
0001
1000
0010
0000
,
0100
0001
1000
0010
,
0100
0001
1000
0000
0010
0100
0001
0000
,
1000
0001
0010
0100
,
1000
0000
0010
0000
0200
0000
0000
0300
,
0002
0000
0000
0000
,
0000
0000
0000
0000
,
0003
0000
0000
0000
;

//--------------- dance-single - XLev450X-DSP ----------------
#NOTES:
     dance-single:
     XLev450X:
     Medium:
     10:
     0,0,0,0,0:
0000
0000
0000
0000
,
0000
0000
0000
0000
,
0000
0000
0000
0000
,
0000
0000
0000
0000
,
1000
0000
0001
0000
0010
1000
0001
0000
,
0100
0000
0010
0000
0001
1000
0010
0100
,
0001
0000
0010
0000
1000
0001
0010
0000
,
0100
0000
0001
0000
1000
0010
0100
0000
,
1001
0000
0101
0000
0010
1000
0010
0000
,
0001
0000
1000
0000
0001
0100
0010
1000
,
0010
0000
0100
0000
0001
1000
0010
0000
,
0001
0000
1000
0000
0010
0100
0001
0000
,
1010
0000
0110
0000
0001
1000
0010
0000
,
0100
0000
0001
0000
1000
0001
0100
0010
,
1000
0000
0001
0000
1000
0001
0100
0000
,
0010
0000
1000
0000
0010
0100
0001
0010
,
0000
1000
0001
0000
0100
0000
0001
0000
,
1000
0010
0100
0000
0001
1000
0001
0100
,
0010
0000
0000
0000
0001
0000
0000
0000
1000
0000
0001
0000
0000
0010
0000
0000
,
1000
0000
0000
0000
0001
0000
0000
0000
0010
0000
1000
0000
0000
0001
0000
0000
,
0010
0000
1000
0000
0001
0100
0010
0000
,
1000
0000
0001
0000
0100
0000
0000
0010
0000
1000
0000
0000
0001
0000
0000
0000
,
0100
0000
0000
0000
0001
0000
0000
1000
0000
0010
0000
0000
0100
0000
0000
0000
,
0001
0000
0000
0000
1000
0000
0000
0010
0000
0100
0000
0000
0001
0000
0000
0000
,
1000
0000
0000
0000
0010
0000
0000
1000
0000
0001
0000
0000
0100
0000
0010
0000
,
1000
0000
0000
0000
0001
0000
0000
0010
0000
1000
0000
0000
0001
0000
0100
0000
,
0000
0000
0010
0000
1000
0000
0000
0001
0000
0100
0000
0000
0010
0000
1000
0000
,
0001
0000
0100
0000
0010
0000
0000
1000
0000
0001
0000
0000
0100
0000
0010
0000
,
0000
0000
0001
0000
1000
0000
0000
0001
0000
1000
0000
0000
0010
0000
0100
0000
,
0001
0000
1000
0000
0010
0000
0000
0100
0000
0001
0000
1000
0010
0000
0100
0000
,
0000
0000
0001
0000
1000
0000
0000
0010
0000
0100
0000
0000
0001
0000
1000
0000
,
0010
0000
0100
0000
0001
0000
0000
1000
0000
0010
0000
0100
0001
0000
0010
0000
,
1001
0000
0101
0000
0010
1000
0010
0000
,
0001
0000
1000
0000
0001
0100
0010
1000
,
0010
0000
0100
0000
0001
1000
0010
0000
,
0001
0000
1000
0000
0010
0100
0001
0000
,
1010
0000
0110
0000
0001
1000
0010
0000
,
0100
0000
0001
0000
1000
0001
0100
0010
,
1000
0000
0001
0000
1000
0001
0100
0000
,
0010
0000
1000
0000
0010
0100
0001
0010
,
0000
1000
0001
0000
0100
0000
0001
0000
,
1000
0010
0100
0000
0001
1000
0001
0100
,
0010
0000
0000
0000
0001
0000
0000
0000
1000
0000
0001
0000
0000
0010
0000
0000
,
1000
0000
0000
0000
0001
0000
0000
0000
0010
0000
1000
0000
0000
0001
0000
0000
,
0010
0000
1000
0000
0001
0100
0010
0000
,
1000
0000
0001
0000
0100
0000
0000
0010
0000
1000
0000
0000
0001
0000
0000
0000
,
0100
0000
0000
0000
0001
0000
0000
1000
0000
0010
0000
0000
0100
0000
0000
0000
,
0001
0000
0000
0000
1000
0000
0000
0010
0000
0100
0000
0000
0001
0000
0000
0000
,
1000
0000
0000
0000
0010
0000
0000
1000
0000
0001
0000
0000
0100
0000
0010
0000
,
1000
0000
0000
0000
0001
0000
0000
0010
0000
1000
0000
0000
0001
0000
0100
0000
,
0000
0000
0010
0000
1000
0000
0000
0001
0000
0100
0000
0000
0010
0000
1000
0000
,
0001
0000
0100
0000
0010
0000
0000
1000
0000
0001
0000
0000
0100
0000
0010
0000
,
0000
0000
0001
0000
1000
0000
0000
0001
0000
1000
0000
0000
0010
0000
0100
0000
,
0001
0000
1000
0000
0010
0000
0000
0100
0000
0001
0000
1000
0010
0000
0100
0000
,
0000
0000
0001
0000
1000
0000
0000
0010
0000
0100
0000
0000
0001
0000
1000
0000
,
0010
0000
0100
0000
0001
0000
0000
1000
0000
0010
0000
0100
0001
0000
0010
0000
,
1001
0000
0101
0000
0010
1000
0010
0000
,
0001
0000
1000
0000
0001
0100
0010
1000
,
0020
0000
0000
0000
,
0000
0000
0000
0000
,
0030
0000
0000
0000
;

//--------------- dance-single - XLev450X-ESP ----------------
#NOTES:
     dance-single:
     XLev450X:
     Hard:
     14:
     0,0,0,0,0:
0000
0000
0000
0000
,
0000
0000
0000
0000
,
0000
0000
0000
0000
,
0000
0000
0000
0000
,
0001
1000
0010
0000
0100
0001
0010
0001
,
1000
0000
0010
0000
0100
0000
0000
0000
0001
0000
1000
0001
0010
0000
0100
0000
,
0001
1000
0010
0000
0001
1000
0010
0100
,
0001
0000
1000
0000
0010
0000
0000
0000
1000
0000
0000
0001
0000
0000
0010
0000
,
0001
0100
0010
1000
0001
0000
0000
0000
0100
0000
0010
0000
0001
0000
1000
0000
,
0010
0001
0000
0000
0100
0000
0000
0000
0001
0000
1000
0001
0010
0000
0100
0000
,
0001
1000
0010
0000
0001
0000
0100
1000
,
0010
0000
0000
0000
0100
0000
0000
0000
0001
0000
0000
1000
0000
0000
0010
0000
,
0100
0010
0000
0000
0001
0000
0000
0000
1000
0000
0010
0000
0100
0000
0001
0000
,
1000
0001
0000
0000
0010
0000
0000
0000
0001
0000
0010
0001
1000
0000
0001
0000
,
0100
0000
0000
0000
0010
0000
0000
0000
0001
0000
1000
0001
0010
0000
0100
0000
,
0001
0000
0000
0000
1000
0000
0000
0000
0010
0000
0000
0100
0000
0000
0001
0000
,
0000
0000
0010
0000
0100
0000
0000
0001
0000
1000
0100
0000
0010
0000
0100
0000
,
0000
0000
1000
0000
0010
0000
0000
0100
0000
0001
1000
0010
0100
0000
0010
0000
,
0001
0000
1000
0000
0010
0000
0000
0001
0000
1000
0010
0100
0000
0001
0100
1000
,
0001
0000
0010
0000
0100
0000
0000
0001
0000
1000
0010
0000
0001
0000
1000
0000
,
0000
0000
0010
0000
0100
0000
0000
0001
0000
1000
0001
0000
0100
0000
0010
0000
,
1000
0000
0010
0000
0100
0000
0000
0001
0000
1000
0010
0000
0001
1000
0001
0100
,
0010
0000
0100
0000
0001
0000
0000
0010
0000
1000
0001
0000
0100
0010
0000
1000
,
0000
0100
0001
0000
0100
0000
0000
0010
0000
1000
0001
0000
0100
0000
0010
0000
,
1000
0000
0001
0000
0100
0000
0000
0010
0000
1000
0001
0000
0100
0000
0010
0000
,
1000
0000
0001
0000
0100
0000
0000
0010
0000
1000
0001
0000
0100
0001
0100
0001
,
1000
0000
0010
0000
0100
0000
0000
1000
0000
0001
0100
0000
0010
0000
1000
0000
,
0001
0000
0100
0000
0010
0000
0000
1000
0000
0001
0000
0010
0100
1000
0001
0000
,
0100
0000
0010
0000
1000
0000
0000
0001
0000
1000
0010
0000
1000
0000
0001
0000
,
0100
0000
0010
0000
1000
0000
0000
0001
0000
0100
0001
0000
1000
0100
0001
0100
,
0010
0000
0001
0000
1000
0000
0000
0010
0000
0100
0001
0000
1000
0000
0010
0000
,
0100
0000
0001
0000
1000
0010
0000
0001
0010
0100
0001
1000
0100
0010
0001
0010
,
1000
0100
0000
0000
0001
0000
0000
0000
0100
0000
0010
0000
0001
0000
1000
0000
,
0010
0001
0000
0000
0100
0000
0000
0000
0001
0000
1000
0001
0010
0000
0100
0000
,
0001
1000
0010
0000
0001
0000
0100
1000
,
0010
0000
0000
0000
0100
0000
0000
0000
0001
0000
0000
1000
0000
0000
0010
0000
,
0100
0010
0000
0000
0001
0000
0000
0000
1000
0000
0010
0000
0100
0000
0001
0000
,
1000
0001
0000
0000
0010
0000
0000
0000
0001
0000
0010
0001
1000
0000
0001
0000
,
0100
0000
0010
0000
0001
1000
0010
0100
,
0001
0000
0000
0000
1000
0000
0000
0000
0010
0000
0000
0100
0000
0000
0001
0000
,
0000
0000
0010
0000
0100
0000
0000
0001
0000
1000
0100
0000
0010
0000
0100
0000
,
0000
0000
1000
0000
0010
0000
0000
0100
0000
0001
1000
0010
0100
0000
0010
0000
,
0001
0000
1000
0000
0010
0000
0000
0001
0000
1000
0010
0100
0000
0001
0100
1000
,
0001
0000
0010
0000
0100
0000
0000
0001
0000
1000
0010
0000
0001
0000
1000
0000
,
0000
0000
0010
0000
0100
0000
0000
0001
0000
1000
0001
0000
0100
0000
0010
0000
,
1000
0000
0010
0000
0100
0000
0000
0001
0000
1000
0010
0000
0001
1000
0001
0100
,
0010
0000
0100
0000
0001
0000
0000
0010
0000
1000
0001
0000
0100
0010
0000
1000
,
0000
0100
0001
0000
0100
0000
0000
0010
0000
1000
0001
0000
0100
0000
0010
0000
,
1000
0000
0001
0000
0100
0000
0000
0010
0000
1000
0001
0000
0100
0000
0010
0000
,
1000
0000
0001
0000
0100
0000
0000
0010
0000
1000
0001
0000
0100
0001
0100
0001
,
1000
0000
0010
0000
0100
0000
0000
1000
0000
0001
0100
0000
0010
0000
1000
0000
,
0001
0000
0100
0000
0010
0000
0000
1000
0000
0001
0000
0010
0100
1000
0001
0000
,
0100
0000
0010
0000
1000
0000
0000
0001
0000
1000
0010
0000
1000
0000
0001
0000
,
0100
0000
0010
0000
1000
0000
0000
0001
0000
0100
0001
0000
1000
0100
0001
0100
,
0010
0000
0001
0000
1000
0000
0000
0010
0000
0100
0001
0000
1000
0000
0010
0000
,
0100
0000
0001
0000
1000
0010
0000
0001
0010
0100
0001
1000
0100
0010
0001
0010
,
0001
1000
0010
0000
0100
0001
0010
0001
,
1000
0000
0010
0000
0100
0000
0000
0000
0001
0000
1000
0001
0010
0000
0100
0000
,
2002
0000
0000
0000
,
0000
0000
0000
0000
,
3003
0000
0000
0000
;
