#TITLE:Max Burning!!;
#ARTIST:BlackY;
#MUSIC:Max Burning!!.ogg;
#BANNER:Max Burning!!.png;
#BACKGROUND:Max Burning!!-bg.png;
#CDTITLE:./CDTitles/SDVX BOOTH.png;
#SAMPLESTART:92.738;
#SAMPLELENGTH:15;
#OFFSET:-0.212;
#BPMS:0=190;
#BGSTAGE:31;

//--------------- dance-single - KurumA-bSP ----------------
#NOTES:
     dance-single:
     KurumA:
     Beginner:
     4:
     0,0,0,0,0:
0000
0000
0000
0000
,
0000
0000
0000
0000
,
0000
0000
0000
0000
,
0000
0000
0000
0000
,
0000
0000
0000
0000
,
0000
0000
0000
0000
,
0000
0000
0000
0000
,
0000
0000
0000
0000
,
0000
0000
0000
0000
,
0000
0001
0001
0001
,
0000
1000
1000
1000
,
0000
0010
1000
0010
,
0000
0100
0010
0100
,
0000
0001
0000
1000
,
0000
0001
0000
1000
,
0000
0010
0100
0010
,
0100
2002
0000
0000
,
3003
0001
0000
0001
,
0000
0001
0000
1000
,
0000
0010
1000
0010
,
0000
0100
0000
0100
,
0000
0001
0000
1000
,
0000
0010
0000
1000
,
0000
0001
0100
0001
,
0000
1000
0000
0010
,
0000
0100
0100
0100
,
0000
1000
1000
1000
,
0000
0010
1000
0001
,
0000
0100
0001
0100
,
0000
0001
0000
1000
,
0000
0001
1000
0010
,
0000
1000
0001
0100
,
0010
2000
0000
0000
,
3000
1001
0000
0000
,
0000
0000
0000
0000
,
0000
0000
0000
0000
,
0000
0000
0000
0000
,
0000
1001
0000
0000
,
0000
0000
0000
0000
,
0000
0000
0000
0000
,
0000
0000
0000
0000
,
0000
0101
0000
0000
,
0000
1010
0000
0000
,
0000
1000
0000
0001
,
0000
0100
0000
0000
,
0000
0010
0000
1000
,
0000
0001
0000
0000
,
0000
1000
0000
0001
,
0000
0100
0000
0010
,
0000
0002
0000
0000
,
0000
0000
0000
0000
,
0000
0003
0000
0000
,
0000
0000
0000
0000
,
0000
0001
0000
1000
,
0000
0001
0000
1000
,
0000
0010
1000
0100
,
0001
0020
0000
0000
,
0030
0010
0010
0010
,
0000
1000
0000
0001
,
0000
0100
0001
0100
,
0000
1000
0010
1000
,
0010
0100
0001
1000
,
0000
0001
0000
1000
,
0000
0010
1000
0001
,
0000
0100
0000
0010
,
0000
1000
0000
1000
,
0000
0001
0000
0000
,
0000
0100
0000
0100
,
0000
0010
0000
0000
,
0000
0001
1000
0001
,
0000
1000
0000
0010
,
0000
1000
0001
0100
,
0010
1000
0200
0000
,
0300
0001
0000
1000
,
0000
0010
1000
0001
,
0000
0100
0000
0010
,
0000
0001
1000
0001
,
0000
0100
0000
1000
,
0000
0001
0100
0010
,
0000
1000
0000
0010
,
0000
0100
0001
1000
,
0010
0100
0000
0001
,
0000
1000
0000
0000
,
0000
0001
0000
1000
,
0000
0010
0000
0000
,
0000
0100
0000
0001
,
0000
1000
0000
0001
,
0000
1000
0100
0010
,
0000
0100
0000
0001
,
0000
1000
0001
0100
,
0001
0000
0000
0020
0000
0000
0000
0000
,
0000
0000
0000
0000
,
0000
0000
0000
0000
0000
0030
0000
0000
0000
0000
0000
0000
0000
0000
0000
0000
;

//--------------- dance-single - KurumA-BSP ----------------
#NOTES:
     dance-single:
     KurumA:
     Easy:
     8:
     0,0,0,0,0:
0000
0000
0000
0000
,
0000
0000
0000
0000
,
0000
0000
0000
0000
,
0000
0000
0000
0000
,
0000
0000
0000
0000
,
0000
0000
0000
0000
,
0000
0000
0000
0000
,
0000
0000
0000
0000
,
0000
0000
0000
0000
,
0000
0010
0010
0010
,
0010
1000
0001
0100
,
0001
1000
0010
0100
,
1000
0001
1000
0010
,
0001
0000
0010
0001
0010
0000
0100
1000
,
0100
0000
0010
0100
0010
0000
0100
0010
,
0100
2002
0000
0000
,
0000
0000
3003
0000
0010
0000
0000
0010
0000
0000
0010
0000
0000
0010
0000
0000
,
0010
0010
0001
0000
1000
0000
0010
1000
,
0010
0010
0100
0001
,
1000
0000
0001
0010
0001
0000
1000
0100
,
1000
0010
0100
0001
,
1000
0000
0010
0000
1000
0000
0001
0100
,
0001
1000
0010
0000
1000
0000
0001
0000
,
0100
0000
0010
0000
1000
0000
0010
0001
,
0010
0000
1000
0010
0000
0100
1000
0001
,
1000
0010
0100
0000
0001
0000
0100
0000
,
0010
0001
1000
0010
,
1000
0010
0100
1000
,
0001
0010
0100
1000
,
0000
0001
1000
0010
,
0101
0010
1000
0010
,
1010
0000
0001
0010
0001
0000
1000
0100
,
1000
0000
0000
0000
0010
0000
0200
0000
0000
0000
0300
0000
0001
0000
0000
1000
,
0000
0010
0100
0000
0001
0000
0000
0000
,
1000
0010
0000
1000
,
0001
0100
0100
0000
,
0001
1000
0010
0001
,
0100
0000
1000
0001
,
0100
1000
0001
0000
,
0100
0001
1000
0000
,
0010
0100
0001
1000
,
0010
0000
0100
0000
0001
0000
1000
0010
,
1000
0000
0100
0000
0001
0000
0010
0100
,
0010
1000
0100
1000
,
0001
0000
0100
0000
0010
1000
0010
0000
,
0100
0000
0001
0000
0100
0000
0010
1000
,
0010
0000
0001
0000
0100
0000
0010
1000
,
0010
0001
1000
0001
,
0100
0010
0100
0000
0001
0000
0100
0000
,
0010
2002
0000
0000
,
0000
0000
0000
0000
,
0000
0000
0000
0000
,
0000
0000
0000
0000
,
0000
3003
0001
0000
1000
0000
0010
0000
,
0100
1000
0010
0100
,
0001
0000
0010
0001
0010
0000
1000
0100
,
1000
0020
0000
0000
,
0000
0000
0000
0030
0001
0000
0000
0000
1000
0000
0000
0000
0010
0000
0000
0000
,
1000
0000
0001
0010
0001
0000
1000
0000
,
0001
0100
1000
0010
,
1000
0000
0100
0000
0001
0000
1000
0001
,
1000
0010
1000
0010
,
0100
0010
1000
0001
,
0010
0000
1000
0000
0001
0000
1000
0001
,
1000
0010
1000
0001
,
0000
0100
1000
0001
,
0100
0010
1000
0100
,
0001
1000
0001
0101
,
0010
1000
0010
1010
,
0001
0000
0010
0000
0010
0000
1000
0001
,
0100
0000
1000
0000
0010
0000
1000
0010
,
1000
0000
0001
0000
0100
0000
0001
0010
,
0001
0000
1000
0000
0100
0000
1000
0002
,
0000
0003
0001
0000
1000
0000
0010
0000
,
0100
0000
1000
0000
0010
1000
0010
0000
,
0100
0010
0100
0001
,
1000
0000
0010
0001
0010
0000
1000
0010
,
1000
0100
0001
0100
,
0010
1000
0001
0101
,
0000
1000
0010
0100
,
0001
0000
1000
0001
1000
0010
0100
0001
,
1000
0010
1000
0010
,
0100
0001
0000
0101
,
0000
1000
0001
1000
,
0010
0100
0000
0000
,
0000
0001
1000
0010
,
1000
0001
0010
1010
,
0000
0000
0000
0000
0001
0000
0000
0000
0100
0000
0000
0001
0000
0000
1000
0000
,
0000
0010
0000
0000
0100
0000
0000
0001
0000
0000
1000
0000
0000
0000
0100
0000
,
0000
0010
0000
0000
0001
0000
0000
0100
0000
0000
1000
0000
0000
0001
0000
0000
,
0100
0001
0100
2001
0000
0000
0000
0000
,
0000
0000
0000
0000
,
0000
0000
0000
0000
0000
3000
0000
0000
0000
0000
0000
0000
0000
0000
0000
0000
;

//--------------- dance-single - KurumA-DSP ----------------
#NOTES:
     dance-single:
     KurumA:
     Medium:
     13:
     0,0,0,0,0:
0000
0000
0000
0000
,
0000
0000
0000
0000
,
0000
0000
0000
0000
,
0000
0000
0000
0000
,
0000
0000
0000
0000
,
0000
0000
0000
0000
,
0000
0000
0000
0000
,
0000
0000
0000
0000
,
0000
0000
0000
0000
,
0000
1000
1000
1000
,
1000
0001
0100
0010
,
0010
1000
0001
0100
,
0010
1000
0001
0010
,
0100
0000
1000
0100
0010
0000
0001
0010
,
0100
0000
1000
0001
0010
0000
0100
0100
,
1000
0000
0010
0001
0010
0100
1000
0100
,
1000
0000
0100
0000
1002
0000
0000
1000
0000
0000
1000
0000
0000
1000
0000
0000
,
1000
1003
0010
0000
0010
0000
1000
0000
,
0001
0000
0100
0000
0010
0000
1000
0010
,
1000
0100
0001
1000
,
0001
0100
0010
2000
,
3100
0001
0010
1000
,
0001
0000
0100
0000
0010
0000
0001
0010
,
0001
0000
1000
0010
1000
0000
0100
0000
,
1000
0001
0100
0020
,
0130
1000
1000
1000
,
0001
0100
0010
1000
,
0010
0000
1000
0010
1000
0000
0100
0001
,
0100
0000
1000
0001
0100
0010
2000
0000
,
3001
0100
0010
1000
,
0010
0000
0001
0010
0001
0000
1000
0100
,
1000
0000
0001
1000
0100
0001
0010
0100
,
1000
0000
0100
0000
0001
1000
0100
0001
0020
0000
0030
0000
0001
0000
0000
1000
,
0000
0000
0010
0000
0001
0000
0000
1000
0000
0000
0010
0000
0000
0000
0000
0000
,
0100
0000
0000
0001
0000
0000
1000
0000
0000
0001
0000
0000
0100
0000
0000
0010
,
0000
1000
0000
0001
1000
0000
0000
0010
,
0000
1000
0000
0000
0001
0000
0000
0100
0000
0000
0010
0000
0000
0000
0000
0000
,
1000
0000
0001
1000
0000
0000
0100
0000
0000
0010
0000
0000
1000
0000
0001
0000
,
0000
0000
0010
0000
0000
0000
0000
0000
1000
0000
0000
0000
0000
0000
0001
0000
0000
0000
0000
0000
1000
0000
0001
0000
0000
0100
0000
0000
0000
0000
0010
0000
,
0000
0000
1000
0000
0000
0001
0000
0000
0100
0000
0000
0000
0100
0000
0001
0000
,
0000
0100
0000
0000
0100
0000
0000
0010
0000
0000
1000
0000
0000
0000
0100
0001
,
0100
1000
0010
0001
0100
0000
1000
0001
0010
1000
0000
0001
0000
0000
1000
0000
,
0010
0000
0000
0000
1000
0000
0000
0010
0000
0000
0001
0000
0000
1000
0000
0000
,
0100
0000
0000
0001
0000
0000
0100
0000
0000
1000
0000
0000
0101
0000
0000
1010
,
0000
0000
0010
0000
0000
0100
0000
0000
0010
0000
0000
1000
0000
0000
0001
0000
,
0010
0000
0100
0000
1100
0000
0000
0011
0000
0000
0100
0000
0000
0000
0001
0000
,
1000
0000
0000
0001
0000
0000
0100
0000
0010
0000
0000
0000
1000
0000
0000
0001
,
0000
0000
0010
0000
0000
1000
0000
0000
0001
0000
0000
0100
0000
0000
1000
0000
,
0000
0000
0100
0000
0000
0000
0001
0000
0100
1000
0100
0001
0010
0001
0020
0000
,
0030
0120
0000
0000
,
0000
0000
0000
0000
,
0000
0000
0000
0000
,
0000
0000
0000
0000
,
0030
0000
0001
0000
1000
0000
0010
1000
,
0010
0000
0100
0000
0001
0000
0010
0001
,
0010
0000
1000
0001
0100
0010
1000
0001
,
0100
0010
2002
0000
0000
0000
0000
0000
,
0000
3003
0001
0000
1000
0000
0010
1000
,
0010
0100
0001
1000
,
0010
0000
1000
0001
0100
0000
1000
0000
,
0100
1000
0101
1010
,
0010
0000
1000
0001
1000
0000
0100
0000
,
1000
1010
0010
0001
,
0010
0000
1000
0001
1000
0000
0010
0000
,
0100
0000
1000
0001
0100
0000
0010
1000
,
0000
0001
0010
0010
,
0010
0000
1000
0000
0001
0000
1000
0010
,
1000
0100
0001
0010
,
1000
0001
0100
0001
,
1000
0000
0010
1000
0010
0100
0001
1000
,
0010
0001
0010
0001
,
1000
0000
0001
0100
0010
1000
0001
0100
,
0010
0000
1000
0000
0001
0000
0100
0001
0100
0000
0010
0100
1000
0000
0002
0000
,
0100
0003
0001
0000
1000
0000
0010
1000
,
0010
0000
0001
0000
0011
0000
0000
1100
,
0000
0001
1000
0000
0010
0000
1000
0000
,
0010
0000
1000
0000
0001
0010
0001
0100
,
1000
0000
0001
0000
0100
0000
1000
0001
,
1000
0000
0010
0000
0100
0000
1000
0001
,
0100
0010
1000
0000
0001
0000
0100
0000
,
1000
0000
0010
1000
0010
0100
0002
0000
,
0000
0003
1000
0000
0001
0000
0010
1000
,
0010
0000
0010
0000
0011
0000
1000
0001
,
0100
0000
0010
0000
0000
0000
1000
0000
0000
0001
0000
0000
0100
0000
0000
0010
,
0000
0000
1000
0000
0000
0001
0000
0000
1000
0000
0000
0010
0000
0000
0100
0000
,
0010
0100
1000
0001
0010
0000
0000
0000
1000
0000
0000
0000
0010
0000
1000
0000
,
0010
0000
0001
0000
0101
0000
0010
1000
,
0010
0000
0100
0000
1000
0000
0000
0000
0010
0000
0000
1000
0000
0000
0001
0000
,
0000
0100
0000
0000
0010
0000
0000
1000
0000
0000
0001
0000
0000
0000
0010
0000
,
0000
0100
0000
0000
1000
0000
0000
0010
0000
0000
0001
0000
0000
1000
0000
0000
,
0010
1000
0010
1002
0000
0000
0000
0000
,
0000
0000
0000
0000
,
0000
0000
0000
0000
0000
0003
0000
0000
0000
0000
0000
0000
0000
0000
0000
0000
;

//--------------- dance-single - KurumA-ESP ----------------
#NOTES:
     dance-single:
     KurumA:
     Hard:
     16:
     0,0,0,0,0:
0000
0000
0000
0000
,
0000
0000
0000
0000
,
0000
0000
0000
0000
,
0000
0000
0000
0000
,
0000
0000
0000
0000
,
0000
0000
0000
0000
,
0000
0000
0000
0000
,
0000
0000
0000
0000
,
0000
0000
0000
0000
,
0000
0000
0001
0000
1000
0000
0010
1000
,
0010
0000
0001
0000
0100
0000
0010
1000
,
0010
0000
0100
0000
1000
0000
0001
0100
,
0010
0000
1000
0000
0001
0000
0100
0001
,
1000
0000
0001
1000
0010
0100
0001
1000
,
0010
0100
0001
1000
0100
0001
1000
0100
,
0010
0000
0001
0000
0010
0100
0010
1000
0100
0010
0100
1000
0010
0100
0010
1000
,
0100
0010
0001
0010
2100
0000
0000
0100
0000
0000
0100
0000
0000
0100
0000
0000
,
0100
0000
0100
3000
0001
0000
0000
0000
1000
0000
0000
0000
0010
0000
1000
0000
,
0010
0100
0001
0000
0011
0000
0100
0001
,
1000
0010
1000
0000
0001
0000
0100
0010
,
1000
0010
1000
0100
0001
0001
0000
1000
,
0010
0100
0010
1000
0001
0000
0010
0000
,
1100
0000
0001
0000
0010
0000
1000
0001
,
0100
0001
1000
0000
0011
0000
0100
0000
,
0001
0000
0000
0000
1000
0000
0010
0000
1000
0000
0001
1000
0100
0000
0010
0000
,
1000
0000
0001
0010
0100
0000
1000
0000
0001
0000
0000
0000
0010
0000
0000
0000
,
1000
0000
0011
0100
0010
1000
0001
0100
,
0010
1000
0010
0000
1100
0000
0001
0100
,
0001
0000
1000
0010
1000
0001
0100
0010
,
1000
0001
0100
1000
,
0001
0000
0100
0010
1000
0000
0001
0000
,
0100
0000
0001
1000
0010
0100
0001
1000
,
0010
0000
0100
0000
0010
0100
0010
0100
0002
0000
0000
0003
1000
0000
0000
0001
,
0000
0000
0100
0000
1000
0000
0000
0001
0000
0000
0100
0000
0000
0000
0000
0000
,
0010
0000
0000
1000
0000
0000
0001
0000
0000
1000
0000
0000
0010
0000
0000
0100
,
0000
0001
0000
1000
0001
0000
0000
0100
,
0000
0001
0000
0000
1000
0000
0000
0010
0000
0000
0100
0000
0000
0000
0000
0000
,
0001
0000
1000
0001
0000
0000
0010
0000
0000
0100
0000
0000
0001
0000
1000
0000
,
0000
0000
0000
0100
0000
0000
0000
0000
0000
0000
0000
0000
0001
0000
0000
0000
0000
0000
0000
0000
0000
1000
0000
0000
0000
0000
0000
0000
0000
0000
0001
0000
0000
1000
0000
0000
0000
0000
0010
0000
0000
0000
0000
0000
0000
0100
0000
0000
,
0000
0000
0001
0000
0000
1000
0000
0000
0010
0000
0000
0000
0010
0000
1000
0000
,
0000
0010
0000
0000
0010
0000
0000
0100
0000
0000
0001
0000
0000
0000
0010
1000
,
0010
0001
0100
1000
0010
0000
0001
1000
0100
0001
0000
1000
0000
0000
0001
0000
,
0100
0000
0000
0000
0001
0000
0000
0100
0000
0000
1000
0000
0000
0001
0000
0000
,
0010
0000
0000
1000
0000
0000
0010
0000
0000
0001
0000
0000
1010
0000
0000
0101
,
0000
0000
0100
0000
0000
0010
0000
0000
0100
0000
0000
0001
0000
0000
1000
0000
,
0100
0000
0010
0000
0011
0000
0000
1100
0000
0000
0010
0000
0000
0000
1000
0000
,
0001
0000
0000
1000
0000
0000
0010
0000
0100
0000
0000
0000
0001
0000
0000
1000
,
0000
0000
0100
0000
0000
0001
0000
0000
1000
0000
0000
0010
0000
0000
0001
0000
,
0000
0000
0010
0000
0000
0000
1000
0000
0010
0001
0010
1000
0100
1000
0200
0000
,
0300
0000
0000
0000
0001
0000
0000
0000
1000
0000
0000
0000
0010
0000
0000
0100
,
0000
0000
0001
0000
0000
1000
0000
0000
0010
0000
0000
0000
1000
0000
0000
0000
,
0001
0000
0000
0000
0100
0000
0010
0000
1000
0000
0000
0000
0001
0000
0000
0100
,
0000
0000
0010
0000
0000
1000
0000
0000
0001
0000
0100
0000
0010
0000
1000
0000
,
0100
0000
0010
0100
0010
0000
0001
0000
0010
0000
0100
0000
1000
0000
0100
0000
,
0010
0100
0001
1000
0100
0000
0001
0000
0100
0000
0010
0000
1000
0000
0001
1000
,
0100
0010
0001
0100
0010
1000
0001
1000
0100
0010
0100
0010
0001
0010
0001
0100
,
0010
1000
0001
0200
0000
0000
0000
0000
0000
0000
0000
0000
0000
0000
0000
0000
,
0300
0000
0001
1000
0010
0000
0010
0000
,
1100
0000
0001
0010
0001
0010
1000
0001
,
0100
0010
1000
0001
0100
0000
0001
0000
,
1000
0000
0010
0100
0001
1000
0010
0100
,
0001
1000
0010
0000
0100
0000
0001
1000
,
0001
0000
0101
0000
1010
0000
0010
0100
,
0010
0000
0000
0000
2200
3300
0000
0000
0022
0033
0000
0000
0220
0330
0000
0000
,
2002
3003
0000
0000
0010
0000
0001
0000
1000
0000
0000
0010
0100
0000
0001
0000
,
1000
0100
0010
0001
0010
0000
1000
0000
0001
0000
0100
0000
0010
0000
0000
1000
,
0000
0000
0001
0000
0000
0100
0000
0000
0010
0000
0100
0000
0000
0001
1000
0000
,
0010
0000
0001
0000
1000
0000
0010
0000
0100
0000
0001
0000
1000
0000
0000
0001
,
0000
0000
0100
0000
0000
0010
0000
0000
1000
0000
0000
0001
0000
0000
0010
0000
,
0001
0000
1000
0010
0100
0001
1000
0000
,
0010
0100
0001
0000
1000
0000
0010
0001
,
0010
0000
1000
0001
0100
0010
1000
0001
,
0100
0000
0001
0000
0010
0000
1000
0000
0100
0001
1000
0100
0010
0001
0020
0000
,
0000
0000
0000
0030
0001
0000
1000
0000
0010
0000
0000
0000
0100
0000
0000
0000
,
1100
0000
0001
0010
0001
1000
0010
0100
,
0001
0000
1000
0000
0010
0000
0100
0000
0001
0000
1000
0000
0010
0000
0000
1000
,
0000
0000
0001
0000
0000
0100
0000
0000
0010
0000
1000
0000
0001
0000
0000
0000
,
0010
0000
0000
0000
0100
0000
0001
0000
1000
0000
0010
0000
0100
0000
0000
0001
,
0000
1000
0010
0000
0001
0000
1000
0010
,
0100
0000
0001
0010
0001
1000
0001
0100
,
0010
1000
0001
0100
0010
1000
0001
1000
,
0010
0001
1000
0100
0010
0000
0001
0100
1000
0000
0001
0000
0010
0000
0000
0000
,
1000
0000
0001
0100
0010
1000
0001
0100
,
0010
0000
1000
0000
0000
0000
0001
0000
0000
1000
0000
0000
0010
0000
0000
0100
,
0000
0000
0001
0000
0000
1000
0000
0000
0001
0000
0000
0100
0000
0000
0010
0000
,
0100
0010
0001
1000
0100
0000
1000
0000
0010
0000
0001
0000
0100
0000
1000
0000
,
0001
0000
0010
0000
1000
0000
0100
0000
0001
0000
1000
0000
0100
0010
0001
0010
,
0100
0010
0001
1000
0001
0000
0000
0000
0010
0000
0000
1000
0000
0000
0001
0000
,
0000
0100
0000
0000
0010
0000
0000
1000
0000
0000
0001
0000
0000
0000
0010
0000
,
0000
0100
0000
0000
1000
0000
0000
0010
0000
0000
0001
0000
0000
1000
0000
0000
,
0100
0010
0001
0010
0100
1000
0120
0000
0000
0000
0000
0000
0000
0000
0000
0000
,
0000
0000
0000
0000
,
0000
0000
0000
0000
0000
0030
0000
0000
0000
0000
0000
0000
0000
0000
0000
0000
;
