#TITLE:Mass Destruction ("P3" + "P3F" ver.);
#ARTIST:Lotus Juice;
#MUSIC:Mass Destruction (P3 + P3F ver.).ogg;
#BANNER:Mass Destruction (P3 + P3F ver.).png;
#BACKGROUND:Mass Destruction (P3 + P3F ver.)-bg.png;
#SAMPLESTART:101.507;
#SAMPLELENGTH:15;
#OFFSET:-0.150;
#BPMS:0.000=118.986;
#DISPLAYBPM:118;

//--------------- dance-single - XLev450X-bSP ----------------
#NOTES:
     dance-single:
     XLev450X:
     Beginner:
     4:
     0,0,0,0,0:
0000
0000
0000
0000
,
0000
0000
0000
0000
,
0000
1000
0001
1000
,
0000
0010
1000
0010
,
0000
0100
0001
0100
,
0000
1000
0001
1000
,
0000
0010
0010
0100
,
0000
0001
0010
0001
,
1000
0001
0100
0010
,
0000
1001
0000
0000
,
0000
1000
1000
1000
,
0000
0001
0010
0001
,
0000
0001
0001
0001
,
0000
0100
0010
0100
,
0000
1000
0010
1000
,
0001
0100
0001
0010
,
1000
0010
0100
0001
,
1000
0010
0100
0010
,
0000
1000
0001
1000
,
0000
0010
1000
0010
,
0000
0100
0001
0100
,
0000
0010
1000
0001
,
0000
0100
0010
1000
,
0000
0001
1000
0001
,
0000
0100
0010
1000
,
0010
1001
0000
0000
,
0000
0010
0010
0010
,
0000
1000
0001
1000
,
0000
0100
0010
0100
,
0000
0001
0010
0001
,
0000
1000
0010
1000
,
0100
0001
0100
1000
,
0010
0100
0001
1000
,
0010
0100
0000
0000
,
0000
1001
0000
0000
,
0000
0110
0000
0000
,
0000
2002
0000
0000
,
0000
0000
0000
0000
,
0000
3003
1000
0000
0001
0000
0100
0000
,
0000
0010
1000
0001
,
0000
0100
0010
0100
,
0000
1001
0000
0000
,
0000
1000
1000
0001
,
0100
0010
1000
0010
,
0000
0100
0001
0100
,
0000
0010
1000
0001
,
0000
0100
0010
1000
,
0000
0010
0100
0001
,
0000
1000
0001
0100
,
0010
1000
0000
0000
,
0000
0001
1000
0010
,
0000
1000
0001
0100
,
0000
0010
0100
0010
,
0000
1000
0010
0100
,
0000
0001
1000
0010
,
0100
0001
1000
0010
,
0100
0001
0000
1000
,
0010
0100
0000
0001
,
1000
0001
0100
0010
,
0000
1000
0010
1000
,
0000
0001
0100
0001
,
0000
1000
0010
0100
,
0000
0010
0001
1000
,
0100
1000
0001
0010
,
0100
1000
0001
0100
,
0010
1000
0000
0001
;

//--------------- dance-single - XLev450X-BSP ----------------
#NOTES:
     dance-single:
     XLev450X:
     Easy:
     8:
     0,0,0,0,0:
0000
0000
0000
0000
,
0000
0000
0000
0000
,
0000
1000
0001
1000
,
0010
0000
1000
0000
0010
0000
0100
0010
,
0001
1000
0001
0100
,
1000
0000
0001
1000
0001
0000
0010
0100
,
0010
0000
1000
0000
0100
0000
0001
1000
,
0001
0100
0010
0000
1000
0000
0010
1000
,
0010
0000
0100
0000
0001
0000
1000
0010
,
0100
0101
0000
1010
,
0000
1000
1000
0001
,
0100
0000
0010
0001
1000
0001
0100
0000
,
0000
0000
1000
0000
0010
0000
0100
1000
,
0001
0100
0010
1000
,
0001
0001
1000
0010
0100
0000
1000
0000
,
0001
0010
0100
0000
1000
0000
0001
1000
,
0010
0100
1000
0000
0001
0000
0100
0000
,
1000
0000
0010
1000
0010
0000
0100
0000
,
0001
0000
1000
0001
0100
0010
1000
0000
,
0001
1000
0101
0010
,
1000
0000
0010
0100
1000
0000
0010
0000
,
0100
0001
1000
0000
0100
0000
1000
0000
,
0001
0000
0010
0001
0010
1000
0001
0100
,
0010
0000
1000
0000
0001
0000
0100
1000
,
0001
0000
0010
1000
0010
0000
0100
0010
,
0100
0010
2002
0000
0000
0000
0000
0000
,
3003
0000
1000
0000
0001
0000
0100
0010
,
1000
0010
0001
0000
0010
0000
1000
0001
,
0100
0000
1000
0000
0010
0000
1000
0001
,
0010
0000
1000
0000
0001
0000
0100
0010
,
1000
0001
0001
1000
,
0010
0000
1000
0010
1000
0000
0001
0100
,
0001
0000
1000
0000
0001
0000
0100
0010
,
1000
0000
0010
0000
1000
0000
0001
0100
,
0010
0000
0000
0000
0000
0000
1000
0000
0000
0001
0000
0000
0100
0000
0000
0010
,
0000
0000
0000
0000
0000
0000
1000
0000
0000
0010
0000
0000
0100
0000
0000
0001
,
0000
2001
0000
0000
,
0000
0002
0000
0000
,
0000
3003
1000
0010
1000
0000
0010
0000
,
0100
0010
0001
0000
1000
0000
0001
0100
,
0010
0000
1000
0000
0001
0000
0100
0010
,
1000
0001
0001
0001
,
1000
0000
0010
1000
0010
0100
1000
0001
,
0100
0000
0010
0000
1000
0001
0100
0010
,
1000
0000
0010
0000
0100
0000
1000
0101
,
0101
0000
1000
0000
0010
0100
0010
0000
,
1010
1010
0100
0001
1000
0000
0100
0010
,
0000
1000
0001
0100
0010
0000
0010
1000
,
0010
0000
0100
0000
0001
0000
0000
1000
,
0010
0101
1010
0110
,
1001
0000
0001
0001
1000
0010
0100
1000
,
0001
0000
0010
0100
0001
0000
1000
0010
,
0100
0000
1000
0000
0001
0000
0010
0001
,
1000
0000
0010
0000
1000
0000
0001
0100
,
1000
0010
0001
0000
1000
0000
0010
0100
,
0001
0000
1000
0000
0100
0000
0010
1000
,
0010
0100
0001
0000
1000
0000
0010
1000
,
0010
0000
0001
0000
1000
0000
0010
0001
,
0010
1000
0010
0000
0100
0000
1000
0001
,
0010
1000
0001
0100
,
0010
0000
1000
0001
1000
0010
1000
0000
,
0010
0000
0100
1000
0010
0000
0100
0001
,
0010
0000
1000
0000
0010
0000
1000
0001
,
0010
0000
1000
0000
0001
0000
0100
0001
,
1000
0010
1000
0000
0001
0000
0100
0010
,
1000
0000
0001
0010
1000
0001
0100
0010
,
1000
1001
0000
0000
;

//--------------- dance-single - XLev450X-DSP ----------------
#NOTES:
     dance-single:
     XLev450X:
     Medium:
     11:
     0,0,0,0,0:
0000
0000
0000
0000
,
0000
0000
0000
0000
,
0000
0000
0000
0000
1000
0000
0000
0000
0001
0000
0000
1000
0000
0000
0010
0000
,
0100
0000
0010
0000
0001
0010
0001
0000
1000
0000
0000
0010
0000
0000
1000
0000
,
0001
0000
0000
0000
0100
0000
0000
0000
0010
0000
0000
1000
0000
0000
0010
0000
,
0100
0000
0000
0000
0010
0001
0010
0000
1000
0000
0000
0010
0000
0000
1000
0000
,
0001
0000
0000
0000
1000
0000
0000
0000
0010
0000
0000
0010
0000
0000
0010
0000
,
0010
0000
0000
0000
0010
0000
0000
0000
1000
0001
0000
0100
0000
0010
0000
1000
,
0000
0001
0000
0000
0010
0001
0000
0000
1000
0000
0000
0010
0000
0000
0100
0000
,
1000
0000
0000
0000
0001
0000
0000
1000
0000
0000
0010
0000
0000
0100
0000
0000
,
0001
0000
1000
0000
0001
0000
0100
0010
,
0001
0000
1000
0010
1000
0001
0010
0000
,
1000
0000
0010
1000
0010
0100
0001
0010
,
1000
0000
0001
0000
0100
0000
0010
1000
,
0010
0000
0100
0000
0001
0000
0010
0100
,
0010
0000
1000
0000
0001
0000
1000
0010
,
1000
0000
0100
0000
0001
0000
0010
0001
,
0010
0000
1000
0001
1000
0010
0100
1000
,
0001
0000
1000
0000
0001
0000
0100
0010
,
0100
0001
1000
0000
0010
0000
1000
0010
,
1000
0000
0001
0000
0100
0000
0010
1000
,
0010
0000
0100
0000
0010
0000
0001
0010
,
0001
0000
1000
0000
0001
0000
0100
0010
,
1000
0000
0001
1000
0010
0000
0100
0001
,
1000
0000
0010
0000
0100
0000
0001
0010
,
0001
0000
1000
0000
0010
0000
0000
1000
0000
0000
0001
0000
0000
0100
0000
0000
,
0010
0000
1000
0000
0001
0000
0000
0000
1000
0000
0000
0010
0000
0000
0100
0000
,
0010
0000
0000
0000
0010
0000
0000
0000
0100
0000
0000
0001
0000
0000
1000
0000
,
0010
0000
0100
0001
1000
0000
0000
0000
0100
0000
0000
1000
0000
0000
0001
0000
,
1000
0000
0000
0000
0001
0000
0000
0000
0100
0000
0000
0001
0000
0000
1000
0000
,
0010
0000
1000
0001
0001
0000
0000
0000
0100
0000
1000
0000
0100
0000
0000
0000
,
0001
0000
0000
0000
0100
0000
0000
0001
0000
1000
0000
0000
0010
0000
0000
0100
,
0000
0001
0000
0000
1000
0000
0000
0000
0010
0000
0000
0100
0000
0000
0001
0000
,
1000
0000
0000
0000
0001
0000
0000
1000
0000
0010
0100
0001
0000
0000
0001
0000
,
1000
0000
0010
0100
1000
0000
0000
0000
0001
0000
0000
0000
1000
0000
0000
0100
,
0000
0000
1000
0000
0010
0000
0000
0000
0001
0000
0000
0000
1000
0000
0000
0010
,
0000
0100
2001
0000
0000
0000
0000
0000
,
0000
0200
0000
0000
,
0000
0000
3300
0000
0001
0000
0000
0000
1000
0000
0000
0010
0000
0000
1000
0000
,
0010
0000
0000
0000
0100
0000
0000
0000
0001
0000
0000
1000
0000
0000
0010
0000
,
1000
0000
0010
0100
0001
0000
0000
0000
1000
0000
0000
0010
0000
0000
1000
0000
,
0001
0000
0000
0000
1000
0000
0000
0001
0000
0000
0100
0000
0000
0000
0010
0000
,
1000
0000
0001
0000
0010
0000
0100
0000
1000
0000
0000
0010
0000
0000
0100
0000
,
0001
0000
0010
0000
0001
0000
1000
0000
0010
0000
0000
1000
0000
0000
0001
0000
,
0100
0000
0000
0000
0001
0000
1000
0000
0010
0000
0000
1000
0000
0000
0010
0000
,
0100
0000
0001
0000
0010
0000
1000
0000
0001
0000
0000
0100
0000
0000
0001
0000
,
1000
0000
0000
0000
0010
0000
1000
0000
0001
0000
0000
0100
0000
0000
0010
0000
,
1000
0000
0000
0000
0010
0000
1000
0000
0001
0000
0000
0100
0000
0000
0001
0000
,
1000
0000
0000
0000
0010
0000
0000
0000
1000
0000
0000
0001
0000
0000
0100
0000
,
0010
0000
1000
0000
0001
0000
0000
0100
0000
0000
0010
0000
0000
1000
0000
0000
,
0001
0000
0010
0100
1000
0000
0000
0000
0001
0000
0000
0100
0000
0000
0010
0000
,
0100
0000
0000
0000
0100
0000
0000
0000
0010
0000
0000
1000
0000
0000
0001
0000
,
0100
0000
0010
1000
0001
0000
0000
0000
0010
0000
0000
0001
0000
0000
1000
0000
,
0001
0000
0000
0000
1000
0000
0000
0000
0010
0000
0000
1000
0000
0000
0001
0000
,
0100
0000
0001
1000
0010
0000
0001
0000
1000
0000
0000
0000
0010
0000
1000
0000
,
0001
0100
0010
1000
0010
0000
0100
1000
,
0001
0000
0010
0100
1000
0000
0001
0000
0100
0000
0000
0000
0001
0000
1000
0000
,
0010
0000
1000
0010
0100
0001
1000
0010
,
0001
0000
1000
0001
1000
0000
0010
0000
1000
0000
0000
0010
0000
0000
1000
0000
,
0001
0000
0100
0001
1000
0010
0000
1000
,
0001
0000
0010
0000
0001
0000
1000
0000
0010
0000
0000
1000
0000
0000
0010
0000
,
0100
0000
0000
0000
0001
1000
0000
0010
0000
0100
0000
0000
1000
0001
0000
0100
,
0000
0010
0000
0000
1000
0000
0000
0000
0010
0000
0001
0000
0010
0000
0000
0000
,
1000
0000
0000
0000
0010
0000
0000
1000
0000
0001
0000
0000
0100
0000
0000
0010
,
0000
1000
0000
0000
0001
0000
0000
0000
0100
0000
0000
0010
0000
0000
1000
0000
,
0001
0000
0000
0000
1000
0000
0000
0001
0000
0100
0010
1000
0001
0010
1000
0100
,
0001
1000
0100
0010
0100
0000
0000
0000
0000
0000
0000
0000
0000
0000
0000
0000
;

//--------------- dance-single - XLev450X-ESP ----------------
#NOTES:
     dance-single:
     XLev450X:
     Hard:
     15:
     0,0,0,0,0:
0000
0000
0000
0000
,
0000
0000
0000
0000
,
0000
0000
0000
0000
1000
0000
0000
0000
0001
0000
0000
0100
0000
1000
0001
0000
,
1000
0000
0010
0000
0100
0000
0000
0000
0001
0000
0000
1000
0000
0001
0010
0000
,
0100
0000
0001
1000
0010
0000
0000
0000
0100
0000
0000
0001
0000
0010
0100
0000
,
0010
0000
0000
0000
1000
0000
0001
0000
0100
0000
0000
0001
0000
0100
1000
0000
,
0001
0000
0100
0000
0001
0000
0000
0000
1000
0000
0000
0010
0000
0001
0100
0000
,
0001
0000
1000
0010
0100
0000
0001
0000
1000
0001
0000
0100
0000
0010
0000
1000
,
0000
0001
0000
0000
0100
0010
0000
0000
1000
0000
0000
0001
0000
1000
0100
0000
,
0010
0000
0000
0000
1000
0000
0001
0010
0000
0001
0010
0000
0001
0010
0000
0001
,
0010
0000
1000
0001
0010
0000
1000
0000
0001
0000
0000
1000
0000
0000
0001
0000
,
0100
0000
0000
0000
0010
0000
0001
0000
1000
0000
0010
0000
0100
0000
0001
0100
,
0001
0000
1000
0000
0010
0000
0000
0000
0100
0000
0000
0001
0000
0000
1000
0000
,
0010
0000
0001
0010
0001
0000
1000
0000
0010
0000
0000
0100
0000
0000
1000
0000
,
0010
0000
0100
0000
0001
0000
1000
0000
0001
0000
0000
0100
0000
0000
0010
0000
,
1000
0000
0001
0100
0010
0000
1000
0000
0001
0000
0100
0010
0000
0000
1000
0000
,
0001
0000
0100
0010
0100
0000
0001
0000
1000
0000
0000
0010
0000
0000
1000
0000
,
0001
0000
0100
0000
0010
0000
1000
0000
0001
0000
0000
0100
0000
0000
0010
0000
,
1000
0000
0001
0000
0100
0000
0010
0000
1000
0000
0001
0100
0000
0000
1000
0000
,
0010
0000
0100
0000
0001
0000
1000
0000
0010
0000
0001
0010
0000
0000
1000
0000
,
0010
0100
0000
0000
0001
0000
1000
0000
0001
0000
0100
0010
0000
0000
1000
0000
,
0001
0000
0100
0000
0010
0000
1000
0000
0001
0000
1000
0001
0000
0100
0010
0000
,
1000
0000
0001
1000
0010
0000
0100
0001
,
0010
0000
0001
0000
1000
0001
0000
0100
0000
0010
1000
0100
0000
0001
0000
0000
,
0100
0000
0010
0000
0001
0000
0010
0001
0010
0000
1000
0010
1000
0000
0100
0001
,
0100
0000
0010
0000
1000
0000
0001
0100
0000
0010
1000
0000
0001
0100
0000
0010
,
1000
0100
0001
0010
1000
0000
0000
0000
0001
0000
0000
1000
0000
0000
0001
0000
,
0100
0000
0010
0000
0001
0010
0000
1000
0000
0001
0000
0000
0100
0010
0000
1000
,
0000
0001
0000
0000
0100
0000
0001
0000
1000
0000
0010
0100
0000
0001
1000
0000
,
0010
0000
0100
0000
0001
0010
0000
0100
0000
1000
0000
0000
0100
0001
0000
1000
,
0000
0010
0000
0000
0001
0000
0000
0000
1000
0000
0000
0010
0000
0000
0100
0000
,
0001
0000
1000
0000
0010
0100
0000
0001
0000
1000
0000
0100
0010
1000
0000
0001
,
0000
1000
0000
0000
0001
0000
1000
0000
0010
0100
0000
0001
0000
0000
1000
0000
,
0000
0000
0001
0000
0100
0010
0000
1000
0000
0001
0000
0100
0000
0000
0010
0000
,
1000
0000
0001
0010
1000
0000
0010
0001
0010
0001
0000
0000
0010
1000
0010
1000
,
0100
0010
0001
0000
1000
0000
0010
0000
0100
0000
0000
0000
0001
0000
1000
0000
0010
0000
0100
0000
0000
0000
0000
0000
0001
0000
0100
0000
0001
0000
0200
0000
,
0000
0000
0300
0000
2001
0000
0000
0001
0000
0000
0001
0000
0000
0001
0000
0000
,
0001
0000
0000
0001
0001
0000
0000
0001
0000
0000
0001
0000
0000
0001
0000
0000
,
3001
0000
0010
0001
0010
0000
0000
0000
1000
0000
0000
0010
0000
0000
1000
0000
,
0001
0000
0100
0000
0010
0000
0000
0000
1000
0000
0000
0001
0000
0000
0100
0000
,
0010
0000
1000
0001
0100
0000
0000
0000
0010
0000
0000
1000
0000
0000
0010
0000
,
0100
0000
0000
0000
0001
0000
1000
0100
0000
1000
0100
0000
0000
0001
1000
0100
,
0010
0001
1000
0100
0010
0001
0010
0100
1000
0001
0010
0000
0100
0001
1000
0100
,
0010
0000
0001
1000
0010
0000
0001
0000
1000
0000
0010
0100
0010
0000
1000
0000
,
0001
0000
1000
0000
0010
0000
0001
0000
1000
0000
0010
0000
0001
0010
0001
0000
,
1001
0000
0110
0000
0010
1000
0010
0000
0100
0001
0100
0000
0010
0000
1000
0000
,
0010
0000
0001
0000
0100
0000
0001
0000
1000
0000
0010
0100
0001
0000
1000
0000
,
0010
0000
0000
0000
1000
0000
0001
0100
0010
0000
1000
0000
0001
0000
0100
0000
,
0010
0000
0000
0000
1000
0000
0001
0100
0001
0010
1000
0010
0000
1000
0001
0100
,
0010
0100
1000
0001
1000
0001
1000
0100
0001
1000
0010
0100
0001
1000
0100
0010
,
0000
0000
0010
0001
1000
0000
0000
0000
0001
0000
0000
1000
0000
0000
0001
0000
,
0100
0000
0010
0000
0001
0010
0000
1000
0000
0001
0000
0000
0100
0010
0000
1000
,
0000
0001
0000
0000
0100
0000
0001
0000
1000
0000
0010
0100
0000
0001
1000
0000
,
0010
0000
0100
0000
0001
0010
0000
0100
0000
1000
0000
0000
0100
0001
0000
1000
,
0000
0010
0000
0000
0001
0000
0000
0000
1000
0000
0000
0001
0000
0000
1000
0000
,
0010
0000
0100
0000
1000
0100
0000
0001
0000
1000
0000
0000
0010
0100
0000
0001
,
0000
1000
0000
0000
0010
0000
1000
0000
0001
0000
0100
0010
0000
1000
0001
0000
,
0100
0000
0010
0000
1000
0100
0000
0010
0000
0001
0000
0100
0000
0010
1000
0001
,
0200
0000
0000
0300
1000
0000
0000
0000
0001
0000
0000
0100
0000
0000
0010
0000
,
1000
0000
0001
0000
0100
0010
0000
1000
0000
0001
0000
0010
0100
0001
0000
1000
,
0000
0001
0000
0000
1000
0000
0001
0000
0100
0010
0000
1000
0000
0000
0001
0000
,
0000
0000
1000
0000
0010
0100
0000
0001
0000
1000
0000
0010
0001
1000
0000
0001
,
0000
0100
0000
0000
0001
0000
0000
0000
1000
0000
0000
0010
0000
0000
0100
0000
,
0001
0000
1000
0000
0010
0100
0000
0001
0000
1000
0000
0100
0010
1000
0000
0001
,
0000
1000
0000
0000
0001
0000
1000
0000
0010
0100
0000
0001
0000
0000
1000
0000
,
0000
0000
0001
0000
0100
0010
0000
1000
0000
0001
0000
0100
0000
0000
0010
0000
,
0100
0000
1000
0001
1000
0000
0000
0000
0000
0000
0000
0000
0000
0000
0000
0000
;
