#TITLE:Make Way For The Boom;
#SUBTITLE:;
#ARTIST:Sonic Adventure Featuring A.C.E.;
#TITLETRANSLIT:;
#SUBTITLETRANSLIT:;
#ARTISTTRANSLIT:;
#GENRE:TECHNO;
#CREDIT:;
#MUSIC:Make Way For The Boom.ogg;
#BANNER:Make Way For The Boom.png;
#BACKGROUND:Make Way For The Boom-bg.png;
#CDTITLE:;
#SAMPLESTART:72.999;
#SAMPLELENGTH:15.000;
#SELECTABLE:YES;
#OFFSET:-0.312;
#BPMS:0.000=132.897;
#STOPS:;
#BGSTAGE:17;
#DISPLAYBPM:132;
#BGCHANGES:;
#FGCHANGES:;

//--------------- dance-single - XLev450X-bSP ----------------
#NOTES:
     dance-single:
     XLev450X:
     Beginner:
     3:
     0,0,0,0,0:
0000
0000
0000
0000
,
0000
0000
0000
0000
,
0000
0000
0000
0000
,
0000
0000
0000
0000
,
0000
0001
0001
0001
,
0000
1000
1000
1000
,
0000
0010
0100
0010
,
0000
1001
0000
0000
,
0000
0010
0000
0001
,
0000
1000
0001
0010
,
0000
0100
0000
0001
,
0000
1000
0010
1000
,
0000
0100
0000
0001
,
0000
0010
0001
1000
,
0000
0010
0000
0100
,
0000
0001
1000
0001
,
0000
1000
0000
0010
,
0000
0100
0000
0001
,
0000
1000
0000
0001
,
0000
0010
0000
0000
,
0000
0100
0001
1000
,
0000
1000
0001
0100
,
0000
0010
0001
0010
,
0000
0100
1000
0100
,
0000
0001
0000
1000
,
0000
0010
0100
0001
,
0000
0010
0000
0100
,
0000
0001
0000
1000
,
0000
0010
0000
0100
,
0001
1000
0000
0010
,
1000
0001
0000
0100
,
0010
1001
0000
0000
,
0000
0100
0000
0001
,
0000
1000
0000
0000
,
0000
1000
0000
0001
,
0000
0010
0000
0000
,
0000
0010
0000
0100
,
0000
0001
0000
0000
,
0000
1000
0000
0001
,
0000
0110
0000
0000
,
0000
0001
0001
0001
,
0000
1000
1000
1000
,
0000
0010
0100
0010
,
0000
0001
0010
0001
,
0000
1000
0001
0100
,
0000
0010
0100
0001
,
0000
1000
0001
0010
,
0000
0100
1000
0001
,
0000
0010
0100
0001
,
0000
1000
0010
0100
,
0000
1001
0000
0000
;

//--------------- dance-single - XLev450X-BSP ----------------
#NOTES:
     dance-single:
     XLev450X:
     Easy:
     6:
     0,0,0,0,0:
0000
0000
0000
0000
,
0000
0000
0000
0000
,
0000
0000
0000
0000
,
0000
0000
0000
0000
,
0000
0001
1000
0010
,
0100
0001
1000
0010
,
0000
0100
0001
0010
,
1000
2002
0000
0000
,
0000
3003
0010
0000
0100
0000
0001
0000
,
1000
0000
0001
0000
1000
0000
0001
1000
,
0010
0001
1000
0010
,
0100
0000
0001
0000
1000
0000
0001
0100
,
0010
0001
0001
1000
,
0000
1000
0001
0010
,
0000
0100
0001
1000
,
0010
0100
0000
0001
,
1000
0000
0010
0000
0001
0000
0100
0001
,
1000
0010
0001
1000
,
0000
0000
1000
0000
0010
0000
0100
0001
,
0010
2002
0000
0000
,
0000
3003
0001
0000
1000
0000
0010
1000
,
0001
0000
0010
0000
0100
0000
0001
1000
,
0010
0000
0001
0000
0100
0000
1000
0001
,
0100
0010
1000
0001
,
0000
0000
1000
0000
0010
0000
0100
0001
,
1000
0000
0010
0000
0001
0000
1000
0001
,
0100
0001
1000
0010
,
0100
0000
0001
0000
0000
1000
0000
0010
,
0000
0001
1000
0000
0001
0000
0100
0010
,
1000
0000
0001
0000
0010
0000
0100
0001
,
1000
0000
0001
0000
0010
0000
1000
0001
,
0100
0000
0010
0000
0000
1000
0000
0001
,
0000
0010
1000
0000
0001
0000
0010
0000
,
0100
0001
0010
1000
,
0000
1000
0001
0100
,
0010
0000
1000
0000
0001
0000
0010
1000
,
0001
0100
0010
1000
,
0001
0000
0010
0000
0100
0000
0001
1000
,
0010
0000
0100
0000
0001
0000
1000
0010
,
0100
2002
0000
0000
,
0000
3003
0001
0000
1000
0000
0010
0000
,
1000
0000
0001
0000
0100
0000
0001
0100
,
1000
0000
0010
0000
0001
0000
1000
0010
,
0100
0000
1001
0000
0000
0000
0000
0010
,
0100
0000
0001
0000
1000
0000
0010
0100
,
0001
0000
1000
0000
0001
0000
0010
0100
,
0001
0000
1000
0000
0010
0000
0100
0001
,
1000
0000
0010
0000
0100
0000
0001
1000
,
0010
0000
0001
0000
0000
1000
0000
0010
,
0000
0100
0001
0000
0000
1000
0000
0010
,
0100
0010
2002
0000
0000
0000
0000
0000
,
3003
0000
0000
0000
;

//--------------- dance-single - XLev450X-DSP ----------------
#NOTES:
     dance-single:
     XLev450X:
     Medium:
     10:
     0,0,0,0,0:
0000
0000
0000
0000
,
0000
0000
0000
0000
,
0000
0000
0000
0000
,
0000
0000
0000
0000
,
0000
0000
0001
0000
1000
0000
0010
0100
,
0001
0000
1000
0000
0010
0000
1000
0001
,
0100
0010
1000
0000
0001
0000
0010
0100
,
1000
0000
0000
0000
0001
0000
0000
0000
0000
0000
0010
0000
0000
0100
1000
0000
,
0000
0010
0001
0000
0001
0000
0000
0000
1000
0000
0000
0000
0010
0000
0100
0000
,
0001
0000
1000
0000
0010
0000
0100
0001
,
1000
0010
0100
0000
0001
0000
1000
0001
,
0100
0000
0010
0000
0001
0000
1000
0010
,
0100
0001
1000
0000
0001
0000
0100
0000
,
0001
0000
0010
0000
1000
0000
0010
0001
,
0010
0000
0100
0000
1000
0000
0001
0100
,
0010
0000
1000
0100
0001
0000
1000
0000
,
0001
0000
1000
0000
0010
0000
0100
0001
,
1000
0000
0010
0000
0100
0000
0001
1000
,
0010
0100
0001
0000
1000
0000
0010
0100
,
0001
0000
0010
0000
1000
0000
0000
0000
0000
0000
0100
0000
0000
0001
0100
0000
,
0000
1000
0100
0000
0001
0000
0000
0000
1000
0000
0000
0000
0010
0000
0100
0000
,
1000
0000
0001
0000
0010
0000
0100
0001
,
1000
0010
0100
0000
0001
0000
0010
0000
,
1000
0000
0010
0100
0001
0000
0010
0000
,
1000
0000
0001
0000
0010
0000
1000
0001
,
0100
0010
1000
0000
0001
0000
0010
0001
,
1000
0010
0100
0000
0001
0000
0010
0001
,
0010
0000
1000
0000
0010
0000
0100
1000
,
0100
0000
0010
0000
0100
0000
0010
0100
,
0010
0000
0001
0000
0100
0000
0100
0001
,
0010
0000
1000
0000
0010
0000
1000
0010
,
0100
0000
0001
0000
0000
1000
0000
0010
,
0000
0100
0001
0000
1000
0000
0001
0100
,
0010
0000
0001
0000
1000
0000
0001
0100
,
0001
1000
0010
0000
0001
0000
1000
0000
,
0010
0000
0100
0001
1000
0000
0010
0000
,
0100
0000
0001
0000
1000
0000
0010
0100
,
0001
0000
1000
0000
0010
0000
0100
0001
,
1000
0000
0010
0000
0100
0000
0001
1000
,
0010
0100
2002
0000
0000
0000
0000
0000
,
0000
0000
3003
0000
0001
0000
0000
0000
1000
0000
0000
0000
0010
0000
0000
0100
,
0000
0000
0001
0000
1000
0000
0000
0000
0001
0000
0000
0000
0100
0000
0000
0010
,
0000
0000
1000
0000
0001
0000
0000
0000
0010
0000
0000
0000
0100
0000
0000
0001
,
0000
0000
1000
0000
0010
0000
0000
0000
0100
0000
0001
0000
1000
0000
0000
0100
,
0000
0010
0001
0000
1000
0000
0010
0100
,
0001
1000
0010
0000
1000
0000
0001
0100
,
0010
1000
0001
0000
0010
0000
1000
0001
,
0100
0010
1000
0000
0001
0000
0010
0001
,
0010
0000
1000
0000
0010
0100
0000
0001
,
0000
1000
0010
0000
0100
0001
0000
1000
,
0000
0010
0202
0000
0000
0000
0000
0000
,
0303
0000
0000
0000
;

//--------------- dance-single - XLev450X-ESP ----------------
#NOTES:
     dance-single:
     XLev450X:
     Hard:
     14:
     0,0,0,0,0:
0000
0000
0000
0000
,
0000
0000
0000
0000
,
0000
0000
0000
0000
,
0000
0000
0000
0000
,
0000
0000
0000
0000
0001
0000
1000
0000
0010
0000
0000
0001
0000
0000
1000
0000
,
0010
0000
0100
0000
0001
0000
0010
0000
0100
0000
0000
1000
0000
0000
0010
0001
,
0100
0000
0001
0000
1000
0000
0001
0000
0100
0000
0000
0001
0000
0000
1000
0000
,
0001
0000
0010
0000
1000
0000
0000
0100
0000
0000
0001
0000
0000
1000
0010
0000
,
0000
0001
0100
0010
1000
0000
0000
0001
0100
0000
0000
0010
0001
1000
0100
0010
,
0001
0000
0000
0010
1000
0000
0001
0000
0100
0000
0010
1000
0100
0001
0100
1000
,
0010
0000
0100
0000
0010
0001
1000
0100
0010
0001
0010
0000
0100
0000
1000
0000
,
0001
0000
0010
0000
0100
0000
0001
1000
0010
0000
0001
0000
0100
0000
0001
0000
,
0010
0000
0000
0000
0100
0000
0010
1000
0001
0000
1000
0000
0010
0000
0100
0010
,
0001
0000
1000
0000
0010
0000
1000
0000
0100
0000
0001
0100
0010
0000
1000
0000
,
0010
0000
0100
0001
1000
0000
0100
0000
0010
0000
0100
0000
1000
0000
0001
0000
,
0010
0000
0100
0000
0001
0000
0100
0000
1000
0100
0010
0001
0000
1000
0001
0000
,
0100
0000
0001
0100
0010
0000
0000
0000
1000
0000
0010
0000
0000
0100
1000
0000
,
0001
1000
0010
0000
0001
0000
0000
0000
0100
0000
0010
0000
0000
1000
0001
0000
,
1000
0000
0010
0001
0100
0000
0000
0000
0010
0000
0001
0000
0000
0001
0100
0000
,
0000
0100
0001
0000
0010
0000
0000
1000
0000
0000
0100
0000
0000
0010
0001
0000
,
0000
0100
1000
0000
0001
0010
0100
0010
1000
0000
0000
0100
0010
0001
0100
1000
,
0001
0000
0000
0000
1000
0000
0010
0001
0100
0000
0001
0000
0010
1000
0001
0000
,
0010
0000
0000
0000
0100
0000
0001
0000
1000
0000
0001
0100
0010
0000
1000
0000
,
0010
0000
1000
0000
0100
0000
0001
0000
1000
0000
0100
0000
0001
0010
1000
0000
,
0010
0000
1000
0001
0010
0000
0000
0000
1000
0000
0010
0000
0000
0100
1000
0000
,
0001
1000
0010
0000
0001
0000
0000
0000
0100
0000
0010
0000
0000
1000
0001
0000
,
1000
0000
0010
0001
0100
0000
0000
0000
0010
0000
0001
0000
0000
0001
0100
0000
,
0000
0100
0001
0000
0010
0000
0100
1000
0001
0000
0100
0000
0000
0000
0001
0010
,
0100
0001
1000
0100
0001
0000
0100
0000
1000
0000
0001
0000
0010
0000
0100
0000
,
0001
0000
1000
0000
0010
0000
0000
0000
0100
0000
1000
0000
0000
0000
0001
1000
,
0100
0000
0010
0100
0001
0000
0000
0000
0100
0000
1000
0000
0000
0000
0001
0000
,
0010
0000
0100
0000
1000
0000
0000
0000
0001
0000
0010
0000
0000
0100
1000
0000
,
0000
0001
0100
0000
1000
0000
0001
0000
1000
0000
0100
0000
0010
0000
1000
0100
,
0001
0000
1000
0000
0010
0000
0000
0100
0000
0000
0001
0000
1000
0000
0010
0100
,
0001
1000
0100
0000
0001
0000
0010
0000
0100
0000
0000
0010
0000
0000
1000
0000
,
0001
0000
0100
0000
0010
0000
0100
0000
1000
0000
0000
0001
0000
0000
0100
0000
,
0010
0000
0000
0000
1000
0000
0001
0000
0100
0000
0001
0000
0000
0010
1000
0000
,
0010
0000
0001
0000
0100
0000
0001
0000
1000
0000
0000
0100
0000
0000
0010
0000
,
1000
0000
0000
0000
0010
0000
0001
0000
0010
0000
0001
0000
0100
0000
1000
0100
,
0001
0000
0010
0000
0100
0000
0000
0000
0001
0000
0000
1000
0000
0000
0010
0000
,
0001
0010
0100
0000
0000
1000
0100
0000
0001
0000
0100
1000
0010
0000
1000
0010
,
0100
0000
1001
0000
0000
0010
1000
0000
0100
0000
0000
0001
1000
0000
0010
0100
,
0010
0000
0110
0000
0000
0001
1000
0010
0100
0000
0001
0000
1000
0010
0000
0100
,
0000
0000
0001
0000
1000
0000
0001
0100
1000
0000
0010
0000
0100
0001
1000
0000
,
0010
0000
0100
0001
0010
0000
0000
0000
1000
0000
0010
0000
0000
0100
1000
0000
,
0001
1000
0010
0000
0001
0000
0000
0000
0100
0000
0010
0000
0000
1000
0001
0000
,
1000
0000
0010
0000
0100
0000
0000
0000
0010
0000
0001
0000
0000
0001
0100
0000
,
0000
0100
0001
0000
0010
0000
0100
1000
0100
0000
0010
1000
0010
0000
0001
0000
,
0010
0100
1000
0000
0010
0000
0000
0000
1000
0000
0010
0000
0000
0100
1000
0000
,
0001
1000
0010
0000
0001
0000
0000
0000
0100
0000
0010
0000
0000
1000
0001
0000
,
1000
0010
0220
0000
0000
0000
0000
0000
,
0330
0000
0000
0000
;

//--------------- dance-single - Nifara-CSP ----------------
#NOTES:
     dance-single:
     Nifara:
     Challenge:
     15:
     0,0,0,0,0:
0000
0000
0000
0000
,
0000
0000
0000
0000
,
0000
0000
0000
0000
,
0000
0000
0000
0000
,
0000
0000
0000
0000
0100
0000
0000
0000
0010
0000
0001
0000
1000
0010
1000
0000
,
0100
0001
0100
0000
0001
0000
0000
0000
1000
0000
0010
0000
0100
0001
0100
0000
,
0010
1000
0010
0000
0100
0000
0000
0000
0010
0000
0100
0000
0010
0100
0010
0000
,
0100
0010
0100
0000
0010
0000
0000
0000
0000
0000
1000
0000
0000
0001
1000
0000
,
0000
0001
1000
0001
1000
0000
0000
1000
0001
0000
0000
0010
0100
0000
0000
0100
,
1000
0000
0000
0000
0010
1000
0100
0010
0001
0000
0011
0000
0100
0001
0010
0100
,
1000
0000
0000
0000
0000
0000
0010
0100
0010
0000
0010
1000
0010
0000
1010
0000
,
0101
0000
0000
0001
1000
0000
0100
1000
0010
0000
0100
0000
0001
0000
1000
0010
,
0100
0000
0000
0000
0010
0000
0100
0000
0010
0000
1000
0000
0010
0000
0100
0010
,
0100
0000
0000
0000
0010
0000
0000
1000
0000
0000
0001
0000
0000
0100
0000
0000
,
0010
0100
0001
0000
0000
0000
1000
0001
1000
0000
0000
0000
0100
0000
0010
0000
,
0001
0000
0000
0000
1100
0000
0011
0000
1100
0000
0000
0000
0000
0100
0010
0000
,
0001
0000
1000
0100
0010
0001
0010
0000
0011
0000
0001
1000
0000
0010
0000
0100
,
0000
0010
1000
0100
0010
0100
1000
0000
1100
0000
1000
0010
0000
0100
0000
0001
,
0000
0010
0100
1000
0100
1000
0100
0000
1100
0000
1000
0010
0000
0100
0000
0010
,
0000
0100
0001
0100
0001
0100
0001
0000
0101
0000
0001
1000
0000
0100
0000
1000
,
0000
0100
0010
0001
0100
0000
0001
0000
0100
0000
0000
0000
0100
0000
1000
0000
,
1001
0000
0100
0000
0010
0000
1000
0100
,
0001
0000
1000
0010
0100
0000
0010
0100
,
1000
0100
0010
0000
0100
0000
1000
0000
,
0010
0000
1000
0100
0010
0001
0010
0000
0011
0000
0001
1000
0000
0010
0000
0100
,
0000
0010
1000
0100
0010
0100
1000
0000
1100
0000
1000
0010
0000
0100
0000
0001
,
0000
0010
0100
1000
0100
1000
0100
0000
1100
0000
1000
0010
0000
0100
0000
0010
,
0000
0100
0001
0100
0001
0100
0001
0000
0101
0000
0001
1000
0000
0100
0000
1000
,
0000
0100
0010
0001
0100
0010
1000
0100
0010
0100
0010
0001
0100
0010
1000
0100
,
0010
0100
0010
0001
0100
0010
0100
0010
1000
0001
0010
0001
0100
0001
0010
0100
,
0010
0100
1000
0100
1000
0001
0010
0100
1000
0010
1000
0100
0010
0001
1000
0100
,
1000
0010
0100
0001
0010
0000
0000
0000
0000
0000
0100
0000
0000
0010
0100
0000
,
0000
0100
0010
0000
1001
0000
0000
0000
0110
0000
0000
0100
0010
0100
0010
0000
,
0110
0000
1100
0000
0011
0000
0000
0000
1010
0000
0000
1000
0100
0010
0001
0000
,
1001
0000
0011
0000
1010
0000
0000
0000
0101
0000
0000
0001
0010
0100
1000
0000
,
1100
0000
0110
0000
0011
0000
0000
0000
0110
0000
0000
0100
0010
1000
0001
0000
,
1001
0000
0110
0000
1001
0000
0000
0000
1100
0000
0000
1000
0100
0010
0001
0000
,
0011
0000
0110
0000
1100
0000
0000
0000
1010
0000
0000
0100
0010
0100
0010
0000
,
0110
0000
1100
0000
1100
0000
0000
0000
1001
0000
0000
1000
0001
1000
0001
0000
,
1001
1001
1001
0000
0100
0000
0010
0000
,
0100
0000
0000
0000
0010
1000
0001
0000
1001
0000
1001
0000
1001
0000
1000
0100
,
0010
0000
0000
0000
0001
0100
0010
0000
0101
0000
1010
0000
0101
0000
0010
1000
,
0000
0000
0000
0000
0100
0010
0100
1000
0100
0000
1000
0010
0100
0001
0010
0100
,
1000
0000
1001
0000
1001
0000
0000
0000
0000
0000
0000
0000
0000
0010
1000
0000
,
1000
0000
1000
0100
0010
0000
0000
0000
0010
0000
1000
0000
0001
1000
0001
0000
,
0100
0001
0100
0000
0010
0000
0000
0000
0100
0000
0010
0000
1000
0100
1000
0000
,
0001
0010
0001
0000
0100
0000
0000
0000
0010
0000
1000
0000
0100
1000
0100
0000
,
0010
0100
0010
0000
0001
0000
0000
0000
1000
0000
0100
0000
0010
0100
1000
0000
,
1000
0100
0010
0000
0100
0000
0000
0000
0000
0000
0010
0000
0000
0100
0010
0000
,
0000
0100
0010
0000
0110
0000
0000
0000
0000
0000
0110
0000
0000
0100
0010
0000
,
0000
0100
0010
0000
0220
0000
0000
0000
0000
0000
0000
0000
0000
0000
0000
0000
,
0330
0000
0000
0000
;
