#TITLE:Magic Mystery Tour;
#SUBTITLE:;
#ARTIST:KaW feat. Paula Terry;
#TITLETRANSLIT:;
#SUBTITLETRANSLIT:;
#ARTISTTRANSLIT:;
#GENRE:;
#CREDIT:;
#MUSIC:Magic Mystery Tour.ogg;
#BANNER:Magic Mystery Tour.png;
#BACKGROUND:Magic Mystery Tour-bg.png;
#CDTITLE:;
#SAMPLESTART:40.745;
#SAMPLELENGTH:15.000;
#SELECTABLE:YES;
#OFFSET:-0.022;
#BPMS:0.000=136.041;
#STOPS:;
#BGSTAGE:17;
#DISPLAYBPM:136;
#BGCHANGES:;
#FGCHANGES:;

//--------------- dance-single - XLev450X-bSP ----------------
#NOTES:
     dance-single:
     XLev450X:
     Beginner:
     2:
     0,0,0,0,0:
0000
0000
0000
0000
,
0000
0000
0000
0000
,
0000
0000
0000
0000
,
0000
0000
0000
0000
,
0000
0000
0000
0000
,
0000
0000
0000
0000
,
0000
0000
0000
0000
,
0000
0000
0000
0000
,
0000
1000
0000
0000
0000
0000
0000
0000
0000
0000
0000
0000
,
0000
0001
0000
0000
0000
0000
0000
0000
0000
0000
0000
0000
,
0000
0100
0000
0000
0000
0000
0000
0000
0000
0000
0000
0000
,
0000
0010
0000
0000
0000
0000
0000
0000
0000
0000
0000
0000
,
0000
0100
0000
0000
0000
0000
0000
0000
0000
0000
0000
0000
,
0000
0010
0000
0000
0000
0000
0000
0000
0000
0000
0000
0000
,
0000
1000
0000
0000
0000
0000
0000
0000
0000
0000
0000
0000
,
0000
0001
0000
0000
0000
0000
0000
0000
0000
0000
0000
0000
,
0000
0010
0000
0000
0000
0000
0000
0010
0000
0000
0000
0000
,
0000
0010
0000
0000
0000
0000
0000
0000
0000
0000
0000
0000
,
0000
0100
0000
0000
0000
0000
0000
0100
0000
0000
0000
0000
,
0000
0100
0000
0000
0000
0000
0000
0000
0000
0000
0000
0000
,
0000
1000
0000
0000
0000
0000
0000
1000
0000
0000
0000
0000
,
0000
1000
0000
0000
0000
0000
0000
0000
0000
0000
0000
0000
,
0000
0001
0000
0000
0000
0000
0000
0001
0000
0000
0000
0000
,
0000
0001
0000
0000
0000
0000
0000
0000
0000
0000
0000
0000
,
0000
0010
0000
0000
0010
0000
0000
0010
0000
0000
0000
0000
,
0000
0100
0000
0000
0000
0000
0000
1000
0000
0000
0000
0000
,
0000
0001
0000
0000
0001
0000
0000
0001
0000
0000
0000
0000
,
0000
1000
0000
0000
0000
0000
0000
0010
0000
0000
0000
0000
,
0000
1000
0000
0000
1000
0000
0000
1000
0000
0000
0000
0000
,
0000
0100
0000
0000
0000
0000
0000
0001
0000
0000
0000
0000
,
0000
0001
0000
0000
0001
0000
0000
0010
0000
0000
0000
0000
,
0000
0100
0000
0000
0000
0000
0000
1000
0000
0000
0000
0000
,
0000
0000
0000
0000
0001
0000
0000
0000
0000
0000
1000
0000
,
0000
0000
0000
0000
0010
0000
0000
0000
0000
0000
0100
0000
,
0000
0000
0000
0000
0010
0000
0000
0000
0000
0000
0001
0000
,
0000
0000
0000
0000
1000
0000
0000
0000
0000
0000
0100
0000
,
0000
0001
0000
0000
0000
0000
0000
1000
0000
0000
0000
0000
,
0000
0010
0000
0000
0000
0000
0000
0000
0000
0000
0000
0000
,
0000
1000
0000
0000
0000
0000
0000
0001
0000
0000
0000
0000
,
0000
0100
0000
0000
0000
0000
0000
0000
0000
0000
0000
0000
,
0000
0010
0000
0000
0000
0000
0000
0010
0000
0000
0000
0000
,
0000
0010
0000
0000
0000
0000
0000
0010
0000
0000
0000
0000
,
0000
0100
0000
0000
0000
0000
0000
0100
0000
0000
0000
0000
,
0000
0100
0000
0000
0000
0000
0000
0100
0000
0000
0000
0000
,
0000
1000
0000
0000
1000
0000
0000
1000
0000
0000
1000
0000
,
0000
0000
0000
0000
0010
0000
0000
0000
0000
0000
0100
0000
,
0000
0001
0000
0000
0001
0000
0000
0001
0000
0000
0001
0000
,
0000
0000
0000
0000
0010
0000
0000
0000
0000
0000
0100
0000
,
0000
1000
0000
0000
0000
0000
0000
0001
0000
0000
0000
0000
,
0000
0100
0000
0000
0000
0000
0000
0000
0000
0000
0000
0000
,
0000
0010
0000
0000
0000
0000
0000
1000
0000
0000
0000
0000
,
0000
0001
0000
0000
0000
0000
0000
0000
0000
0000
0000
0000
,
0000
1001
0000
0000
0000
0000
0000
0000
0000
0000
0000
0000
;

//--------------- dance-single - XLev450X-BSP ----------------
#NOTES:
     dance-single:
     XLev450X:
     Easy:
     4:
     0,0,0,0,0:
0000
0000
0000
0000
,
0000
0000
0000
0000
,
0000
0000
0000
0000
,
0000
0000
0000
0000
,
0000
1000
0000
0000
0010
0000
0000
0100
0000
0000
0000
0000
,
0000
0001
0000
0000
0100
0000
0000
0010
0000
0000
0000
0000
,
0000
1000
0000
0000
0001
0000
0000
0100
0000
0000
0010
0000
,
0000
2002
0000
0000
0000
0000
0000
0000
0000
0000
3003
0000
,
0000
1000
0000
0000
1000
0000
0000
1000
0000
0000
0000
0000
,
0000
0001
0000
0000
0001
0000
0000
0001
0000
0000
0000
0000
,
0000
0010
0000
0000
0000
0000
0000
0100
0000
0000
0000
0000
,
0000
0001
0000
0000
1000
0000
0000
0010
0000
0000
0000
0000
,
0000
0010
0000
0000
0100
0000
0000
0010
0000
0000
0000
0000
,
0000
0100
0000
0000
0010
0000
0000
0100
0000
0000
0000
0000
,
0000
0010
0000
0000
0000
0000
0000
0001
0000
0000
0000
0000
,
0000
1000
0000
0000
0000
0000
0000
0010
0000
0000
0000
0000
,
0000
0100
0000
0000
0000
0000
0000
0001
0000
0000
1000
0000
,
0000
0001
0000
0000
0000
0000
0000
0010
0000
0000
0000
0000
,
0000
0100
0000
0000
0000
0000
0000
1000
0000
0000
0001
0000
,
0000
1000
0000
0000
0000
0000
0000
0010
0000
0000
0000
0000
,
0000
0010
0000
0000
0000
0000
0000
0100
0000
0000
0000
0000
,
0000
0001
0000
0000
1000
0000
0000
0010
0000
0000
0100
0000
,
0000
0001
0000
0000
0000
0000
0000
0100
0000
0000
0000
0000
,
0000
0000
0000
0000
0000
0000
0000
0000
0210
0000
0000
0000
0000
0000
0000
0000
0000
0000
0000
0000
0000
0000
0000
0000
0000
0000
0000
0000
0000
0000
0000
0000
0000
0000
0000
0000
0000
0000
0000
0000
0000
0000
0000
0000
0000
0000
0000
0000
0000
0000
0000
0000
0000
0000
0000
0000
0000
0000
0000
0000
0000
0000
0000
0000
0000
0000
0000
0000
0000
0000
0000
0000
0000
0000
0000
0000
0000
0000
0000
0000
0000
0000
0000
0000
0000
0300
0000
0000
0000
0000
0000
0000
0000
0000
0000
0000
,
0000
0001
0000
0000
0001
0000
0000
0001
0000
0000
0000
0000
,
0000
1000
0000
0000
1000
0000
0000
1000
0000
0000
0000
0000
,
0000
0010
0000
0000
0010
0000
0000
0010
0000
0000
0010
0000
,
0000
0010
0000
0000
0000
0000
0000
0100
0000
0000
0000
0000
,
0000
0001
0000
0000
1000
0000
0000
0001
0000
0000
0000
0000
,
0000
0010
0000
0000
0001
0000
0000
0010
0000
0000
0000
0000
,
0000
0100
0000
0000
1000
0000
0000
0100
0000
0000
0000
0000
,
0000
0010
0000
0000
0000
0000
0000
0100
0000
0000
0000
0000
,
0000
0001
0000
0000
1000
0000
0000
0010
0000
0000
0100
0000
,
0000
0001
0000
0000
1000
0000
0000
0010
0000
0000
0100
0000
,
0000
0001
0000
0000
0000
0000
0000
1000
0000
0000
0000
0000
,
0000
0010
0000
0000
0010
0000
0000
0100
0000
0000
0001
0000
,
0000
1001
0000
0000
0010
0000
0000
0100
0000
0000
0000
0000
,
0000
1000
0000
0000
0010
0000
0000
0100
0000
0000
0000
0000
,
0000
0001
0000
0000
0100
0000
0000
1000
0000
0000
0000
0000
,
0000
0010
0000
0000
0100
0000
0000
1000
0000
0000
0010
0000
,
0000
0100
0000
0000
0000
0000
0000
0001
0000
0000
0000
0000
,
0000
1000
0000
0000
0000
0000
0000
0010
0000
0000
0000
0000
,
0000
0100
0000
0000
0100
0000
0000
0100
0000
0000
0000
0000
,
0000
0010
0000
0000
0100
0000
0000
0001
0000
0000
1000
0000
,
0000
0001
0000
0000
0010
0000
0000
0100
0000
0000
0000
0000
,
0000
0001
0000
0000
0100
0000
0000
0010
0000
0000
0000
0000
,
0000
1000
0000
0000
0000
0000
0000
0001
0000
0000
0000
0000
,
0000
0100
0000
0000
0010
0000
0000
1000
0000
0000
0001
0000
,
0000
1001
0000
0000
0010
0000
0000
0100
0000
0000
0000
0000
,
0000
0010
0000
0000
0001
0000
0000
0100
0000
0000
0000
0000
,
0000
1000
0000
0000
0001
0000
0000
0100
0000
0000
0010
0000
,
0000
0200
0000
0000
0000
0000
0000
0000
0000
0000
0300
0000
,
0000
1001
0000
0000
0000
0000
0000
0000
0000
0000
0000
0000
;

//--------------- dance-single - XLev450X-DSP ----------------
#NOTES:
     dance-single:
     XLev450X:
     Medium:
     8:
     0,0,0,0,0:
0000
0000
0000
0000
,
0000
0000
0000
0000
,
0000
0000
0000
0000
,
0000
0000
0000
0000
,
0000
1000
0000
0000
0010
0000
0000
0100
0000
0000
0000
0000
,
0000
0001
0000
0000
1000
0000
0000
0010
0000
0000
0000
0000
,
0000
1000
0000
0001
0100
0000
0010
1000
0000
0001
0100
0010
,
0100
2002
0000
0000
0000
0000
0000
0000
0000
0000
0000
3003
,
0000
0010
0000
0000
1000
0000
0000
0001
0000
0000
0100
0000
,
0000
0010
0000
1000
0001
0000
0100
0010
0000
0000
1001
0000
,
0000
0010
0000
0000
0100
0000
0000
0001
0000
0000
1000
0000
,
0000
0100
0000
0000
0010
0000
0000
0100
0000
0000
0000
0000
,
0000
0010
0000
0000
1000
0000
0000
0001
0000
0000
0100
0000
,
0000
0010
0000
1000
0000
0000
0100
0010
0000
0000
0000
0000
,
0000
0010
0000
1000
0000
0000
0000
0001
0000
0000
0100
0000
,
0000
0010
0000
0000
0000
0000
0000
0010
0000
0000
1000
0000
,
0000
0010
0000
0100
0001
0000
1000
0010
0000
0000
0001
0000
,
0000
0100
0000
0010
1000
0000
0100
0001
0000
0000
1010
0000
,
0000
0010
0000
0000
1000
0000
0000
0010
0000
0000
0100
0000
,
0000
0011
0000
0000
1100
0000
0000
0110
0000
0000
1001
0000
,
0000
0010
0000
0100
0001
0000
1000
0010
0000
0000
0101
0000
,
0000
0010
0000
1000
0010
0000
0100
0001
0000
0000
1010
0000
,
0000
0100
0000
0000
0010
0000
0000
1000
0000
0000
0010
0000
,
0000
2002
0000
0000
3003
0000
0000
0010
0000
0100
0000
0001
,
0000
1000
0000
0000
0000
0000
0000
0010
0000
0000
1000
0000
,
0000
0001
0000
0000
0100
0000
0000
0010
0000
1000
0001
0000
,
0100
0010
0000
0000
0010
0000
0000
1000
0000
0000
0001
0000
,
0000
0010
0000
0000
1000
0000
0000
0001
0000
0100
0000
0010
,
0000
1000
0000
0000
0001
0000
0000
0100
0000
0010
1000
0000
,
0001
0100
0000
0000
0010
0000
0000
0100
0000
0000
0001
0000
,
0000
1000
0000
0010
0100
0000
0001
1000
0000
0010
0100
0000
,
0000
0001
0000
0000
1000
0000
0000
0010
0000
0100
0000
0001
,
0000
1000
0000
0000
0100
0000
0000
0010
0000
1000
0001
0000
,
0000
0100
0000
0000
0010
0000
0000
1000
0000
0100
0001
0000
,
1000
0010
0000
0000
0010
0000
0000
0100
0000
0000
0001
0000
,
0000
0011
0000
0000
1100
0000
0000
0010
0000
0100
0000
0001
,
0000
1000
0000
0000
0010
0000
0000
0010
0000
1000
0001
0000
,
0100
0010
0000
0000
0001
0000
0000
0100
0000
0010
1000
0000
,
0001
0100
0000
0000
0010
0000
0000
1000
0000
0000
0010
0000
,
0000
0100
0000
0000
0001
0000
0000
0010
0000
1000
0000
0001
,
0000
0100
0000
0000
0001
0000
0000
1000
0000
0000
0010
0000
,
0000
0100
0000
0001
1000
0000
0010
0100
0000
0000
0001
0000
,
0000
1000
0000
0000
0010
0000
0000
0100
0000
0000
0001
0000
,
0000
1000
0000
0000
0010
0000
0000
0001
0000
1000
0000
0010
,
0000
0100
0000
0000
0010
0000
0000
1000
0000
0001
0100
0000
,
0010
1000
0000
0000
0001
0000
0000
0100
0000
0001
0010
0000
,
1000
0100
0000
0000
0010
0000
0000
0100
0000
0001
1000
0000
,
0010
0100
0000
0000
0001
0000
0000
1000
0000
0010
0000
0100
,
0000
0002
0000
0000
0000
0000
0000
0000
0003
0000
0000
0000
,
0000
2000
0000
0000
0000
0000
0000
3000
0000
0000
0001
0000
,
0000
0010
0000
0000
0100
0000
0000
0001
0000
0000
1000
0000
,
0000
0001
0000
0100
0010
0000
1000
0001
0000
0100
0010
0000
,
1000
0001
0000
0000
0000
0000
0000
0000
0000
0000
0000
0000
;

//--------------- dance-single - XLev450X-ESP ----------------
#NOTES:
     dance-single:
     XLev450X:
     Hard:
     10:
     0,0,0,0,0:
0000
0000
0000
0000
,
0000
0000
0000
0000
,
0000
0000
0000
0000
,
0000
0000
0000
0000
,
0000
0001
0000
1000
0100
0000
0100
0001
0000
0010
0100
0000
,
0000
1000
0000
1000
0100
0000
0001
0010
0000
0000
1100
0000
,
0000
0010
1000
0010
1000
0100
0010
0100
0010
0001
0010
0100
,
1000
0200
0000
0000
0000
0000
0000
0000
0000
0000
0300
0000
,
0000
0011
0000
0001
1000
0000
0100
0010
0000
0001
1000
0000
,
0000
0010
0000
1000
0000
0000
0001
0000
0000
0001
1000
0000
,
0001
0010
0000
0100
1000
0000
0001
0010
0000
1000
0100
0000
,
0010
0002
0000
0000
0000
0003
0000
1100
0000
0000
0000
0000
,
0000
0010
0000
1000
0010
0000
0100
0001
0000
1000
0010
0000
,
0000
0100
0000
0000
0001
0000
0000
1000
0000
0010
0100
0000
,
0000
0001
0000
1000
0100
0000
0010
0001
0000
0010
0100
0000
,
0000
0001
0000
0000
1000
0000
0000
0010
0000
0000
0100
0000
,
0000
0010
0000
1000
0001
0000
0000
0100
0000
0010
0001
0000
,
0010
1000
0000
0001
1000
0000
0010
1000
0000
0001
0010
0000
,
0000
0100
0000
0001
0000
0100
0000
1000
0000
0000
0010
0000
,
0000
0100
0000
0001
1000
0000
0000
0010
0000
0000
0100
0000
,
0000
0010
0000
0001
1000
0000
0010
0100
0000
0001
1000
0000
,
0000
0110
0000
0000
0001
0000
0000
1100
0000
0000
0011
0000
,
0000
0001
0000
1000
0010
0000
0100
0001
0000
1000
0010
0000
,
0100
0002
0000
0000
0003
0000
0000
1000
0000
0010
0000
0100
,
0000
0001
0000
0000
0010
0000
0100
0000
0000
0000
0001
0000
,
0000
1000
0000
0010
0001
0000
0100
1000
0000
0010
0100
0000
,
0001
1000
0000
0000
0010
0000
0000
0100
0000
0001
1000
0000
,
0000
2200
0000
0000
3300
0000
0000
0010
0000
0100
0000
0001
,
0000
1000
0000
0000
0010
0000
0100
0000
0000
0001
1000
0000
,
0000
0010
0000
0100
0001
0000
0000
0010
0000
0001
1000
0000
,
0010
0100
0000
0000
0001
0000
0000
1000
0000
0000
0010
0000
,
0000
0100
0000
0001
1000
0000
0010
0100
0000
0001
1000
0000
,
0100
1000
0000
0000
0010
0000
0000
0100
0000
0000
0001
0000
,
0000
0100
0000
0010
0001
0000
1000
0010
0000
0100
0001
0000
,
0000
1000
0000
0000
0010
0000
0000
0100
0000
0000
0001
0000
,
0100
0000
0000
1000
0010
0000
0100
0001
0000
1000
0010
0000
,
0100
0001
0000
0000
1000
0000
0000
0010
0000
0000
0100
0000
,
0000
0001
0000
1000
0010
0000
0100
0001
0000
1000
0010
0000
,
0100
0001
0000
0000
1000
0000
0000
0010
0000
0000
0100
0000
,
0000
0010
0000
0001
1000
0000
0100
0010
0000
0001
1000
0000
,
0010
0100
0000
0000
0001
0000
0000
1000
0000
0000
0010
0000
,
0000
1000
0000
0001
0100
0000
0010
1000
0000
0001
0100
0000
,
0000
1000
0001
1000
0001
0000
0000
1000
0010
0100
0001
0000
,
0000
0010
0000
0000
1000
0000
0000
0100
0000
0001
1000
0000
,
0010
0100
0000
0000
0001
0000
1000
0010
0000
0100
0001
0000
,
0000
1000
0000
0000
0010
0000
1000
0001
0000
0100
0010
0000
,
0000
1000
0000
0000
0010
0000
0000
0100
0001
1000
0010
0000
,
0000
0100
0000
0000
0001
0000
0000
1000
0010
0100
0001
0010
,
1000
0020
0000
0000
0000
0030
0000
0000
0000
0000
0010
0000
,
0000
1000
0000
0000
0001
0000
0000
0100
0000
0000
0010
0000
,
0000
1000
0000
0000
0010
0000
0000
0100
0000
0000
0001
0000
,
0000
0010
0100
0001
1000
0010
0001
0100
0001
1000
0010
0100
,
0001
0110
0000
0000
0000
0000
0000
0000
0000
0000
0000
0000
;
