#VERSION:0.83;
#TITLE:MUSIC OF GLORY;
#ARTIST:TAG;
#MUSIC:MUSIC OF GLORY.ogg;
#BANNER:MUSIC OF GLORY.png;
#BACKGROUND:MUSIC OF GLORY-bg.png;
#SAMPLESTART:66.91;
#SAMPLELENGTH:15;
#OFFSET:-0.339;
#BPMS:0=210;
#BGSTAGE:30;

//--------------- dance-single - Locke-450-bSP ----------------
#NOTEDATA:;
#STEPSTYPE:dance-single;
#DESCRIPTION:Locke-450;
#DIFFICULTY:Beginner;
#METER:4;
#RADARVALUES:0,0,0,0,0;
#NOTES:
0000
0000
0000
0000
,
0000
0000
0000
0000
,
0000
0000
0000
0000
,
0000
0000
0000
0000
,
0000
0000
0000
0000
,
0000
0000
0000
0000
,
0000
0000
0000
0000
,
0000
0000
0000
0000
,
0000
0000
0000
0000
,
0000
0000
0000
0000
,
0000
2002
0000
0000
,
0000
0000
0000
3003
,
0000
0220
0000
0000
,
0000
0000
0000
0330
,
0000
0001
0001
0001
,
0000
1000
1000
1000
,
0000
0010
0100
0010
,
0000
0001
0010
0001
,
0000
1000
0100
1000
,
0000
0010
1000
0010
,
0000
0100
0010
0100
,
0000
0001
0010
0001
,
0000
0001
0000
1000
,
0000
0001
0000
0000
,
0000
0010
0000
1000
,
0000
0010
0000
0000
,
0000
0100
0000
0001
,
0000
0100
0000
0000
,
0000
0001
0000
0010
,
0000
0100
0000
0000
,
0000
1000
0000
0000
,
0000
0100
0000
0000
,
0000
0010
0000
0000
,
0000
0001
0000
0000
,
0000
0010
0000
0000
,
0000
0100
0000
0000
,
0000
1000
0000
0000
,
0000
1001
0000
0000
,
0000
0001
0000
0000
,
0000
1000
0000
0000
,
0000
0001
0000
0000
,
0000
0000
0000
0000
,
0000
0010
0000
0000
,
0000
1000
0000
0000
,
0000
0010
0000
0000
,
0000
0000
0000
0000
,
0000
0010
0010
0010
,
0000
0001
0001
0001
,
0000
1000
1000
1000
,
0000
0100
0100
0100
,
0000
0010
1000
0010
,
0000
0001
0100
0001
,
0000
0010
0100
0010
,
0000
1000
0001
1000
,
0000
0001
0000
0000
,
0000
1000
0000
0000
,
0000
1001
0000
0000
,
0000
0000
0000
0000
,
0000
0001
0000
1000
,
0000
0001
0000
0000
,
0000
0010
0000
1000
,
0000
0010
0000
0000
,
0000
0100
0000
0010
,
0000
0100
0000
0000
,
0000
0010
0000
0001
,
0000
0010
0000
0000
,
0000
1000
0000
0010
,
0000
1000
0000
0000
,
0000
0100
0000
0100
,
0000
0100
0000
0000
,
0000
0010
0000
0010
,
0000
1000
0000
0000
,
0000
0001
0000
0001
,
0000
0100
0000
0000
,
0000
0001
0000
0000
,
0000
0000
0000
0000
,
0000
1000
0000
0000
,
0000
0000
0000
0000
,
0000
0100
0000
0000
,
0000
0000
0000
0000
,
0000
0010
0000
0000
,
0000
0000
0000
0000
,
0000
0001
0000
0000
,
0000
0001
0000
0000
,
0000
1000
0000
0000
,
0000
0000
0000
0000
,
0000
0010
0000
0000
,
0000
0010
0000
0000
,
0000
0100
0000
0000
,
0000
0000
0000
0000
,
0000
1001
0000
0000
,
0000
0000
0000
0000
,
0000
0001
0000
0000
,
0000
0001
0000
0000
,
0000
1000
0000
0000
,
0000
1000
0000
0000
,
0000
0010
0000
0000
,
0000
0010
0000
0000
,
0000
0100
0000
0000
,
0000
0100
0000
0000
,
0000
0000
0000
0000
,
0000
0000
0001
0001
,
0001
0000
0010
0010
,
0010
0000
1000
0000
,
0100
0000
1000
0000
,
0000
0000
0010
0000
,
0100
0000
0010
0000
,
0000
0000
0001
0000
,
0010
0000
0001
0000
,
0000
1001
0000
0000
,
0000
0000
0000
0000
,
0000
1001
0000
0000
,
0000
0000
0000
0000
,
0000
1001
0000
0000
,
0000
0000
0000
0000
,
0000
1001
0000
0000
;

//--------------- dance-single - Locke-450-BSP ----------------
#NOTEDATA:;
#STEPSTYPE:dance-single;
#DESCRIPTION:Locke-450;
#DIFFICULTY:Easy;
#METER:7;
#RADARVALUES:0,0,0,0,0;
#NOTES:
0000
0000
0000
0000
,
0000
0000
0000
0000
,
0000
0000
0000
0000
,
0000
0000
0000
0000
,
0000
0000
0000
0000
,
0000
0000
0000
0000
,
0000
0001
0000
1000
,
0000
0001
0000
0000
,
0000
0010
0000
0100
,
0000
0010
0000
0000
,
0000
2002
0000
0000
,
0000
0000
0000
3003
,
0000
0220
0000
0000
,
0000
0330
0000
0000
,
0000
1000
0010
0100
,
0001
0010
1000
0001
,
0000
0100
1000
0010
,
0100
0001
0010
1000
,
0000
0010
1000
0100
,
0010
0001
0010
1000
,
0000
0001
1000
0001
,
0010
1000
0010
0100
,
0000
0001
0010
0001
,
0000
0100
1000
0100
,
0000
0010
0100
0010
,
0000
1000
0010
1000
,
0000
0001
1000
0001
,
1000
0010
0000
0100
,
0000
0001
1000
0001
,
0000
0001
0100
0010
,
0000
1000
0000
0010
,
0000
1000
0000
0000
,
0000
0010
0000
0100
,
0000
0010
0000
0000
,
0000
0001
0000
0010
,
0000
0001
0000
0000
,
0000
1000
0000
0010
,
0000
0100
0000
0000
,
0000
0001
0000
1000
,
0000
0010
0100
0010
,
0000
0001
0000
1000
,
0000
0010
0000
0000
,
0000
1000
0000
0100
,
0000
0010
0001
0010
,
0000
0100
0000
1000
,
0000
0001
0000
0000
,
0000
1000
0000
0010
,
0000
1000
0000
0000
,
0000
0100
0000
0010
,
0000
0001
0010
0001
,
0000
1000
0010
1000
,
0000
0010
0100
0010
,
0000
0001
0000
1000
,
0000
0001
0000
0000
,
0000
2020
0000
0000
,
3030
0202
0000
0000
,
0303
2002
0000
0000
,
0000
0000
0000
0000
,
3003
0001
1000
0001
,
0010
1000
0100
0010
,
0000
0001
0000
1000
,
0000
0100
0000
0000
,
0000
0010
0001
0010
,
0000
1000
0010
1000
,
0000
0100
0010
0100
,
0000
0001
0000
1000
,
0000
0001
0001
1000
,
0000
0010
0010
1000
,
0000
0100
0100
0010
,
0000
0001
0010
0001
,
0000
0100
0000
1000
,
0000
0010
0000
0000
,
0000
0100
0000
0010
,
0000
1000
0000
0000
,
0000
0001
0000
0000
,
0000
1000
0000
0000
,
0000
0100
0000
0000
,
0000
0010
0000
0000
,
0000
0001
0001
1000
,
0000
0010
0010
0100
,
0000
1000
0010
1000
,
0000
0010
0001
0010
,
0000
0001
0000
1000
,
0000
0010
0000
0000
,
0000
0100
0000
0001
,
0000
1000
0000
0000
,
0000
0010
0000
1000
,
0000
0010
0000
0000
,
0000
0100
0000
0001
,
0000
1000
0000
0000
,
0000
0001
1000
0001
,
0000
0010
0000
0000
,
0000
0220
0000
0000
,
0000
0330
0000
0000
,
0000
2002
0000
0000
,
0000
3003
0000
0000
,
0000
1000
0000
0000
,
0000
0010
0000
0100
,
0000
0001
0000
0000
,
0000
2000
0000
0000
,
0000
0002
0000
0000
,
3003
2002
3003
1000
,
0001
0010
0100
0010
,
0000
0001
0000
1000
,
0000
0010
1000
0010
,
0000
0001
0000
0100
,
0000
0001
1000
0001
,
0000
0010
0000
1000
,
0000
0010
0100
0010
,
0000
2002
0000
0000
,
0000
0000
0000
0000
,
3003
2002
0000
0000
,
0000
0000
0000
0000
,
3003
2002
0000
0000
,
0000
0000
0000
0000
,
3003
2002
0000
0000
,
0000
0000
3003
2002
,
0000
0000
0000
0000
,
0000
0000
0000
0000
,
0000
0000
0000
0000
,
3003
0000
0000
0000
;

//--------------- dance-single - Locke-450-DSP ----------------
#NOTEDATA:;
#STEPSTYPE:dance-single;
#DESCRIPTION:Locke-450;
#DIFFICULTY:Medium;
#METER:13;
#BPMS:0=105,28.5=210,92.5=105,124.5=210,236.5=105,268.5=210,276.5=105,295=210;
#RADARVALUES:0,0,0,0,0;
#NOTES:
0000
0000
0000
0000
,
0000
0000
0000
0000
,
0000
0000
0001
0000
1000
0000
0010
0000
0000
0100
0000
0001
0010
0000
1000
0000
,
0000
0010
0000
1000
0010
0100
0001
0010
,
0000
1000
0000
0001
1000
0010
0100
0010
,
0000
0000
0001
0000
1000
0000
0010
0000
1000
0000
0010
1000
0010
0100
0001
0100
,
0010
1000
0001
0010
0000
0001
0100
0000
0001
2000
0000
0000
0000
0000
0000
3000
,
0000
0001
0000
1000
0000
0010
0000
0100
,
0000
0010
0000
1000
0000
0001
0010
0001
,
1000
0010
0000
0100
0000
1000
0000
0001
,
0000
1000
0001
1000
0000
0010
1000
0010
,
0000
0100
0000
0001
0000
0010
0000
0100
,
0000
1000
0000
0001
0000
1000
0010
1000
,
0010
0100
0000
0001
0000
0010
0000
1000
,
0000
0001
1000
0001
0000
0010
1000
0010
,
0000
0010
0000
0100
0000
0001
0000
1000
,
0000
0010
0000
1000
0000
0010
0001
0010
,
0100
0001
0000
1000
0000
0010
0000
1000
,
0000
0001
0000
0100
0000
0001
0100
0001
,
0000
1000
0000
0010
0000
1000
0000
0100
,
0000
0001
0000
0010
0000
1000
0000
0010
,
0000
1000
0010
0100
0001
1000
0010
0100
,
0001
1000
0010
1000
0001
0100
0010
1000
,
0001
0001
1000
0010
0100
0001
0010
1000
,
0010
0100
0001
0010
1000
0001
0010
1000
,
0000
0001
1000
0010
0100
0001
1000
0010
,
1000
0000
0100
0000
0010
0000
1000
0000
0001
0000
0001
0001
0001
1000
0000
0010
,
0010
0010
1000
0001
0000
0100
0010
0000
1000
0010
0000
0000
0001
0000
1000
0000
,
0100
0000
0001
0100
0000
0010
1000
0000
0010
0100
0000
0000
0010
0000
0001
0000
,
1000
0000
0001
0100
0000
0010
1000
0000
0010
0100
0000
0010
1000
0000
0010
0000
,
0001
0000
0010
0001
0000
0010
1000
0000
0010
0100
0000
0001
1000
0000
0010
0000
,
0100
0001
0000
1000
0000
0010
0000
0100
,
0000
0010
0000
0001
0000
1000
0001
1000
,
0010
1000
0000
0010
0000
0100
0000
0001
,
0000
0010
0000
1000
0000
0001
1000
0001
,
0000
0100
0000
1000
0000
0010
0000
1000
,
0000
0010
0000
0100
0000
0010
0000
0000
,
0000
0001
0000
0010
0000
0100
0000
1000
,
0000
0001
0000
0010
0000
1000
0000
0000
,
0000
0001
0000
1000
0000
0010
0000
1000
,
0000
0001
1000
0001
0000
0010
1000
0010
,
0000
0202
0000
0000
0000
0000
0303
0000
,
0000
1000
0010
1000
2020
0000
3030
0000
,
0000
0001
0000
1000
0000
0010
0000
0100
,
0000
1000
0000
0010
0000
0001
0000
0000
,
0000
1000
0000
0010
0000
1000
0000
0000
,
0000
0010
0000
0100
0000
0010
0000
0000
,
0000
0001
0000
0000
0000
1000
0000
0000
,
0000
0001
0000
0100
0000
0001
0000
0000
,
0000
0010
0000
1000
0000
0010
0000
0100
,
0000
1000
1000
0001
0001
0000
1000
0001
,
0000
0010
0000
1000
0000
0010
0000
0100
,
0000
0001
0000
0010
0000
1000
0000
0000
,
0000
0010
0000
1000
0000
0100
0000
0001
,
0000
0010
0000
0100
0000
0001
0000
0000
,
0000
0001
0000
1000
0000
0001
0000
0010
,
1000
0010
0000
0010
0000
0100
0000
0001
,
0100
0001
0000
0010
1000
0010
0000
0010
,
0100
0010
0000
0001
0000
1000
0000
0001
,
0000
0001
0010
1000
0100
0010
0001
1000
,
0100
1000
0001
0010
0100
1000
0001
0010
,
0000
1000
0100
0001
1000
0010
1000
0100
,
0010
1000
0001
0100
1000
0001
1000
0001
,
1000
0010
0000
0100
0000
0001
1000
0001
,
0000
0100
1000
0010
0100
1000
0001
0010
,
1000
0101
0000
1010
0000
0110
0000
1100
,
0000
0001
1000
0001
0000
0010
1000
0010
,
0000
0001
0000
1000
0000
0010
0000
0100
,
0000
0010
0100
0010
0200
0000
0000
0300
,
0000
0000
0001
0000
0000
0000
0000
0000
0000
1000
0000
0000
0000
0000
0000
0000
,
0000
0001
0000
1000
0000
0001
0000
0000
,
0000
0010
0000
1000
0000
0010
0000
0000
,
0000
0220
0330
0000
0000
0002
0000
0000
,
0000
2000
0000
0000
3003
0000
0001
0000
,
1000
0010
0000
1000
,
0100
0010
0000
0001
,
1000
0010
0100
0001
,
0010
0001
0010
0000
1000
0000
0100
0000
,
1000
0000
0001
1000
,
0001
0000
0010
1000
,
0010
0000
0100
0000
0010
0100
0010
0000
,
0001
0010
0001
0000
1000
0000
0000
0000
,
0001
0000
1000
0000
,
0000
0000
0010
0000
,
1000
0000
0010
0000
,
0000
0000
0100
0000
,
0100
0000
0001
0000
,
1000
0000
0001
0001
,
1000
0000
0100
0010
,
1001
0000
0000
0000
;

//--------------- dance-single - Locke-450-ESP ----------------
#NOTEDATA:;
#STEPSTYPE:dance-single;
#DESCRIPTION:Locke-450;
#DIFFICULTY:Hard;
#METER:17;
#BPMS:0=105,28.5=210,92.5=105,124.5=210,236.5=105,268.5=210,276.5=105,295=210;
#RADARVALUES:0,0,0,0,0;
#NOTES:
0000
0000
0000
0000
,
0000
0000
0000
0000
,
0000
0000
0001
0000
1000
0000
0010
0000
0000
0001
0000
1000
0010
0000
0100
0000
,
0010
0000
0001
0000
0010
0001
0010
0000
1000
0000
0010
0000
1000
0010
1000
0000
,
0010
0000
0100
0000
0001
1000
0001
0000
0010
0000
0100
0000
1000
0010
1000
0000
,
0001
0000
0000
0000
1000
0000
0010
0000
0100
0000
0001
0000
1000
0000
0010
0000
1000
0000
0100
0000
0001
0010
0100
1000
0100
0010
0001
0010
0100
1000
0100
0010
,
0001
0010
0100
1000
0001
0000
0100
0000
1000
0000
0001
0000
1000
0000
0000
0000
0100
0000
0020
0000
0000
0000
0000
0000
0000
0000
0000
0000
0000
0000
0030
0000
,
0000
1000
0100
0010
0100
0010
0100
1000
,
0001
0100
0001
1000
0010
1000
0001
0100
,
0001
1000
0100
0010
0001
0010
0001
1000
,
0010
1000
0100
0010
0001
0010
0100
0010
,
0001
1000
0001
0100
0001
1000
0100
1000
,
0100
0001
0010
0000
0001
0000
1000
0000
0010
0000
0100
0000
0001
0000
0100
0000
,
0001
1000
0100
0000
0001
0000
0010
0000
0100
0010
1000
0000
0100
0000
1000
0000
,
0100
0001
1000
0000
0001
1000
0010
0000
0100
0010
1000
0000
0100
0001
0010
0000
,
0100
0001
1000
0100
0001
0100
1000
0000
0100
0000
0010
0000
0100
0000
1000
0000
,
0100
0000
1000
0000
0001
0000
1000
0000
0010
0000
0100
0000
0001
0000
0100
1000
,
0010
0000
1000
0000
0001
0000
0100
0000
0010
0000
0100
0000
0001
0100
1000
0000
,
0100
1000
0100
0010
0001
0010
0100
1000
,
0100
0000
1000
0001
0100
0000
0010
0000
0001
0000
0010
0000
0100
0000
1000
0000
,
0100
0000
1000
0100
0001
0000
0010
0000
0100
0000
1000
0000
0001
0000
1000
0000
,
0001
0000
0100
0010
0001
1000
0100
0001
0010
0100
1000
0010
0001
0100
1000
0001
,
0100
0010
1000
0001
0010
1000
0100
0010
0001
1000
0100
0010
0001
1000
0010
0100
,
0001
0000
0000
1000
0000
0000
0010
0000
1000
0000
0001
0000
0100
0000
0010
0000
1000
0000
0001
0000
1000
0000
0010
0000
0100
0000
0001
0000
1000
0000
0001
0000
0100
0000
0010
0000
1000
0000
0001
0000
1000
0000
0001
0000
0100
0000
0010
0000
,
0100
0010
1000
0001
0010
0100
1000
0100
1000
0010
0100
0001
0100
0010
0100
0010
1000
0001
0100
0010
0100
0001
1000
0010
,
1000
0001
0010
0001
1000
0001
1000
0010
0100
0001
1000
0100
0010
0100
1000
0010
0100
0001
0100
0010
0100
0010
0100
0010
,
1000
0000
0100
0000
1000
0000
0010
0000
1000
0000
0100
0000
1000
0000
0100
0000
0010
0000
0001
0000
1000
0000
0010
0000
1000
0000
0100
0000
0010
0000
0001
0000
0000
1000
0000
0000
0001
0000
0000
0010
0000
0000
0000
0000
0000
1000
0000
0000
,
0001
0000
0010
1000
0010
0000
0001
0000
1000
0000
0010
0000
0100
0000
0000
0000
0010
0000
0000
0000
0000
0000
1000
0000
0000
0000
0000
0000
0001
0000
0000
0000
,
0010
0000
1000
0010
1000
0010
0100
0000
0001
0010
0001
0010
0100
0001
1000
0001
,
1000
0000
0010
1000
0000
0010
0100
0000
0001
0010
0000
0100
0001
0100
1000
0001
,
0010
0000
1000
0010
0000
0100
0001
0000
1000
0010
0000
0100
0010
0000
1000
0000
,
0001
0001
1000
0010
0100
0010
1000
0001
,
0010
1000
0010
1000
0010
0100
0001
1000
,
0000
0001
1000
0010
1000
0010
0100
1000
,
0010
0100
0010
0001
0010
0001
0010
0100
,
0000
0001
1000
0001
0000
0010
1000
0010
,
0000
0010
0100
0010
0000
0001
0010
0001
,
0000
1000
0010
1000
0010
0100
0001
1000
,
0010
1000
0001
0100
0010
1000
0001
0010
,
0000
0001
1000
0001
1000
0001
1000
0010
,
1000
0010
0100
0010
1000
0001
0010
0100
,
0000
0001
0001
0001
1000
0010
1000
0010
,
0100
0010
1000
0001
1000
0000
0000
0001
,
0000
1000
0000
0010
0000
0100
0010
0100
,
0000
0010
0000
0001
0000
0010
0001
0010
,
0000
1000
0010
0100
0010
1000
0010
0100
,
0001
0010
0000
1000
0000
0001
0000
0100
,
0000
1000
0010
1000
0000
0010
0100
0010
,
0000
0001
0010
0001
0000
0100
0001
1000
,
0000
0010
1000
0010
0100
1000
0001
0010
,
1000
0010
0000
1000
0000
0001
0000
0100
,
0000
0010
1000
0010
0000
0010
0000
0100
,
0000
0001
0010
0001
0000
1000
0000
0010
,
0000
1010
0000
0101
0000
1010
0000
0110
,
0000
0110
0000
0011
0000
0101
0000
1001
,
0000
0010
1000
0010
0000
0001
0000
1000
,
0000
0001
0100
0001
0000
1000
0000
0010
,
0000
1000
0010
0100
0010
1000
0001
0100
,
0010
1000
0001
1000
0010
0100
0001
1000
,
0010
0000
0000
0010
0100
0001
0100
0010
0100
0001
0010
0001
0010
0001
0010
0001
1000
0100
0010
0100
1000
0001
0010
0100
,
1000
0001
0100
0001
0010
0100
0010
0001
0100
0010
1000
0010
0100
0001
0100
0001
0100
0010
1000
0100
0010
0100
0010
0001
,
0010
0001
0010
0100
1000
0001
0010
0100
1000
0001
0100
0001
0010
0001
1000
0001
0010
0100
0010
0001
1000
0001
0100
0001
,
1000
0001
0100
0010
0100
0010
0100
0010
1000
0010
1000
0001
0100
0001
0010
0001
1000
0010
0100
0001
0010
0001
0100
0010
,
1000
0000
0100
0000
1000
0000
0001
0000
0000
0000
0000
0000
1000
0000
0000
0000
0000
0000
0010
0000
0000
0000
0000
0000
0100
0000
0000
0010
0000
0000
0001
0000
0000
0000
0000
0000
0010
0000
0000
0000
0000
0000
1000
0000
0000
0000
0000
0000
,
0010
1000
0010
0000
0010
0100
0010
0000
0001
0010
0001
0000
1000
0000
0001
0000
,
0100
0000
0001
0100
0001
0000
0010
1000
0010
0000
0010
0100
0010
0000
0010
1000
,
0010
0000
0001
0000
0010
0000
1000
0000
0001
0000
1000
0001
1000
0001
1000
0000
,
0010
0100
1000
0010
1000
0001
0100
0010
,
0100
0001
1000
0001
2002
0000
0000
3003
,
0000
0000
0001
0000
1000
0010
0000
0100
0000
0001
0000
0010
1000
0000
0010
0000
,
0100
0000
0001
0010
0001
0000
0010
1000
0010
0000
0010
0000
0100
0000
0001
1000
,
0001
0000
0010
0000
1000
0000
0010
1000
0010
0000
0010
0000
0100
0000
0001
0100
,
0001
0000
2002
0000
3003
0000
1000
0100
0010
0000
0001
0000
1000
0010
0000
0100
,
0010
0000
0000
0000
0001
0000
0010
0000
1000
0000
0010
0000
0000
0000
0100
0000
0001
0000
0010
0000
0100
1000
0100
0000
0001
0000
0000
0000
0000
0000
0000
0000
,
0001
1000
0010
0000
0010
0100
0010
0000
,
0001
0010
0001
0000
1000
0010
0100
0010
,
1000
0000
0001
0000
0001
1000
0001
0000
,
0010
1000
0010
0000
0100
0010
1000
0001
,
0010
1000
0010
1000
0010
0000
0010
0000
,
0001
0000
0010
0000
0001
0010
0001
0010
,
1000
0010
0100
0001
1000
0001
1000
0001
,
1000
0000
0000
0010
0000
0000
1000
0000
0000
0001
0000
0000
1000
0000
0000
0000
0000
0000
0001
0000
0100
0000
0001
0000
,
1000
0000
0000
0001
0100
0001
0010
0000
0000
0100
0010
0100
,
0010
0000
0000
0001
1000
0100
1000
0000
0000
0010
0100
0001
,
1000
0000
0000
0100
1000
0100
0010
0000
0000
0010
0100
0001
,
1000
0000
0000
0010
1000
0100
0010
0000
0000
0010
1000
0001
,
1000
0001
0010
0001
0010
0100
0010
0001
1000
0001
0010
0001
,
0100
0010
0100
0010
0100
0010
0100
0001
1000
0010
0000
0000
,
1000
0001
0010
0001
0000
0000
1000
0010
0100
0001
1000
0100
,
0002
0000
0000
0000
,
0000
0000
0000
0000
,
0000
0003
0000
0000
;
