#TITLE:MGS2 mission R (RGR-Special);
#SUBTITLE:;
#ARTIST:L.E.D.;
#TITLETRANSLIT:;
#SUBTITLETRANSLIT:;
#ARTISTTRANSLIT:;
#GENRE:;
#CREDIT:;
#MUSIC:MGS2 mission R (RGR-Special).ogg;
#BANNER:MGS2 mission R (RGR-Special).png;
#BACKGROUND:MGS2 mission R (RGR-Special)-bg.png;
#CDTITLE:./CDTITLES/Beatmania.png;
#SAMPLESTART:46.430;
#SAMPLELENGTH:15.000;
#SELECTABLE:YES;
#OFFSET:0.000;
#BPMS:0.000=150.000;
#STOPS:;
#BGSTAGE:27;
#BGCHANGES:;
#FGCHANGES:;

//--------------- dance-single - XLev450X ----------------
#NOTES:
     dance-single:
     XLev450X:
     Challenge:
     15:
     0,0,0,0,0:
0000
0000
0000
0000
,
0000
0000
0000
0000
,
0000
0000
0000
0000
0000
0000
0000
0000
0100
1000
0001
0010
0001
1000
0001
0100
,
0010
0000
0000
1000
0000
0000
0010
0000
0100
0000
0000
0001
0000
0000
0010
0000
,
1000
0000
0000
0010
0000
0000
0100
0000
0000
0010
1000
0001
0100
0010
1000
0001
,
0100
0000
0000
0010
0000
0000
1000
0000
0001
0000
0000
0100
0000
0000
0010
0000
,
1000
0000
0000
0100
0000
0000
0001
0000
1000
0000
0000
0010
0000
0000
0001
0000
,
0010
0001
0010
1000
0100
0000
1000
0000
0010
1000
0100
0001
0010
0000
0100
0000
,
0001
1000
0100
0010
0001
1000
0010
0100
0001
1000
0010
0100
0001
1000
0010
0100
,
0001
0000
0000
1000
0000
0000
0010
0000
0100
0000
0001
0000
1000
0000
0000
0000
,
0001
0000
0000
0100
0000
0000
0010
0000
0001
0000
1000
0000
0010
0000
0100
0000
,
0001
0000
0000
1000
0000
0000
0010
0000
0100
0000
0000
0001
0000
0000
0010
0000
,
2000
0000
3000
0000
0002
0000
0003
0000
0200
0000
0300
0000
0010
0001
0010
0001
,
0010
0000
1000
0000
0010
0001
1000
0000
,
0001
0000
0100
0000
0010
0000
1000
0000
0001
0000
0010
0001
0010
0000
1000
0000
,
0001
0000
0100
0010
1000
0000
0001
0000
,
0010
0000
1000
0000
0001
0000
0100
0000
0010
1000
0001
0100
0010
0001
0010
0100
,
1000
0000
0001
0000
0010
0100
0001
0000
,
1001
0000
1000
0010
0100
0000
0001
1000
,
0010
0000
0000
0100
0000
0000
0001
0000
1000
0000
0000
0010
0000
0000
0100
0000
,
0001
0100
1000
0000
0010
0000
0100
0000
1000
0010
0100
0001
1000
0010
0100
0001
,
0010
0000
1001
0000
0000
0110
0000
0000
,
0001
0000
0000
0000
1000
0000
0000
0000
0010
0000
0000
0100
0000
0000
0001
0000
,
0010
0000
1000
0000
0000
0010
0000
0000
,
0001
0000
0000
0000
1000
0000
0000
0000
0010
0000
0000
0100
0000
0000
0001
0000
,
1000
0000
0011
0000
0000
0101
0000
0000
,
1010
0000
0000
0110
0000
0000
1001
0000
,
0010
0000
0001
1000
0010
0000
0100
0000
,
0010
0001
0010
0000
1000
0000
0100
1000
0100
0000
0010
0000
0100
1000
0001
0100
,
0010
0001
1000
0010
0100
0001
0000
0000
,
1000
0000
0000
0000
0010
0000
0100
0000
0010
1000
0001
0010
1000
0001
0100
1000
,
0001
0010
0001
1000
0010
0100
0000
0001
,
1000
0000
0010
0000
0100
0000
0001
0000
1000
0000
0010
0000
1000
0000
0100
0001
,
0010
1000
0001
1000
0010
0100
0010
1000
,
0002
0000
0003
2000
0000
3000
0020
0030
,
0100
0001
1000
0010
0001
1000
0000
0000
,
0010
0000
0001
0000
0100
0000
1000
0000
0010
0000
1000
0000
0001
0000
0010
1000
,
0100
0000
0010
0001
0010
0000
0001
0100
1000
0100
0000
0010
0100
0010
0001
0010
,
1000
0001
0100
0000
0010
1000
0001
0000
,
0010
0001
0010
0000
1000
0000
0010
0000
0100
0000
1000
0000
0010
0000
0000
0000
,
0100
0001
0100
0000
0010
0000
1000
0000
0001
0000
0100
0000
0010
0000
0100
0000
,
0001
0010
0001
0000
1000
0100
1000
0000
0010
0100
0010
0000
0010
1000
0010
0000
,
0100
0001
0100
0000
0010
1000
0001
0000
0010
0100
0001
0000
1000
0001
0100
0000
,
0010
1000
0100
0000
0010
0001
0010
0000
0100
1000
0100
0000
0010
0001
0100
0000
,
1000
0010
0100
0000
0001
1000
0100
0000
0001
0010
0100
0000
0001
1000
0100
0010
,
0001
1000
0010
0100
0001
1000
0010
0000
,
0100
0001
1000
0010
1000
0000
0001
0000
,
1000
0010
0100
0000
1000
0001
0100
0000
,
0001
0100
0010
0000
1000
0001
0010
0000
,
0001
0000
0100
0000
1000
0001
0100
0000
,
0010
1000
0001
0100
0010
1000
0001
0100
,
0010
1000
0010
1000
0010
0100
0001
0010
0001
1000
0100
1000
0100
1000
0010
0100
,
0001
0000
0001
0010
0100
0000
1000
0001
0100
0000
0010
0000
0100
0001
1000
0010
,
0100
0000
0000
0000
0001
0010
0001
0000
1000
0100
1000
0100
0001
0000
0010
0000
,
0010
0000
0001
0010
0000
0000
0001
0000
1000
0000
0010
0100
0000
1000
0100
0001
,
0010
0000
0100
0001
0000
1000
0010
0000
,
0001
0000
1000
0000
0010
0000
0100
0000
0001
0000
0010
0001
0100
1000
0001
0100
,
0010
0000
0001
1000
0010
0100
0001
0000
,
1000
0010
0100
0001
1000
0010
0100
0000
,
0001
0000
1000
0000
0010
0000
0000
0001
0000
0000
0010
0000
0001
0000
0000
0000
,
1000
0000
0010
0000
0100
0000
1000
0000
0100
0010
0100
1000
0001
0100
0010
1000
,
0200
0000
0000
0300
;
