#TITLE:MAGICAL SUMMER SMILE;
#ARTIST:wac feat. VENUS;
#MUSIC:MAGICAL SUMMER SMILE.ogg;
#BANNER:MAGICAL SUMMER SMILE.png;
#BACKGROUND:MAGICAL SUMMER SMILE-bg.png;
#CDTITLE:./CDTitles/jb prop.png;
#SAMPLESTART:0.062;
#SAMPLELENGTH:15;
#OFFSET:0.707;
#BPMS:0=195;
#BGSTAGE:16;

//--------------- dance-single - XLev450X-bSP ----------------
#NOTES:
     dance-single:
     XLev450X:
     Beginner:
     3:
     0,0,0,0,0:
0000
0000
0000
0000
,
0000
0000
0000
0000
,
0000
0000
0000
0000
,
0000
0000
0000
0000
,
0000
0000
0000
0000
,
0000
0000
0000
0000
,
0000
0000
0000
0000
,
0000
0000
0000
0000
,
0000
0000
0000
0000
,
0000
0000
1000
0000
,
0001
0000
0000
0000
,
0010
0000
0000
0000
,
0000
0000
0000
0000
,
1000
0000
0000
0000
,
0010
0000
0000
0000
,
0001
0000
0000
0000
,
0000
0000
0000
0000
,
1000
0000
0010
0000
,
1000
0000
0000
0000
,
0100
0000
0001
0000
,
0100
0000
0000
0000
,
0010
0000
1000
0000
,
0001
0000
0000
0000
,
0100
0000
0001
0000
,
1000
0000
0000
0000
,
0010
0000
0100
0000
,
1000
0000
0001
0000
,
0010
0000
0100
0000
,
1000
0000
0000
0000
,
0001
0000
1000
0000
,
0010
0000
0100
0000
,
0010
0000
0001
0000
,
0100
0000
0000
0000
,
0001
0000
0000
0000
,
1000
0000
0000
0000
,
0100
0000
0000
0000
,
0010
0000
0000
0000
,
1000
0000
0000
0000
,
0001
0000
0000
0000
,
0010
0000
0000
0000
,
0100
0000
0000
0000
,
0001
0001
0001
0000
,
0000
0000
0000
0000
,
1000
1000
1000
0000
,
0000
0000
0000
0000
,
0100
0100
0100
0000
,
0000
0000
0000
0000
,
0010
0010
0010
0000
,
0000
0000
0000
0000
,
0001
0000
1000
0000
,
0001
0000
0000
0000
,
0010
0000
1000
0000
,
0010
0000
0000
0000
,
0100
0000
0001
0000
,
0100
0000
0000
0000
,
0001
0000
1000
0000
,
0001
0000
0000
0000
,
1000
0000
0010
0000
,
0100
0000
0001
0000
,
1000
0000
0010
0000
,
0100
0000
0000
0000
,
0001
0000
1000
0000
,
0001
0000
0100
0000
,
0010
0000
1000
0000
,
0001
0000
0000
0000
,
0101
0000
1010
0000
,
0010
0000
0000
0000
,
0100
0000
0001
0000
,
1000
0000
0000
0000
,
0010
0000
1000
0000
,
0010
0000
0000
0000
,
0100
0000
0001
0000
,
0100
0000
0000
0000
,
1000
0000
0010
0000
,
1000
0000
0000
0000
,
0000
0100
0010
0000
,
1000
0000
0010
0000
,
0001
0001
1000
0010
,
0100
0000
0000
0000
,
0001
0000
1000
0000
,
0010
0000
0000
0000
,
0100
0000
0001
0000
,
1000
0000
0000
0000
,
1000
1000
1000
0000
,
0001
0001
0001
0000
,
0010
0100
0010
0000
,
0001
0010
0001
0000
,
1000
0000
0001
0000
,
1000
0010
0100
0000
,
0001
0000
1000
0000
,
0010
0000
0000
0000
,
0100
0000
0001
0000
,
1000
0000
0010
0000
,
1000
0010
1000
0000
,
0100
0001
0100
0000
,
1001
0000
0000
0000
;

//--------------- dance-single - XLev450X-BSP ----------------
#NOTES:
     dance-single:
     XLev450X:
     Easy:
     6:
     0,0,0,0,0:
0000
0000
0000
0000
,
0000
0000
0000
0000
,
0000
0000
0000
0000
,
0000
0000
0000
0000
,
0000
0000
0000
0000
,
0000
0000
0000
0000
,
0000
0000
0000
0000
,
0000
0000
0000
0000
,
0000
0000
0000
0000
,
0000
0010
2002
3003
,
0010
0000
0000
0100
0000
0000
0001
1000
,
0000
0010
0100
1000
,
0000
0001
1000
0000
,
0010
0000
1000
0000
,
0001
0010
0001
0000
,
1000
0000
0010
0000
,
0100
0000
0010
0000
,
2000
0000
0001
0000
,
0001
0000
3001
0000
,
0020
0000
0100
0000
,
0100
0000
0000
0130
,
0001
1000
0010
0000
,
1000
0100
0001
0000
,
0010
1000
0001
0100
,
0020
0000
0030
0000
,
0001
1000
0010
0000
,
1000
0100
0001
0000
,
0010
0000
1000
0000
,
0010
0100
0001
0000
,
0010
0000
1000
0000
,
0001
1000
0001
0000
,
0010
0000
1000
0000
,
0010
0000
0000
0000
,
0001
0000
1000
0000
,
0001
0010
0001
0000
,
0100
0000
1000
0000
,
0010
0100
0010
0000
,
1000
0000
0010
0000
,
0001
0000
0000
0000
,
1000
0000
0001
1000
,
0010
1000
0010
0000
,
0100
0000
1000
0000
,
0001
0001
0001
0000
,
1000
0000
0010
0000
,
0100
0100
0100
0000
,
0001
0000
1000
0000
,
0100
0000
0001
0000
,
0010
1000
0010
0000
,
0001
0000
1000
0000
,
0001
0000
1000
0000
,
0100
0001
1000
0000
,
0010
0000
1000
0010
,
0100
0000
0001
0000
,
0001
0010
0001
0000
,
1000
0100
1000
0000
,
0010
0000
0100
0000
,
0010
0000
0001
0000
,
1000
0001
1000
0000
,
0010
1000
0010
0000
,
0100
0000
0001
0000
,
1000
0001
0010
0000
,
0100
0000
1000
0000
,
0001
0100
0010
0000
,
0010
0000
1000
0000
,
0001
0000
0000
0000
,
1000
0000
0010
0000
,
1000
0000
0000
0000
,
0001
0000
1000
0000
,
0010
0000
0100
0000
,
1000
0000
0001
0000
,
0100
0000
1000
0000
,
0001
0001
0001
0000
,
1000
0010
1000
0100
,
0001
0000
1000
0000
,
0010
0100
0010
2000
,
3001
0001
1000
0000
,
0010
0000
0000
0100
0000
0000
0000
0000
,
0001
1000
0001
0010
,
1000
0100
0001
0000
,
0010
0010
1000
0001
,
0100
1000
0010
0000
,
1000
0001
1000
0000
,
0010
1000
0010
0000
,
0101
0000
0010
0000
,
1000
0010
1000
0000
,
1010
0000
0010
0000
,
0200
0000
0000
0310
,
0001
0000
1000
0000
,
0010
0001
0100
0000
,
1000
0000
0010
0000
,
0100
1000
0001
0010
,
1000
0000
0001
0000
,
1000
0001
1000
0000
,
0001
0010
0100
1000
,
1000
0100
0010
0001
,
2002
0000
0000
0000
,
0000
0000
0000
0000
,
3003
0000
0000
0000
;

//--------------- dance-single - XLev450X-DSP ----------------
#NOTES:
     dance-single:
     XLev450X:
     Medium:
     10:
     0,0,0,0,0:
0000
0000
0000
0000
,
0000
0000
0000
0000
,
0000
0000
0000
0000
,
0000
0000
0000
0000
,
0000
0000
0000
0000
,
0000
0000
0000
0000
,
0000
0000
0000
0000
,
0000
0000
0000
0000
,
0000
0000
0000
0000
,
0000
0002
2000
3003
,
0110
0000
0000
1001
0000
0000
0001
1000
,
0100
0010
0001
0010
0000
1000
0000
0100
,
0000
0001
0000
0100
1000
0010
0000
0000
,
0001
0000
0010
0000
1000
0001
0000
0100
,
0000
2000
0000
0000
3000
0001
0010
0001
,
1000
0000
0010
0100
0000
1000
0000
0001
,
0000
0010
0000
1000
0000
0010
1000
0010
,
0001
1000
0100
1000
,
0001
0010
1000
0000
,
0010
1000
0001
0100
,
1000
0000
0000
0000
0001
0000
0000
0000
1000
0000
0001
0100
1000
0000
0000
0000
,
0010
1000
0100
1000
,
0001
0000
0100
0000
1000
0000
0001
1000
,
0010
1000
0010
0001
,
2001
0000
0000
3000
,
0011
0000
0000
0110
0000
0000
0000
0000
,
1010
0000
0000
0110
0000
0000
0000
0000
,
0001
1000
0001
0010
,
0001
0010
0001
0000
0100
1000
0100
0000
,
0011
0000
0000
0110
0000
0000
0000
0000
,
1010
0000
0000
1001
0000
0000
0001
0000
,
1000
0000
0001
0000
0010
1000
0010
0000
,
0001
0100
0001
1000
,
0010
0010
1000
0001
,
0010
0001
0010
0000
1000
0010
1000
0000
,
0100
1000
0001
0010
,
1000
0001
1000
0000
0010
1000
0010
0000
,
0001
1000
0101
0000
,
0010
1000
1010
0000
,
0010
0100
1000
0001
,
1000
0001
1000
0000
0010
1000
0010
0000
,
0001
1000
0100
1000
,
0001
0010
0100
1000
,
0001
0010
1000
0001
,
0010
1000
0001
0000
,
1000
1000
0010
0100
,
1000
0001
0100
0010
,
0001
0010
0001
0000
1000
0000
0001
0000
,
1000
0000
0001
0000
1000
0100
0001
0010
,
0100
0000
0000
0001
0000
0000
1000
0000
,
0010
0000
0000
0001
0000
0000
0010
0000
0000
0000
0000
0000
1000
0000
0000
0000
,
0001
0000
0000
0100
0000
0000
0010
0000
,
1000
0000
0000
0001
0000
0000
0100
0000
0000
0000
0000
0000
0000
0000
0000
0000
,
0001
0000
0000
1000
0000
0000
0001
0000
,
0010
1000
0100
0000
,
0010
0001
0100
1000
,
0002
0000
2003
3100
,
0001
0000
0000
1000
0000
0000
0001
0000
,
0100
0010
0000
1000
0000
0000
0001
0000
,
0010
0000
0000
0100
0000
0000
1000
0000
,
0010
0001
0000
0100
0000
1000
0001
0000
,
0010
1000
0100
0001
,
0001
0000
0010
0001
0000
1000
0000
0000
,
0010
0000
0100
0000
0010
0000
1000
0100
,
0000
0010
0000
0001
0020
0000
1030
0000
,
0001
0000
0000
1000
0001
1000
0000
0100
,
0000
0101
0220
0000
0000
0000
0330
0000
,
0001
0000
1000
0000
0010
0000
0001
0010
,
0001
1000
0100
1000
,
0001
0000
0000
0100
0000
1000
0000
0001
,
0000
0000
0010
0000
1000
0010
0000
0000
,
0101
0000
1010
0000
,
0110
0000
0011
0000
,
0001
0000
0000
1000
0000
0000
0010
0100
,
0000
0001
0000
1000
0000
0001
1000
0010
,
0000
2000
0002
3003
,
0110
0000
0000
1001
0000
0000
1000
0001
,
0010
0100
1000
0100
0000
0001
0000
0010
,
0000
1000
0000
0010
0001
0100
0000
0000
,
1000
0000
0100
0000
0001
1000
0000
0010
,
0000
0002
0000
0000
0003
1000
0100
1000
,
0001
0000
0100
0010
0000
0001
0000
1000
,
0000
0100
0000
0001
0000
0100
0001
0100
,
0001
0000
1000
0000
0001
0010
0001
1000
,
0001
0000
0010
0000
0100
0000
1000
0001
,
1000
0000
0001
0010
0000
0101
0000
0110
,
0000
1010
0000
0101
0000
0001
1000
0000
,
0001
1000
0010
0100
,
0000
0001
1000
0010
,
0100
0000
1000
0000
0001
0000
0010
0001
,
0010
1000
0100
1000
,
0001
0000
1000
0010
,
1000
0000
0001
0100
,
0010
0000
1000
0000
0001
0000
1000
0001
,
1000
0000
0010
1000
0000
0001
0100
0000
,
2002
0000
0000
0000
,
0000
0000
0000
0000
,
3003
0000
0000
0000
;

//--------------- dance-single - XLev450X-ESP ----------------
#NOTES:
     dance-single:
     XLev450X:
     Hard:
     12:
     0,0,0,0,0:
0000
0000
0000
0000
,
0000
0000
0000
0000
,
0000
0000
0000
0000
,
0000
0000
0000
0000
,
0000
0000
0000
0000
,
0000
0000
0000
0000
,
0000
0000
0000
0000
,
0000
0000
0000
0000
,
0000
0000
0000
0000
,
0000
0000
1000
0000
0001
0000
0000
0010
,
0001
0100
0000
2001
0000
3000
0010
0100
,
0010
0000
0001
1000
0000
0010
0000
0100
,
0000
0000
0000
0000
0001
0000
0000
0000
1000
0000
0020
0000
0000
0030
0000
0000
,
0100
0000
0001
0000
1000
0010
1000
0100
,
0001
0200
0000
0000
0300
0000
1000
0100
,
0001
0100
0010
1000
0000
0100
0000
0010
,
0000
0001
0100
1000
0000
0100
0001
1000
,
0010
0001
0010
0000
1000
0010
0100
0001
,
0000
1000
0001
0100
0010
0000
0100
0000
,
1000
0001
0000
0100
0000
0010
0001
1000
,
0000
0000
0001
0000
0100
0000
0000
0000
0010
0000
1000
0001
1000
0000
0000
0000
,
1000
0000
0001
0000
0010
0001
0010
0001
,
0000
1000
0010
0100
0000
0001
1000
0010
,
0000
0000
0100
0000
0001
1000
0010
0100
,
0000
0001
0000
1000
0000
0010
0100
0010
,
1001
0000
0000
0101
0000
0000
1010
0000
,
0010
0000
0000
0100
0000
0001
1000
0000
,
0010
0000
0001
0011
0000
0000
1000
0010
,
1000
0000
0001
0100
0010
0000
0001
0000
,
1000
0000
0000
0101
0000
0000
0010
1000
,
0010
0000
0000
0110
0000
0000
0001
0011
,
0000
1000
0010
0100
,
0001
1000
0010
0100
0000
0000
0001
0000
,
1000
0000
0010
0000
0100
0001
1000
0001
,
0000
0100
0001
1000
0000
0000
0010
0000
,
0001
0010
0001
0000
1000
0010
1000
0000
,
0100
0010
0100
0001
1000
0000
0010
0000
,
0100
0000
0001
0000
0100
0001
0100
0000
,
1000
0000
0001
0000
0100
0010
1000
0000
,
0010
0000
0100
0000
0001
0010
0001
1000
,
0000
0010
0100
0001
0000
0000
1000
0000
,
0010
0000
1000
0000
0010
0100
0000
0000
,
0001
1000
0000
0000
0001
0100
0000
0000
,
0001
0100
0001
0000
1000
0010
1000
0000
,
0010
0100
0001
0000
,
0010
1000
0001
0100
,
0010
0000
1000
0001
,
0010
0001
0010
0000
1000
0010
1000
0000
,
0001
0000
1000
0000
0010
0001
0000
0000
,
1000
0000
0001
0000
0100
0010
0001
0000
,
1000
0001
0100
0000
,
1000
0010
0100
0001
,
1000
0000
0010
0100
0001
0000
0000
0000
,
1000
0000
0001
0000
0100
0000
0010
1000
,
0010
0100
0001
0000
,
0001
1000
0010
0100
,
0001
0000
0000
0000
0000
0000
1000
0000
0000
0000
0001
1000
0001
0000
0000
0000
,
0001
0000
1000
0001
0000
0100
0010
0000
,
1000
0000
0010
0001
0000
1000
0010
0000
,
0100
0000
0001
0100
0000
1000
0010
0000
,
0100
0000
0001
0100
0000
0010
1000
0000
,
0001
0010
0001
0000
1000
0010
1000
0000
,
0010
0100
0010
0000
0001
0010
0001
0000
,
1000
0000
0001
0000
0100
0010
1000
0001
,
0000
0010
0000
1000
0001
0000
0010
0000
,
1000
0001
0100
0000
0010
0000
1000
0001
,
0000
0000
0100
0000
0010
0000
0200
0000
0300
0000
0001
1000
0001
0000
0000
0000
,
0001
0000
1000
0000
0010
1000
0010
1000
,
0000
0001
0010
0001
0000
1000
0001
0000
,
0010
0000
1000
0100
0000
0001
0000
0100
,
0000
0000
0001
0000
1000
0010
0000
0000
,
0001
0000
1000
0000
0010
1000
0010
0000
,
0001
0010
0001
0000
0100
1000
0100
0000
,
0001
0000
0010
0000
1000
0000
0001
0010
,
0000
0100
0000
1000
0000
0001
1000
0010
,
0000
0000
0001
0000
1000
0000
0000
0100
,
1000
0010
0000
1002
0000
0003
0100
0010
,
0100
0000
1000
0001
0000
0100
0000
0010
,
0000
0000
0001
0000
1000
0000
0100
0000
0001
0000
0200
0000
0000
0300
0000
0000
,
0010
0000
1000
0000
0001
0100
0001
0010
,
1000
0020
0000
0000
0130
0000
0001
0010
,
1000
0010
0100
0001
0000
0010
0000
0100
,
0000
1000
0010
0001
0000
0010
1000
0001
,
0100
1000
0100
0000
0001
0100
0010
1000
,
0000
0001
1000
0010
0100
0000
0010
0000
,
0001
1000
0000
0010
0000
0100
0000
0001
,
0000
1000
0001
1000
0100
0010
0001
0000
,
0001
1000
0010
1000
0000
0000
0010
1000
,
0000
0001
0000
0100
0000
1000
0001
0000
,
0010
0000
1000
0000
0010
1000
0010
0000
,
0001
0000
0100
0000
1000
0001
1000
0001
,
0010
0000
1000
0000
0010
1000
0010
0000
,
0001
0000
0010
0001
0010
0000
1000
0000
,
0010
0000
1000
0001
0100
1000
0001
1000
,
0010
0100
1000
0001
0000
0010
0000
0000
,
2002
0000
0000
0000
,
0000
0000
0000
0000
,
3003
0000
0000
0000
0000
0000
0000
0000
0000
0000
0000
0000
0000
0000
0000
0000
0000
0000
0000
0000
0000
0000
0000
0000
0000
0000
0000
0000
0000
0000
0000
0000
0000
0000
0000
0000
0000
0000
0000
0000
0000
0000
0000
0000
0000
0000
0000
0000
0000
0000
0000
0000
0000
0000
0000
0000
0000
0000
0000
0000
0000
0000
0000
0000
0000
0000
0000
0000
0000
0000
0000
0000
0000
0000
0000
0000
0000
0000
0000
0000
0000
0000
0000
0000
0000
0000
0000
0000
0000
0000
0000
0000
0000
0000
0000
0000
0000
0000
0000
0000
0000
0000
0000
0000
0000
0000
0000
0000
0000
0000
0000
0000
0000
0000
0000
0000
0000
0000
0000
0000
0000
0000
0000
0000
0000
0000
0000
0000
0000
0000
0000
0000
0000
0000
0000
0000
0000
0000
0000
0000
0000
0000
0000
0000
0000
0000
0000
0000
0000
0000
0000
0000
0000
0000
0000
0000
0000
0000
0000
0000
0000
0000
0000
0000
0000
0000
0000
0000
0000
0000
0000
0000
0000
0000
0000
0000
0000
0000
0000
0000
0000
0000
0000
0000
0000
0000
0000
0000
0000
0000
0000
0000
;
