#TITLE:ルミナスデイズ (2023 Christmas Special);
#SUBTITLE:;
#ARTIST:ここなつ;
#TITLETRANSLIT:Luminous days (2023 Christmas Special);
#SUBTITLETRANSLIT:;
#ARTISTTRANSLIT:Coconatsu;
#GENRE:;
#CREDIT:;
#MUSIC:Luminous days (2023 Christmas Special).ogg;
#BANNER:Luminous days (2023 Christmas Special).png;
#BACKGROUND:Luminous days (2023 Christmas Special)-bg.png;
#CDTITLE:./CDTitles/DDR A.png;
#SAMPLESTART:71.176;
#SAMPLELENGTH:15.000;
#SELECTABLE:YES;
#OFFSET:0.000;
#BPMS:0.000=144.800
,4.000=145.000
,288.000=136.000
,292.000=115.000
,296.000=96.000
;
#STOPS:;
#BGSTAGE:3;
#DISPLAYBPM:145.000;
#BGCHANGES:;
#FGCHANGES:;

//--------------- dance-single - StormTaker21 ----------------
#NOTES:
     dance-single:
     StormTaker21:
     Challenge:
     15:
     0,0,0,0,0:
0000
0000
0000
0000
,
0000
0000
0000
0000
,
0000
0000
0000
0000
,
0000
0000
0000
0000
,
0000
0000
0000
0000
,
0010
0100
0010
0000
0100
0000
0001
0000
1000
0000
0000
0000
0010
0000
0000
0000
,
0100
0001
1000
0010
0100
0000
0001
0000
,
0202
0303
2020
3030
,
0220
0330
2002
3003
,
0010
0100
0010
0000
0100
0000
0001
0000
1000
0000
0010
0000
0100
0000
0001
0100
,
0010
0000
0100
0000
0001
0000
1000
0010
0100
0000
0001
0000
1000
0000
0010
0000
,
0100
0000
0001
1000
0010
0000
0100
0000
0001
0000
1000
0010
0100
0000
0001
0000
,
1000
0000
0100
0010
0100
0000
0010
0000
0001
0000
0100
0000
0010
0000
1000
0000
,
0001
0100
0010
1000
0001
0000
0100
0000
0010
0000
1000
0000
0001
0000
0100
0000
,
0010
1000
0001
0000
0100
0000
0010
0000
1000
0000
0001
0000
0100
0010
0100
0000
,
0001
1000
0010
0100
0101
0010
1000
0010
,
0110
0001
1000
0010
0110
0010
0100
0001
,
0101
0000
0010
0000
1000
0000
0001
0000
1000
0000
0010
0000
0100
0000
0001
1000
,
0010
0000
0100
0000
0001
0000
1000
0000
0010
0100
0010
0000
1000
0000
0001
0000
,
1000
0010
0100
0000
0001
0000
1000
0000
0010
0000
0100
0000
0001
0000
1000
0000
,
0010
0100
0010
0000
0100
0000
0001
0000
1000
0010
1000
0000
0001
0000
0100
0000
,
0010
0000
0100
0000
0001
0000
1000
0000
0010
0100
0010
0000
0100
0000
0001
0000
,
0100
0000
0010
0000
1000
0000
0000
0001
0100
0000
0010
0000
0100
0000
0001
0000
,
1000
0010
0100
0000
0001
0000
0100
0000
0010
0000
1000
0000
0001
0000
1000
0000
,
0010
0000
0100
0000
0001
0000
0100
0000
0010
0100
0001
0000
0100
0000
0010
0000
,
1000
0001
0100
0000
0010
0000
0100
0000
0001
1000
0010
0000
0100
0000
0010
1000
,
0001
0000
0100
0000
0010
0000
1000
0000
0001
0000
0100
0000
0010
0000
1000
0001
,
1000
0000
0010
0000
0100
0000
0010
0000
0100
0000
0010
0100
0010
0000
1000
0000
,
2002
0000
0000
0000
3003
0000
0000
0010
,
0110
0000
0000
0000
0101
0000
0010
0000
0110
0000
0000
0000
0001
1000
0001
0000
,
0100
0000
0000
0000
0010
0000
0100
0010
0100
0000
0000
0000
0001
0000
1000
0010
,
1000
0000
0000
0000
0001
0000
0100
0010
0100
0000
0000
0000
0001
0000
0100
0000
,
0010
0000
1000
0000
0010
0000
1000
0000
0001
0000
0100
0000
0010
0000
0100
0001
,
0100
0000
0000
0000
0010
0000
1000
0010
1000
0000
0000
0000
0001
0000
0100
0000
,
0110
0000
0001
0100
0110
0000
0010
1000
,
1001
0001
0100
0010
0100
0001
1000
0010
,
0100
0001
0100
0000
0010
0000
1000
0000
0001
1000
0010
0000
1000
0000
0001
0000
,
1001
0010
0110
0001
0101
0000
1000
0010
,
1010
0000
0000
0000
0001
0000
0100
0010
0100
0000
0000
0000
0001
0000
0001
0100
,
0010
0000
0000
0000
1000
0000
1000
0010
0100
0000
0000
0000
0001
0000
0001
1000
,
0010
0000
0100
0000
0001
0000
1000
0000
0010
0000
0000
0000
0010
0000
0100
0001
,
0100
0000
0000
0000
0010
0000
0010
1000
0010
0000
0000
0000
0001
0000
1000
0000
,
1001
0000
0110
0000
0101
0010
1010
0000
,
0001
1000
0010
0000
0100
0000
0001
0000
1000
0000
0010
0000
0100
0001
0100
0000
,
0010
1000
0001
0000
1010
0000
0001
0100
,
0010
0100
0001
0000
1000
0000
0010
0000
0100
0001
1000
0000
0010
0000
0100
0000
,
0010
0100
0010
0000
0100
0000
0001
0000
1000
0000
0000
0010
0100
0000
0001
0000
,
1000
0010
0100
0000
0001
0000
1000
0000
1010
0000
0001
0000
0100
0010
0100
0000
,
0001
0100
0110
0000
0001
0000
0100
0010
,
1000
0000
0001
0100
0010
0000
1000
0000
0001
0000
0100
0000
0010
0000
0100
0000
,
0001
1000
0001
0000
0100
0000
0010
0000
1000
0001
0100
0000
0010
0000
1000
0000
,
0001
0100
0010
0000
0100
0000
0000
0001
0100
0000
0010
0000
1000
0001
0100
0000
,
0010
1000
0001
0000
0010
0100
0001
1000
,
0010
0100
0001
0000
1000
0000
0010
0000
0100
0001
1000
0000
0010
0000
0100
0000
,
0001
1000
0010
0000
0100
0000
0000
0000
0010
0000
0000
0000
0100
0000
0001
0000
,
1000
0000
0010
0100
0001
0000
0100
0000
0010
0000
1000
0000
0001
0000
0100
0010
,
1000
0001
0100
0000
0010
0000
0010
0100
,
0010
0100
0001
1000
0010
0000
0100
0000
,
0002
0000
0000
0000
0003
0000
0000
0000
0020
0000
0000
0030
1000
0000
0000
0000
,
0100
0010
0000
0100
0001
0000
0100
0000
0010
0000
1000
0000
0001
0100
0010
0000
,
1000
0001
0100
0000
0110
0000
1001
0010
,
0100
0000
0001
1000
0010
0000
0100
0000
0001
1000
0010
0100
0001
0000
1000
0000
,
0010
0100
0110
0001
0110
0010
1010
0010
,
0101
0010
0100
0001
0100
0010
1010
0001
,
0101
0010
1010
0000
0010
0100
0001
0100
,
0010
0100
0001
0000
0100
0000
0010
0000
0100
0001
0100
0000
0010
0000
1000
0000
,
0001
1000
0010
0000
0100
0000
0001
0000
1000
0000
0010
0000
0100
0000
0001
0000
,
1000
0010
0100
0001
1000
0000
0010
0000
,
0001
0000
0100
0000
0010
0000
0100
0001
0100
0000
0010
0000
1000
0000
0000
0000
,
0010
0000
0000
0000
0100
0000
0001
0100
0010
0000
0000
0000
1000
0000
0000
0000
,
0001
0000
1000
0000
0010
0000
0100
0000
0001
0000
0000
0000
0010
0000
0100
0001
,
0100
0010
1000
0001
0100
0000
0010
0000
,
1000
0001
0100
0010
,
2000
0000
0000
3000
0020
0000
0000
0030
,
0200
0000
0000
0300
0002
0000
0000
0003
,
2002
0000
0000
0000
,
3003
0000
0000
0000
;
