#TITLE:Lover's High;
#SUBTITLE:;
#ARTIST:APHs;
#TITLETRANSLIT:;
#SUBTITLETRANSLIT:;
#ARTISTTRANSLIT:;
#GENRE:FREE SOUL;
#CREDIT:;
#MUSIC:Lover's High.ogg;
#BANNER:Lover's High.png;
#BACKGROUND:Lover's High-bg.png;
#CDTITLE:./CDTITLES/MAMBO A GO GO.PNG;
#SAMPLESTART:31.439;
#SAMPLELENGTH:15.000;
#SELECTABLE:YES;
#OFFSET:-0.054;
#BPMS:0.000=130.000;
#STOPS:;
#BGSTAGE:17;
#BGCHANGES:;
#FGCHANGES:;

//--------------- dance-single - XLev450X-bSP ----------------
#NOTES:
     dance-single:
     XLev450X:
     Beginner:
     3:
     0,0,0,0,0:
0000
0000
0000
0000
,
0000
0000
0000
0000
,
0000
0000
0000
0000
,
0000
0000
0000
0000
,
0000
0000
0000
0000
,
0001
1000
0001
0000
,
1000
0010
0100
0000
,
0001
0100
0010
0000
,
1001
0000
0000
0000
,
0001
1000
0010
0000
,
0100
1000
0001
0000
,
0100
0001
0010
0000
,
1000
0001
0010
0100
,
0001
1000
0010
0000
,
1000
0100
0010
0000
,
0010
0001
0100
0000
,
1000
0001
0010
0100
,
0001
0000
1000
0000
,
0001
0000
0010
0000
,
1000
0000
0100
0000
,
0001
0000
1000
0001
,
0100
0000
0010
0000
,
1000
0000
0001
0010
,
0100
0000
0001
0000
,
1001
0000
0000
0000
,
0010
1000
0001
0000
,
0010
0100
0001
0000
,
1000
0001
0100
0010
,
1000
0001
0010
0100
,
0001
0000
1000
0000
,
0010
1000
0100
0000
,
0010
0001
1000
0010
,
0100
0001
1000
0000
,
0010
0000
0100
0000
,
0001
0000
1000
0000
,
0010
0000
0100
0000
,
0001
0000
0010
1000
,
0001
0000
0100
0010
,
1000
0000
0010
0100
,
0001
0000
0001
1000
,
0010
0000
0100
0001
,
0010
0000
1000
0010
,
0100
0000
0001
0010
,
1000
0000
0001
1000
,
0010
0000
0100
0001
,
1000
0000
0010
1000
,
0001
0000
0010
0100
,
0001
1000
0010
0100
,
1001
0000
0000
1001
;

//--------------- dance-single - XLev450X-BSP ----------------
#NOTES:
     dance-single:
     XLev450X:
     Easy:
     6:
     0,0,0,0,0:
0000
0000
0000
0000
,
0000
0000
0000
0000
,
0000
0000
0000
0000
,
0000
0000
0000
0000
,
0000
0000
0000
0000
,
0001
1000
0010
0000
,
0100
0001
1000
0000
,
0010
0100
0001
1000
,
0010
0100
0001
0000
,
0010
0010
0010
0000
,
0100
0001
1000
0010
,
0100
0001
1000
0000
,
0010
1000
0001
0100
,
0010
1000
0001
0000
,
0010
0100
0001
1000
,
0010
0100
0001
0000
,
1000
0010
0100
1000
,
0101
0000
1010
0000
,
0011
0000
1100
0101
,
1001
0000
0011
0000
,
1100
0000
0110
1001
,
0110
0000
0011
0000
,
1100
0000
0110
0101
,
1010
0000
0101
0110
,
1001
0000
0000
0000
,
0001
1000
0010
0100
,
0001
1000
0010
0100
,
1000
0001
0010
0100
,
0001
1000
0010
0000
,
0001
1000
0010
0100
,
0001
1000
0010
0100
,
1000
0001
0010
0100
,
0010
0001
1000
0000
,
0010
0000
0001
1000
0000
0000
0010
0100
,
0000
0001
1000
0000
0010
0000
0100
0000
,
0001
0000
0010
0100
0000
0001
1000
0010
,
0000
0100
0001
0000
0010
0000
0000
0000
,
1000
0000
0001
0000
0000
0010
0100
0000
,
0001
0000
1000
0010
0000
0100
0000
0000
,
0001
0000
1000
0010
0000
0100
0000
0000
,
0001
0000
0010
0100
0000
1000
0001
0000
,
0010
1000
0001
0010
,
0100
0001
1000
0010
,
0100
0000
0001
0000
,
1000
0010
0100
1000
,
0001
0000
0100
0010
,
1000
0001
0010
0100
,
0001
0000
1000
0010
,
1010
0000
0000
0101
0000
0000
1001
0000
;

//--------------- dance-single - XLev450X-DSP ----------------
#NOTES:
     dance-single:
     XLev450X:
     Medium:
     10:
     0,0,0,0,0:
0000
0000
0000
0000
,
0000
0000
0000
0000
,
0000
0000
0000
0000
,
0000
0000
0000
0000
,
0000
0000
0000
0000
,
0001
0000
1000
0000
0010
0000
0000
0100
0000
0000
0001
0000
1000
0000
0000
0000
,
0010
0100
0001
0000
1000
0010
0100
0000
,
0001
0000
0010
0000
0100
0000
0001
0000
0000
0100
0000
0000
1000
0000
0000
0000
,
0001
0100
0010
1000
0101
0000
0000
0000
,
0010
0000
1000
0000
0001
0100
0010
0000
,
1000
0001
0010
0100
,
1000
0000
0001
0000
0100
0010
1000
0000
,
0001
0100
0010
0001
,
1000
0010
0100
0000
0001
0100
0010
0000
,
1000
0000
0010
0000
0100
1000
0001
0000
,
0100
0000
0010
0000
1000
0001
0100
0000
,
0010
0000
1000
0000
0010
0100
0001
1000
,
0010
0100
0001
1000
,
0010
0000
0100
0000
1000
0001
0100
0000
,
0010
1000
0001
0100
,
0010
0000
1000
0000
0010
1000
0100
0001
,
0010
1000
0100
0001
,
0010
0000
0100
0000
0001
1000
0010
0100
,
0001
1000
0010
0100
,
1000
0000
0000
0010
0000
0000
0100
0000
0000
0001
0000
0000
0000
0000
0000
0000
,
0001
1000
0010
0000
0100
0000
0001
0000
,
1000
0010
1000
0000
0100
0001
0100
0000
,
0010
0000
0100
0000
0001
1000
0010
0000
,
0100
0001
1000
0010
,
0100
1000
0100
0000
0010
0001
0010
0000
,
0010
0100
0001
0000
1000
0010
0100
0000
,
0001
1000
0001
0100
,
0010
0000
1000
0000
0001
0100
0010
0000
,
0001
0000
0100
0010
0000
1000
0001
0010
,
0000
0100
0001
0000
1000
0000
0010
0000
,
0100
0001
1000
0000
0000
0010
0100
0001
,
0000
1000
0010
0000
0100
0000
1000
0000
,
0001
0000
0000
0100
0000
0010
0000
0000
,
1000
0000
0001
0010
0000
0100
0001
0000
,
0010
0000
1000
0001
0000
0100
0000
0010
,
0001
1000
0010
0000
0100
0000
0001
0000
,
0010
0000
0001
0000
1000
0000
0010
0000
0000
0001
0000
0000
1000
0000
0000
0000
,
0001
0000
0010
0000
0100
0000
0000
1000
0000
0000
0010
0000
0001
0000
0000
0000
,
0010
0000
0100
0000
1000
0000
0100
0000
0000
0010
0000
0000
0001
0000
0000
0000
,
0100
0001
1000
0010
0100
0000
0011
0000
,
1000
0000
0001
0000
0100
0000
0000
0010
0000
0000
0001
0000
1000
0000
0000
0000
,
0010
0100
0001
0000
1000
0010
0100
0000
,
0001
0000
0010
0000
1000
0000
0001
0000
0000
0010
0000
0000
0100
0000
0000
0000
,
1000
0000
0000
0010
0000
0000
0100
0000
0000
0010
0000
0000
1001
0000
0000
0000
;

//--------------- dance-single - XLev450X-ESP ----------------
#NOTES:
     dance-single:
     XLev450X:
     Hard:
     14:
     0,0,0,0,0:
0000
0000
0000
0000
,
0000
0000
0000
0000
,
0000
0000
0000
0000
,
0000
0000
0000
0000
,
0000
0000
0000
0000
,
0001
0000
1000
0000
0010
0000
0000
0100
0000
0000
0001
0000
1000
0000
0000
0000
,
0010
0000
0100
0000
0001
0000
0000
1000
0000
0000
0010
0000
0100
0000
0000
0000
,
0001
0000
1000
0000
0010
0000
0000
0100
0000
0000
0001
0000
1000
0000
0000
0000
,
0010
0000
0100
0000
0001
1000
0001
0000
0010
0100
1000
0010
0001
0100
0010
1000
,
0001
0000
0000
0000
0010
0000
0000
0100
0000
0000
0001
0000
1000
0000
0000
0000
,
0100
0000
0001
0000
1000
0000
0000
0010
0000
0000
0100
0000
1000
0000
0000
0000
,
0001
0000
0010
0000
0100
0000
0000
0001
0000
0000
1000
0000
0010
0000
0000
0000
,
0100
0000
0001
0000
1000
0000
0000
0001
0000
0000
0010
0000
1000
0000
0000
0000
,
1000
0000
0001
0000
0100
0000
0000
0010
0000
0000
0001
0000
1000
0000
0000
0000
,
0100
0000
0001
0000
1000
0000
0000
0100
0000
0000
0010
0000
0100
0000
0000
0000
,
0001
0000
1000
0000
0010
0000
0000
0100
0000
0000
0010
0000
1000
0000
0000
0000
,
0010
0000
0100
0000
0001
0000
1000
0000
0010
0100
0001
1000
0100
0001
0010
0100
,
1000
0000
0000
0010
0001
0000
0000
0010
1000
0000
0000
0010
0100
0000
0000
0001
,
1000
0000
0000
0100
0001
0000
0000
1000
0010
0000
1000
0000
0001
0000
0100
0000
,
0010
0000
0000
1000
0100
0000
0000
0001
1000
0000
0000
0100
0010
0000
0000
0001
,
0010
0000
0000
1000
0010
0000
0000
0100
0001
0000
0000
0001
0010
0000
0100
0000
,
1000
0100
0000
0000
0001
0010
0000
0000
0010
1000
0000
0000
0001
1000
0000
0000
,
0010
0100
0000
0000
1000
0100
0000
0000
0010
0001
0000
0000
0001
0000
1000
0000
,
0010
1000
0000
0000
0001
0010
0000
0000
0100
0010
0000
0000
0001
1000
0100
0000
,
0010
1000
0010
1000
0000
0000
0001
0100
0001
0100
0000
0000
0001
0010
0100
1000
,
0010
0100
0001
0000
1000
0010
0100
0000
,
0001
1000
0010
0100
0000
0001
0010
0000
,
0100
1000
0001
0010
0000
0100
0001
0010
,
1000
0001
0010
0100
0000
0001
1000
0010
,
0100
0001
1000
0000
0010
0100
1000
0000
,
0001
0010
0100
0001
0000
0010
1000
0000
,
0001
0010
0100
0001
0000
0010
0100
0001
,
1000
0000
0010
0000
0100
0001
0010
0000
,
0001
0000
0100
0001
0000
0010
1000
0001
,
0000
0010
0100
0000
0001
0000
1000
0000
,
0010
0000
0100
1000
0001
0000
0100
0000
0000
0010
1000
0001
0010
0000
0100
0000
,
0000
0000
0010
0000
1000
0000
0001
0000
0010
0100
0001
0100
0001
0010
0100
1000
,
0010
0100
0001
1000
0000
0010
0100
0000
,
0001
0010
0100
1000
0000
0001
1000
0010
,
0100
0000
0001
0000
0010
0000
0100
0000
0000
0010
0001
0000
1000
0000
0010
0000
,
0000
0000
0100
0000
0001
0000
0010
0000
0001
0010
0100
1000
0001
0100
0010
1000
,
0010
0000
0100
0000
0001
0000
0000
0010
0000
0000
1000
0000
0001
0000
0000
0000
,
0010
0000
0100
0000
0001
0000
0000
1000
0000
0000
0010
0000
0100
0000
0000
0000
,
0001
0000
1000
0000
0010
0000
0000
0100
0000
0000
0001
0000
1000
0000
0000
0000
,
0010
0000
0100
0000
0001
0000
0000
0100
1000
0001
0010
0100
0010
0001
0100
0010
,
1000
0000
0001
0000
0010
0000
0000
0100
0000
0000
0001
0000
1000
0000
0000
0000
,
0010
0000
0100
0000
0001
0000
0000
1000
0000
0000
0010
0000
0100
0000
0000
0000
,
0001
0000
1000
0000
0010
0000
0000
0100
0000
0000
0001
0000
0010
0000
0000
0000
,
1000
0010
1000
0010
0000
0000
0001
0100
0001
0100
0000
0000
1000
0001
0000
0000
;
