#TITLE:Lover (RD Mix);
#ARTIST:ND Lee;
#GENRE:BARBIE HOUSE;
#MUSIC:Lover (RD Mix).ogg;
#BANNER:Lover (RD Mix).png;
#BACKGROUND:Lover (RD Mix)-bg.png;
#SAMPLESTART:45.134;
#SAMPLELENGTH:15;
#SELECTABLE:YES;
#OFFSET:-0.237;
#BPMS:0=145;

//--------------- dance-single - XLev450X-bSP ----------------
#NOTES:
     dance-single:
     XLev450X:
     Beginner:
     3:
     0,0,0,0,0:
0000
0000
0000
0000
,
0000
0000
0000
0000
,
0000
0000
0000
0000
,
0000
0000
0000
0000
,
0000
0000
0000
0000
,
0000
0000
0000
0000
,
0000
0000
0000
0000
,
0000
0100
0000
0000
0000
0001
0000
0000
,
0000
1000
0000
0000
0000
0010
0000
0000
,
0000
0100
0000
0000
0000
0001
0000
0000
,
0000
1000
0000
0000
0000
0000
0000
0000
,
0000
0001
0000
0000
0000
1000
0000
0000
,
0000
0100
0000
0000
0000
0000
0000
0000
,
0000
0010
0000
0000
0000
0000
0000
0000
,
0000
0100
0000
0000
0000
0010
0000
0000
,
0000
0001
0000
0001
0000
0001
0000
0000
,
0000
1000
0000
1000
0000
1000
0000
0000
,
0000
0100
0000
0000
0000
0010
0000
0000
,
0000
0100
0000
0000
0000
0000
0000
0000
,
0000
1001
0000
0000
0000
0000
0000
0000
,
0000
0110
0000
0000
0000
0000
0000
0000
,
0000
1000
0000
0000
0000
0001
0000
0000
,
0000
1000
0000
0000
0000
0000
0000
0000
,
0000
0011
0000
0000
0000
1100
0000
0000
,
0000
0110
0000
0000
0000
0000
0000
0000
,
0000
1010
0000
0000
0000
0000
0000
0000
,
0000
0101
0000
0000
0000
0000
0000
0000
,
0000
0000
0000
1000
0000
0000
0000
1000
,
0000
0000
0000
1000
0000
0000
0000
0000
,
0000
0010
0000
0010
0000
0010
0000
0000
,
0000
1001
0000
0000
0000
0000
0000
0000
,
0000
1000
0000
0000
0000
0001
0000
0000
,
0000
0100
0000
0000
0000
0010
0000
0000
,
0000
1000
0000
0000
0000
0000
0000
0000
,
0000
0001
0000
0000
0000
0000
0000
0000
,
0000
0010
0000
0010
0000
0010
0000
0000
,
0000
0001
0000
0000
0000
1000
0000
0000
,
0000
0100
0000
0100
0000
0100
0000
0000
,
0000
0101
0000
0000
0000
0000
0000
0000
,
0000
1000
0000
0000
0000
0001
0000
0000
,
0000
0100
0000
0000
0000
0010
0000
0000
,
0000
1000
0000
0000
0000
0000
0000
0000
,
0000
0101
0000
0000
0000
0000
0000
0000
,
0000
1000
0000
0001
0000
1000
0000
0000
,
0000
0010
0000
0100
0000
0010
0000
0000
,
0000
0010
0000
0001
0000
0010
0000
0000
,
0000
1000
0000
0100
0000
1000
0000
0000
,
0000
0101
0000
0000
0000
0000
0000
0000
,
0000
1010
0000
0000
0000
0000
0000
0000
,
0000
0110
0000
0000
0000
0000
0000
0000
,
0000
1001
0000
0000
0000
0000
0000
0000
;

//--------------- dance-single - XLev450X-BSP ----------------
#NOTES:
     dance-single:
     XLev450X:
     Easy:
     7:
     0,0,0,0,0:
0000
0000
0000
0000
,
0000
0000
0000
0000
,
0000
0000
0000
0000
,
0000
1000
0000
0001
0000
0100
0000
0010
,
0000
1000
0000
0000
0000
0101
0000
0000
,
0000
1000
0000
0010
0000
0100
0000
0001
,
0000
1000
0000
0000
0000
0001
0000
1000
,
0000
0001
0000
0000
0000
0100
0000
0010
,
0000
1000
0000
0001
0000
0010
0001
1000
,
0000
0010
0000
0100
0000
0010
0100
0010
,
0000
0000
0001
1000
0100
0001
1000
0000
,
0000
0010
0000
0100
0001
0000
0000
1000
,
0000
0010
0000
0100
0010
0000
0000
1001
,
0000
1000
0000
0001
0100
0000
0000
0110
,
0000
1000
0000
0010
1000
0000
0010
0100
,
0000
0001
0000
1000
0010
0100
0000
0001
,
0000
0010
0001
0010
0000
1000
0100
1000
,
0000
0010
0000
0000
0000
0100
0000
0001
,
0000
1000
0000
0001
0000
0100
0001
0000
,
0000
1000
0000
0100
0000
0010
0000
0000
,
0000
0001
0000
0100
0000
0010
0000
1000
,
0000
0001
0000
0010
0000
0100
0000
0010
,
0000
1000
0000
0000
0000
0000
0101
0000
,
0000
1010
0000
0010
0000
0100
0000
0000
,
0000
0010
0000
1000
0000
0000
0001
0000
,
0000
0100
0000
0010
0000
0000
1000
0010
,
0000
0101
0000
1010
0000
0110
0000
1001
,
0000
0001
0000
0000
0000
1000
0000
0000
,
0000
0001
0000
0000
0000
1000
0010
0100
,
0000
1000
0000
0001
0000
0100
0000
0000
,
0000
0010
0000
0001
0000
1000
0001
0100
,
0000
0010
0000
1000
0000
0010
0000
0000
,
0000
1000
0000
0001
0000
1000
0001
1000
,
0000
0010
0000
1000
0000
0100
0000
0000
,
0000
0001
0000
0100
0000
0010
0000
0000
,
0000
1000
0000
0010
0000
1000
0000
0000
,
0000
0001
0000
0100
0000
0010
0000
0000
,
0000
0001
0000
1000
0000
0010
0000
0100
,
0000
0000
0000
0001
0000
1000
0000
0010
,
0000
0101
0000
0000
0000
1010
0000
0010
,
0000
0110
0000
0000
0000
1100
0000
0011
,
0000
0100
0000
0010
0000
1000
0000
0001
,
0000
0000
0000
1000
0000
0001
0100
0010
,
0000
1000
0000
0001
0000
0000
0000
1000
,
0000
0010
1000
0010
0000
0100
0001
0100
,
0000
0010
0000
0100
0000
0000
0000
0001
,
0000
1000
0000
0001
0000
0100
0010
0001
,
0000
1000
0000
0010
0000
0000
0100
1000
,
0000
0010
0000
0100
0000
0000
0010
0100
,
0000
0010
0000
0001
0000
1000
0001
1000
,
0000
0000
0010
0100
0001
1000
0020
0000
,
0030
0000
0000
0000
;

//--------------- dance-single - XLev450X-DSP ----------------
#NOTES:
     dance-single:
     XLev450X:
     Medium:
     11:
     0,0,0,0,0:
0000
0000
0000
0000
,
0000
0000
0000
0000
,
0000
0000
0000
0000
,
0000
0000
0001
0000
0000
1000
0000
0000
0100
0000
0000
0000
0010
0000
0001
0000
,
0010
0000
1000
0000
0000
0010
0000
0000
0001
0000
0100
0000
1000
0000
0001
0000
,
0000
0000
0100
0000
0000
0010
0000
0000
0100
0000
0000
0000
1000
0000
0001
0000
,
1000
0000
0001
0010
0001
1000
0010
1000
,
0000
0000
0100
0000
0000
0001
0000
0000
1000
0000
0000
0000
0010
0000
0100
0000
,
0010
0000
1001
0000
0000
0101
0000
0000
1100
0000
0010
0000
0001
0000
1000
0000
,
0000
0100
0000
0010
0000
1000
0001
0100
,
0000
0000
0000
0000
0001
0000
1000
0000
0010
0000
0100
0001
1000
0200
0000
0000
,
0300
1000
0000
0001
0100
0000
0000
0010
,
0001
0000
0000
1000
0000
0010
0100
1000
,
0000
0010
0000
0100
0000
0001
0010
0001
,
0010
1000
0000
0010
0000
1000
0001
0100
,
0010
1000
0000
0011
0000
0100
0010
1000
,
0001
0000
0100
0000
0000
0010
0000
0000
1000
0000
0000
0000
0001
0000
1000
0000
,
0000
0010
0001
0010
1000
0010
0000
0100
,
0001
1000
0010
0100
0000
0001
1000
0000
,
0000
0000
0001
0000
0000
0000
1000
0000
0000
0010
0000
0000
0001
0000
1000
0000
,
0000
0000
0010
0000
0000
0000
1000
0000
0000
0000
0001
0000
0100
0000
0000
0010
,
0000
1000
0000
0001
0100
0010
1000
0001
,
0000
0000
0100
0000
0000
0000
1000
0000
0000
0000
0001
0000
1000
0000
0000
0001
,
0000
0000
0100
0000
0000
0000
1000
0000
0000
0001
0000
0000
0100
0000
0010
0000
,
0000
0000
1000
0000
0000
0000
0010
0000
0100
0000
0001
0000
1000
0000
0000
0010
,
0000
0000
0100
0000
1000
0000
0001
0000
0000
0000
0100
0000
0000
1000
0010
0000
,
0100
0000
0001
0000
0000
0000
1000
0000
0000
0000
0010
0000
1000
0100
0001
0010
,
1000
0010
0000
1000
0001
0100
0000
0010
,
0001
0010
1000
0010
0000
0100
0001
1000
,
0010
0100
0000
0001
0000
1000
0001
1000
,
0000
0100
0000
0001
0000
1000
0010
0100
,
0000
0101
0000
1010
0000
0110
0000
1001
,
0000
0010
0001
0010
0000
1000
0100
1000
,
0010
0100
0000
0001
0000
1000
0000
0100
,
0000
0001
1000
0001
0100
0010
0000
1000
,
0000
0010
1000
0001
0000
0100
0010
0100
,
0000
0000
0010
0000
0001
0000
0010
0000
0001
0000
0010
0000
0000
1000
0000
0000
,
0000
0010
1000
0001
0100
0010
1000
0001
,
0100
0000
0101
0000
0010
1000
0010
0100
,
0000
1000
0000
0001
0100
0010
0000
1000
,
0001
0100
0000
0010
1000
0001
0000
1000
,
0010
0100
0000
1000
0000
0001
0100
0010
,
0000
0000
1000
0001
0100
0010
0000
0000
,
0000
0001
0000
1000
0000
0010
1000
0100
,
0000
0010
0000
1000
0000
0001
0100
0001
,
0000
1000
0000
0010
0000
0000
0100
0010
,
0000
0000
0001
1000
0010
0100
0010
1000
,
0000
0001
0000
0100
0000
0000
0010
0001
,
0000
1000
0001
1000
0000
0001
1000
0001
,
0000
0001
0000
1000
0000
0010
0100
0001
,
0000
0000
1000
0001
0100
0010
2000
0000
,
3000
0000
0000
0000
;

//--------------- dance-single - XLev450X-ESP ----------------
#NOTES:
     dance-single:
     XLev450X:
     Hard:
     15:
     0,0,0,0,0:
0000
0000
0000
0000
,
0000
0000
0000
0000
,
0000
0000
0000
0000
,
0000
0000
1000
0000
0000
0001
0000
0000
0100
0000
0000
0000
0010
0000
0001
0010
,
0001
0000
1000
0000
0000
0010
0000
0000
0100
0000
0001
0000
0000
1000
0010
0000
,
0100
0000
0001
0000
0000
1000
0000
0000
0010
0000
0000
0000
0100
0001
0010
1000
,
0100
0000
0010
0000
0001
0100
0001
0100
1000
0001
0100
0010
0100
0001
1000
0010
,
0100
0001
1000
0000
0000
0010
0000
0000
0100
0000
0000
1000
0001
0000
1000
0000
,
0001
0000
0100
0000
0000
0010
1000
0000
0001
0000
0100
1000
0100
0000
0001
0010
,
1000
0000
0010
0000
0000
0100
0000
0000
0001
0000
0000
0100
1000
0000
0010
0000
,
0100
0000
0000
0000
0001
0000
1000
0000
0010
0000
0100
0001
1000
0010
0100
0010
,
0100
0000
0001
0000
1000
0000
0010
0000
0100
0000
1000
0001
1000
0000
0001
0000
,
0010
0000
1000
0000
0000
0010
0000
0000
0100
0000
0000
0000
0010
0000
0001
0010
,
0000
1000
0010
0000
0000
0001
0100
0000
0001
0000
1000
0000
0100
0000
0010
0000
,
0000
0010
0100
0001
1000
0010
0100
0000
,
1001
0000
0000
1000
0000
0010
0100
0001
,
1000
0000
0010
0000
0000
0101
0000
0000
1010
0000
0000
0000
0010
0000
0001
0010
,
0001
1000
0010
0100
0001
1000
0000
0010
,
0001
0000
0100
0000
0001
0000
1000
0000
0010
0000
0100
0000
0001
1000
0001
0000
,
0010
0000
0100
0000
0000
0000
0001
0000
0000
1000
0000
0000
0010
0000
0100
0001
,
0000
1000
0010
0000
0001
0000
0100
0000
0001
0000
1000
0000
0010
0000
0000
0100
,
0000
0000
0001
0010
0100
1000
0100
0000
0001
0000
1000
0000
0100
0000
0010
1000
,
0000
0001
0100
0000
0010
0000
1000
0000
0001
1000
0001
0010
0100
0000
0000
0010
,
0000
0000
1000
0000
0000
0000
0001
0000
0000
0100
0000
0000
0010
0000
1000
0001
,
0000
0100
0010
0000
0001
0100
1000
0001
0100
0000
0001
0000
0010
0000
0000
0100
,
0000
0000
1000
0000
0001
0010
0001
0000
0100
0000
0010
0100
0010
0000
1000
0000
,
0100
0000
0000
0000
0010
0000
0000
0000
0001
0000
0010
0000
0001
0000
0000
0000
1000
0000
0100
0000
1000
0000
0000
0000
0010
0000
0100
0000
0010
0000
1000
0100
,
0001
0010
0200
0000
0001
0000
0010
0000
0001
0000
0010
0000
0000
0000
0010
0000
,
0001
0000
0000
0000
0310
0000
0000
0000
0001
0000
0000
0000
1000
0000
0010
0000
1000
0000
0000
0000
0001
0000
0000
0000
1000
0001
0100
0000
0010
0000
0001
0000
,
1000
0100
0010
0000
0000
1000
0000
0000
0001
0000
0000
0100
0000
0000
0010
0000
,
0001
0000
1000
0000
0010
0001
0010
0100
1000
0001
0010
1000
0100
0010
0001
0010
,
1000
0000
0010
0000
0000
0100
0000
0000
0001
0000
1000
0000
0001
0000
0010
0000
,
0001
0010
0001
0000
1000
0000
0010
0000
0100
0000
1000
0100
0001
0010
0200
0000
,
0300
0000
1000
0000
0000
0001
0000
0000
0100
0001
0000
0010
0000
0000
1000
0000
,
0100
0000
0010
0000
0001
1000
0100
0001
0100
1000
0010
0001
0010
1000
0010
0100
,
0001
1000
0010
0000
0000
0000
0100
0000
0001
0000
1000
0000
0000
0000
0001
0000
,
0100
0000
0010
0000
0001
0000
1000
0010
1000
0000
0100
0000
0000
1001
0000
0000
,
0000
0010
1000
0010
0100
0001
1000
0010
,
0100
0000
0101
0000
0010
1000
0001
0100
,
0000
0000
0010
0000
1000
0001
0100
0000
0010
0000
1000
0000
0010
0100
0010
0000
,
1000
0000
0001
0000
0010
0001
0010
0000
1000
0000
0010
0000
0100
0000
0001
0000
,
1000
0000
0010
0000
0000
0100
0000
0000
0001
0000
0000
1000
0000
0000
0010
0000
,
0200
0000
0000
0000
0300
0000
0000
0000
0001
0000
0000
0000
1000
0000
0000
0000
0010
0000
0000
0000
0100
0000
0001
0000
1000
0000
0010
0000
0100
0001
0010
0000
,
0100
1000
0001
0000
0000
1000
0000
0000
0010
0000
0000
0100
0000
0000
0001
0000
,
0010
0001
0010
0000
0000
1000
0000
0000
0010
0000
0000
0100
0000
0000
1000
0000
,
0001
0000
0100
0000
0000
0010
0000
0000
0101
0000
0000
1010
0000
0000
0010
0000
,
0100
0000
0001
0000
1000
0010
0100
0001
0100
1000
0010
0100
0001
1000
0010
0100
,
0001
0000
1000
0000
0000
0001
0000
0000
0100
0000
0000
0010
0000
0000
1000
0100
,
0001
0000
0100
0000
0000
0010
0000
0000
1000
0000
0100
0001
0000
0000
0010
0000
,
0100
0000
0001
0000
0000
1000
0000
0000
0010
0000
0000
0100
0000
0000
0001
0000
,
1000
0000
0100
0000
0010
0000
0100
0000
0001
0010
0100
0000
0001
0000
0100
0000
1000
0000
0010
0000
0001
0000
0100
0000
0001
0100
2000
0000
0000
0000
0000
0000
,
3000
0000
0000
0000
;
