#TITLE:Love You;
#ARTIST:BEMANI Sound Team "KE!JU";
#MUSIC:Love You.ogg;
#BANNER:Love You.png;
#BACKGROUND:Love You-bg.png;
#CDTITLE:./CDTitles/DANCERUSH STARDOM.png;
#SAMPLESTART:17.5;
#SAMPLELENGTH:15;
#BPMS:0=128;
#BGSTAGE:15;

//--------------- dance-single - XLev450X-bSP ----------------
#NOTES:
     dance-single:
     XLev450X:
     Beginner:
     3:
     0,0,0,0,0:
0000
0000
0000
0000
,
0000
0000
0000
0000
,
0000
0000
0000
0000
,
0000
0000
0000
0000
,
0000
0000
0000
0000
,
0000
0000
0000
0000
,
1000
0000
0001
0000
,
1000
0000
0000
0000
,
0010
0010
1000
1000
,
0020
0000
0000
0030
,
0100
0000
0001
0000
,
1000
0001
0010
0001
,
0100
0000
0010
0000
,
1000
0100
0001
0010
,
1000
0010
0000
0100
,
0001
0010
0100
1000
,
0001
0010
0000
0100
,
0000
0000
0010
0010
,
1002
1000
1000
1003
,
0010
0000
0010
0100
,
1000
0000
1000
0000
,
0001
0100
0001
0001
,
0100
0000
0100
0000
,
0010
0010
1000
1000
,
0100
0000
0001
0000
,
0010
0010
0100
0100
,
2002
0000
0000
0000
0000
3003
0000
0000
,
0220
0000
0000
0000
0000
0330
0000
0000
,
2002
0000
0000
0000
0000
3003
0000
0000
,
0220
0000
0000
0330
0100
0000
0100
0000
,
2000
0000
0000
0000
0000
0000
0000
3000
,
0002
0000
0000
0010
0013
0000
0010
0000
,
2000
0000
3000
2001
,
0000
0000
0001
3001
,
0010
0000
0100
0000
,
0010
0000
0000
0000
,
1000
0000
0100
0000
,
1000
0000
0000
0000
,
0001
0000
0100
0000
,
0001
0000
1000
0000
,
0010
0000
1000
0000
,
0200
0000
0010
0310
,
0001
0000
1000
0000
,
0010
0000
0100
0000
,
0001
0000
1000
0000
,
0010
0000
0000
0000
,
0100
0000
1000
0000
,
0001
0000
0010
0000
,
0100
0000
1000
0000
,
0010
0000
0000
0000
,
0010
0000
0010
0000
,
0010
0000
0000
0000
,
0100
0000
0100
0000
,
0100
0000
0000
0000
,
0001
0000
0001
0000
,
0001
0000
0000
0000
,
1000
0000
1000
0000
,
1000
0000
0000
0000
,
2002
0000
0000
3003
;

//--------------- dance-single - XLev450X-BSP ----------------
#NOTES:
     dance-single:
     XLev450X:
     Easy:
     6:
     0,0,0,0,0:
0000
0000
0000
0000
,
0000
0000
0000
0000
,
0000
0000
0000
0000
,
0000
0000
0000
0000
,
0000
0000
0000
0000
,
0000
0000
0000
0000
,
1000
0001
0100
1000
,
0010
0100
0010
1000
,
0010
0001
0010
0000
1000
0100
1000
0000
,
0220
0330
1001
0110
,
1000
0001
0100
0010
,
1000
0000
0100
0000
0100
1000
0100
0000
,
0001
0000
1000
0010
,
1000
0000
0001
0000
0100
0001
0100
0000
,
0010
0000
1000
0010
,
0100
0000
0001
0000
1000
0001
0010
0000
,
0101
0000
1000
0010
,
1000
0000
0000
0100
0001
0000
0001
0000
,
1000
0001
0010
0100
,
0001
0010
0001
0000
1000
0100
1000
0000
,
0010
0100
0001
0100
,
1000
0000
0010
0000
1000
0001
1000
0000
,
0100
0010
1000
0001
,
0100
0000
0001
0000
0010
1000
0010
0000
,
0100
1000
0001
0010
,
0202
0303
0010
0010
,
2002
0000
3003
0000
,
2000
0000
3200
0000
,
0320
0000
0032
0000
,
0023
0000
0130
1000
,
0002
0000
1000
0000
1000
0000
1000
0003
,
2002
0000
3003
0100
0001
0000
1000
0000
,
0020
0000
0030
0200
0000
0300
0020
0000
,
0000
0000
1000
0031
,
1000
0001
1000
0000
,
1000
0010
0100
0000
,
0001
1000
0010
0100
,
0001
0000
1000
0000
,
1000
0010
1000
0001
,
0100
0010
1000
0010
,
0001
1000
0010
0100
,
0002
0000
1000
1003
,
1000
0001
0100
1000
,
0010
0000
0100
0000
0001
1000
0100
0000
,
0010
0001
1000
0001
,
0100
0000
0010
0000
1000
0100
0010
0000
,
0100
0010
1000
0001
,
0100
0000
0010
0000
1000
0001
1000
0000
,
0010
0100
1000
0001
,
0200
0010
0010
0010
,
1300
0001
0100
1000
,
0001
0000
0000
0010
0000
0000
1000
0000
0001
0000
1000
0000
,
0100
0001
0010
0010
,
1000
0000
0000
0100
0000
0000
0001
0000
1000
0000
0100
0001
,
1000
0100
0001
0010
,
0100
0000
0000
1000
0000
0000
0010
0000
1000
0000
0100
0000
,
0001
0001
0100
1000
,
0010
0000
0000
0100
0000
0001
1000
0100
0010
0001
1000
0100
,
0200
0000
0000
0300
;

//--------------- dance-single - XLev450X-DSP ----------------
#NOTES:
     dance-single:
     XLev450X:
     Medium:
     10:
     0,0,0,0,0:
0000
0000
0000
0000
,
0000
0000
0000
0000
,
0000
0000
0000
0000
,
0000
0000
0000
0000
,
0000
0000
0000
0000
,
0000
0000
0000
0000
,
1000
0001
0100
0000
0010
1000
0010
0000
,
0100
0010
0001
0000
0100
0001
1000
0000
,
0001
0000
1000
0000
0010
0000
0100
0000
0001
0000
1000
0001
0010
0000
0100
0000
,
0002
0000
0003
0001
1000
0000
0010
0000
,
0100
0000
0010
0001
1000
0001
0100
0010
,
0000
0100
0000
0001
0000
1000
0010
0000
,
0100
0010
1000
0100
,
0010
0000
0100
1000
0001
0000
0110
0000
,
1000
0000
0001
0000
0100
0010
0100
0010
,
0000
1000
0000
0001
0000
0100
0010
0000
,
1000
0001
0010
0100
,
1000
0100
0001
0000
0010
0001
1000
0010
,
0100
0000
0000
0000
1000
0000
0000
0000
0001
0000
0001
0100
1000
0000
0001
0000
,
0010
0000
0100
0000
0010
1000
0010
0000
,
0100
0000
0001
0100
,
0001
0000
1000
0000
0010
0100
1000
0000
,
0101
0000
1000
0010
,
0100
0000
1000
0000
0010
0100
0001
0000
,
1000
0100
0010
0100
,
1000
0000
0001
0000
0100
0001
1000
0010
,
0200
0000
0000
0300
,
0020
0000
1000
0030
2000
0000
0010
3000
,
0002
0000
0100
0003
0200
0000
0001
0300
,
0020
0000
1000
0030
1000
0000
1000
0000
,
0201
0000
0001
0000
0001
0000
0001
0300
,
0100
0000
0000
0010
0000
0001
1000
0000
,
0001
0000
0000
0100
0000
0000
0020
0000
,
0000
0000
0000
0000
1000
0000
0001
0030
,
0100
0000
1000
0000
0010
0001
0010
0000
,
1000
0000
0100
0000
1000
0100
1000
0000
,
0010
0100
0010
0100
,
0001
1000
0001
0000
0100
0010
0100
0000
,
0010
1000
0001
0000
,
0100
0001
1000
0000
,
1000
0000
0001
0000
0100
0010
1000
0001
,
0100
0000
0010
1000
,
0101
0000
0010
0000
1000
0010
1000
0010
,
0000
0100
0000
0001
0000
1000
0100
0000
,
0110
0000
0010
0000
1000
0001
0100
0010
,
0000
1000
0000
0001
0000
1000
0010
0000
,
0100
0000
1000
0010
0100
0000
0010
0000
,
0001
0010
0001
0000
1000
0100
1000
0000
,
0010
0100
0001
1000
,
0002
0000
0003
0000
0100
0001
0010
0100
,
1001
0000
0000
1001
0000
0100
1000
0000
0000
0010
0000
1000
,
0001
0000
0000
1000
0100
0001
0010
0001
0100
1000
0001
0100
,
0010
0000
0000
0010
0000
0001
1000
0000
0000
0010
0000
0100
,
1000
0000
0000
0001
1000
0100
0010
0100
1000
0001
1000
0100
,
0001
0000
0000
0010
0000
0010
0001
0000
0000
0100
0000
0010
,
0100
0000
0000
1000
0001
0010
1000
0001
0100
0001
0100
1000
,
0010
0000
0000
0100
0000
0010
0100
0000
0000
0001
0000
0001
,
0010
0000
0000
1000
0001
0010
1000
0100
0001
0100
0001
0010
,
0200
0000
0000
0300
;

//--------------- dance-single - XLev450X-ESP ----------------
#NOTES:
     dance-single:
     XLev450X:
     Hard:
     14:
     0,0,0,0,0:
0000
0000
0000
0000
,
0000
0000
0000
0000
,
0000
0000
0000
0000
,
0000
0000
0000
0000
,
0000
0000
0000
0000
,
0000
0000
0000
0000
,
1000
0000
0001
0000
0100
0000
0010
0000
0001
0000
0010
0001
0000
1000
0010
0000
,
0100
0000
0001
0000
1000
0000
0010
0000
0100
0000
0001
0010
0000
1000
0010
0000
,
0100
0000
0001
0000
1000
0000
0100
0000
0010
0000
0100
0000
0001
0000
0010
0000
1000
0000
0010
0000
0100
0000
0001
1000
0010
0000
0001
0000
0010
0000
1000
0000
,
0020
0000
0000
0030
0000
0000
0010
0100
0010
0000
1000
0000
0011
0000
0000
0000
,
1100
0000
0000
0000
0001
0000
1000
0000
0010
0000
0001
0010
0001
0000
1000
0000
,
0010
0000
0100
0000
0000
1000
0000
0001
0000
0000
0100
0000
0010
0000
1000
0000
,
0002
0000
0003
1000
0010
0000
0001
0000
1000
0000
0100
0000
0001
0000
0100
0000
,
0010
0001
0010
0000
1000
0010
1000
0000
0100
0000
0010
0000
1000
0000
0000
0000
,
0011
0000
1100
0000
0010
0100
0001
1000
,
0001
0100
0001
0000
1000
0010
1000
0000
0010
0000
0100
0000
0010
0000
1000
0000
,
0001
0000
0000
0000
0100
0000
0000
0000
0010
0000
0001
0010
0001
0000
1000
0000
,
0010
0000
0000
0000
0100
0000
0000
0000
1000
0000
0100
0010
0001
0000
1000
0000
,
0010
0000
0000
0000
0001
0000
0000
0000
0100
0000
0010
0100
0010
0000
0000
0000
,
1001
0000
0000
0000
0010
0000
0000
0000
0001
0000
0010
0000
0001
0010
0001
0000
,
1000
0000
0010
0000
1000
0000
0000
0000
0100
0000
1000
0000
0010
1000
0010
0000
,
1000
0010
0010
0100
0001
1000
0001
0000
,
0001
0000
0010
0000
1000
0000
0000
0000
0010
0000
0001
0000
1000
0010
0100
0000
,
1000
0000
0001
0000
1000
0000
0010
0000
0100
0000
0001
0000
1000
0010
0000
0100
,
0000
0001
1000
0000
0011
0000
1100
0000
,
0010
0001
0010
0000
1000
0000
0010
0000
0100
0000
0000
0000
0001
0000
0000
0000
,
2002
0000
0000
3003
,
2000
0001
0001
3001
,
0001
1000
0010
0001
,
0100
0000
0000
0000
0010
0000
1000
0100
0001
0000
0100
0000
0001
0000
0100
0000
,
2000
0000
0000
0000
0100
0000
0000
0000
0010
0000
0000
0000
0100
3000
0000
0000
,
0002
0000
0000
0000
0013
0000
2000
0000
0100
0000
0000
0000
0010
0000
0000
3000
,
0002
0000
1003
0020
0000
0030
2002
0000
,
0000
0000
0000
3003
,
0001
0000
1000
0010
0001
0000
0100
0001
,
1000
0000
0010
0100
0001
1000
0010
0000
,
1000
0100
1000
0000
0010
0001
0010
0000
,
0100
0001
1000
0010
0100
0001
0010
0000
,
0001
0000
1000
0000
0010
0000
0100
0000
1000
0000
0100
1000
0000
0001
0100
0000
,
0010
0000
1000
0000
0001
0000
0100
0000
0010
0000
1000
0100
0000
0001
0100
0000
,
0010
0000
1000
0000
0001
0000
0010
0000
0100
0000
0010
0000
1000
0000
0100
0000
0001
0000
0100
0000
0010
0000
1000
0001
0100
0000
1000
0000
0100
0000
0001
0000
,
0200
0000
0000
0300
0000
0000
0100
0010
0100
0000
0001
0000
1100
0000
0000
0000
,
0011
0000
0000
0000
1000
0000
0001
0000
0100
0000
1000
0100
1000
0000
0001
0000
,
0100
0000
0010
0000
0000
0001
0000
1000
0000
0000
0010
0000
0100
0000
0001
0000
,
2000
0000
3000
0001
0100
0000
1000
0000
0001
0000
0010
0000
1000
0000
0010
0000
,
0100
1000
0100
0000
0001
0100
0001
0000
0010
0000
0100
0000
0001
0000
0000
0000
,
1100
0000
0011
0000
0100
0010
1000
0001
,
1000
0010
1000
0000
0001
0100
0001
0000
0100
0000
0010
0000
0100
0000
0001
0000
,
1000
0000
0000
0000
0010
0000
0000
0000
0100
0000
1000
0100
1000
0000
0001
0000
,
0100
0000
0000
0000
0000
0000
0000
0000
0000
0000
0000
0000
0010
0000
0000
0000
0000
0000
0100
0000
0000
1000
0000
0000
0001
0000
0000
0000
0000
0000
0100
0000
0000
0000
0000
0000
2000
0000
0000
0000
0000
0000
0000
0000
3000
0000
0000
0000
,
0110
0000
0000
0010
0100
0010
0200
0300
0000
0001
0010
0001
,
2000
0000
0000
0000
0000
0000
0000
0000
0000
0000
0000
0000
0000
0000
0000
0000
3000
0000
0000
0000
0000
0000
0000
0000
0100
0000
0000
0000
0000
0000
0000
0000
1000
0000
0000
0000
0000
0000
0000
0000
0001
0000
0000
0000
0000
0000
0000
0000
0010
0000
0000
0000
0000
0000
0000
0000
0100
0000
0000
0000
0000
0000
0000
0000
1000
0000
0000
0000
0000
0100
0000
0000
0001
0000
0000
0000
0000
0000
0000
0000
0100
0000
0000
0000
0000
0000
0000
0000
0001
0000
0000
0000
0000
0000
0000
0000
,
0020
0000
0030
0100
1000
0001
0200
0300
0000
0001
1000
0100
,
2000
0000
0000
0000
0000
0000
0000
0000
3000
0000
0000
0000
0000
0000
0000
0000
0000
0000
0000
0000
0000
0000
0000
0000
0010
0000
0000
0000
0000
0000
0000
0000
1000
0000
0000
0000
0000
0000
0000
0000
0001
0000
0000
0000
0000
0000
0000
0000
0010
0000
0000
0000
0000
0000
0000
0000
0100
0000
0000
0000
0000
0000
0000
0000
0010
0000
0000
0000
0000
0100
0000
0000
0001
0000
0000
0000
0000
0000
0000
0000
1000
0000
0000
0000
0000
0000
0000
0000
0100
0000
0000
0000
0000
0000
0000
0000
,
2000
0000
3000
0010
0100
0001
2000
3000
0000
0010
0100
0010
,
2000
0000
0000
0000
0000
0000
0000
0000
0000
0000
0000
0000
0000
0000
0000
0000
3000
0000
0000
0000
0000
0000
0000
0000
0001
0000
0000
0000
0000
0000
0000
0000
0010
0000
0000
0000
0000
0000
0000
0000
0001
0000
0000
0000
0000
0000
0000
0000
0100
0000
0000
0000
0000
0000
0000
0000
0010
0000
0000
0000
0000
0000
0000
0000
0100
0000
0000
0000
0000
0001
0000
0000
0010
0000
0000
0000
0000
0000
0000
0000
1000
0000
0000
0000
0000
0000
0000
0000
0001
0000
0000
0000
0000
0000
0000
0000
,
0020
0000
0030
0001
0010
0100
0020
0000
0030
0100
1000
0001
,
0020
0000
0000
0000
0000
0000
0000
0000
0000
0000
0000
0000
0000
0000
0000
0000
0030
0000
0000
0000
0000
0000
0000
0000
0001
0000
0000
0000
0000
0000
0000
0000
1000
0000
0000
0000
0001
0000
0000
0000
0100
0000
0000
0000
0000
0000
0000
0000
0010
0000
0000
1000
0000
0000
0000
0000
0100
0000
0000
0000
0000
0000
0000
0000
0010
0000
0000
0000
0000
0000
0000
0000
0001
0000
0000
0100
0000
0000
0000
0000
1000
0000
0000
0000
0000
0000
0000
0000
0100
0000
0000
0000
0000
0000
0000
0000
,
0020
0000
0000
0030
;
