#TITLE:Love It That Way;
#SUBTITLE:;
#ARTIST:Tom Orlando feat. Eryn Young;
#TITLETRANSLIT:;
#SUBTITLETRANSLIT:;
#ARTISTTRANSLIT:;
#GENRE:;
#CREDIT:;
#MUSIC:Love It That Way.ogg;
#BANNER:Love It That Way.png;
#BACKGROUND:Love It That Way-bg.png;
#CDTITLE:;
#SAMPLESTART:53.418;
#SAMPLELENGTH:15.000;
#SELECTABLE:YES;
#OFFSET:-0.043;
#BPMS:0.000=107.918;
#STOPS:;
#BGSTAGE:4;
#BGCHANGES:0.000=Love It That Way.mp4=1.000=0=0=1,
99999.000=-nosongbg-=1.000=0=0=0=StretchNoLoop====
;
#FGCHANGES:;

//--------------- dance-single - XLev450X-bSP ----------------
#NOTES:
     dance-single:
     XLev450X:
     Beginner:
     2:
     0.098715,0.185644,0.030941,0,0,67,64,3,0,0,0,0.098715,0.185644,0.030941,0,0,67,64,3,0,0,0:
0000
0000
0000
0000
,
0000
0000
0000
0000
,
0000
0000
0000
0000
,
0000
0000
0000
0000
,
0000
0000
0000
0000
,
0000
0000
0000
0000
,
0000
0000
0000
0000
,
0000
0000
0000
0000
,
1000
0000
0000
0000
,
0010
0000
0000
0000
,
0100
0000
0000
0000
,
0001
0000
0000
0000
,
0001
0000
0001
0000
,
0001
0000
0000
0000
,
1000
0000
1000
0000
,
1000
0000
0000
0000
,
0010
0000
0010
0000
,
0010
0000
0010
0000
,
0100
0000
0100
0000
,
0100
0000
0100
0000
,
0010
0000
0000
0000
,
0001
0000
0010
0000
,
1000
0000
0000
0000
,
0110
0000
0000
0000
,
1001
0000
0100
0000
,
0010
0000
0100
0000
,
0001
0000
0010
0000
,
1000
0000
0100
0000
,
0010
0010
0010
0000
,
0100
0000
0001
0000
,
0100
0100
0100
0000
,
1000
0000
0001
0000
,
0010
0000
0100
0000
,
0001
1000
0010
0000
,
0100
0000
1000
0000
,
0010
0100
0001
0000
,
0001
0100
0001
0000
,
0010
0000
0100
0000
,
0100
0001
0100
1000
,
0100
0001
0100
0000
,
1001
0000
0000
0000
;

//--------------- dance-single - XLev450X-BSP ----------------
#NOTES:
     dance-single:
     XLev450X:
     Easy:
     5:
     0.210691,0.371287,0.226898,0.206271,0,143,121,22,20,0,0,0.210691,0.371287,0.226898,0.206271,0,143,121,22,20,0,0:
0000
0000
0000
0000
,
0000
0000
0000
0000
,
0000
0000
0000
0000
,
0000
0000
0000
0000
,
0000
0000
0000
0000
,
0000
0000
0000
0000
,
0000
0000
0000
0000
,
0000
0000
0000
0000
,
0000
1000
0010
0100
,
0000
1000
0010
0100
,
0000
1000
0010
0100
,
0001
0000
1000
0000
0100
0001
1000
0000
,
0000
0010
0100
0001
,
1000
0000
0100
0000
0001
1000
0010
0000
,
0110
0000
0100
0001
0000
0000
1000
0000
,
0010
0000
0100
0000
0010
0100
1001
0000
,
0000
0100
0010
0001
,
1000
0000
0001
0000
0010
1000
0001
0000
,
1000
0100
0001
0100
,
1000
0001
0100
0010
,
0000
1000
0010
0000
,
0100
1000
0001
0100
,
0000
0000
0001
0000
0010
0000
0100
0010
,
0200
0000
0000
0300
,
1000
0000
0010
0100
,
1001
0110
1001
0000
,
0100
0000
0002
0003
1000
0010
0100
0000
,
0001
0010
0000
1000
,
1001
0110
0011
0000
,
1000
0010
0100
1000
,
0001
0010
1000
0010
,
0100
0000
1000
0010
0001
0000
1000
0000
,
0010
0000
0100
0000
0001
0100
1000
0000
,
1000
0000
0100
0000
0010
1000
0100
0000
,
0011
1100
0110
2002
,
0000
0000
3003
1001
,
0010
0000
0100
0000
0001
0100
0000
0000
,
1000
0000
0010
0000
0100
0010
1000
0000
,
0022
0033
2200
3300
2002
3003
0220
0330
,
2200
3300
0022
0033
0220
0330
2002
3003
,
0110
0000
0000
0000
;

//--------------- dance-single - XLev450X-DSP ----------------
#NOTES:
     dance-single:
     XLev450X:
     Medium:
     8:
     0.279939,0.49505,0.185644,0.041254,0.087665,190,172,18,4,0,0,0.279939,0.49505,0.185644,0.041254,0.087665,190,172,18,4,0,0:
0000
0000
0000
0000
,
0000
0000
0000
0000
,
0000
0000
0000
0000
,
0000
0000
0000
0000
,
0000
0000
0000
0000
,
0000
0000
0000
0000
,
0000
0000
0000
0000
,
0000
0000
0000
0000
,
1001
0000
1000
0100
0010
0000
0100
0001
,
0100
0010
1000
0000
0010
0001
0100
1000
,
0001
0100
1000
0000
0010
0000
0100
0000
,
0001
0000
1000
0000
0100
0001
1000
0010
,
1001
0010
0100
0001
,
1000
0000
0100
0000
0001
1000
0010
0000
,
0110
0000
0100
0001
0100
0010
1000
0100
,
0010
0000
0100
0000
0010
0100
1001
0000
,
0000
0100
0010
0001
,
1000
0000
0001
0000
0010
1000
0001
0100
,
1000
0100
0001
0100
,
1000
0000
0000
0000
0001
0000
0000
0000
0100
0000
1000
0000
0010
0000
0000
0100
,
0000
0010
1000
0000
0010
0100
0000
0000
,
0100
0010
1000
0100
0001
0010
0100
1000
,
0000
0000
0001
0000
0010
0000
0100
0010
,
0201
1000
0001
0310
,
1000
0100
0001
0000
0010
0000
0100
0010
,
1001
0000
0000
0000
0110
0000
0000
0000
1001
0000
0000
0100
0000
0000
0010
0000
,
0100
0000
0002
0003
1000
0010
0100
0000
,
0001
0000
0000
0000
0010
0000
0000
0100
0000
0000
0010
0000
1000
0000
0000
0000
,
1001
0000
0110
0000
0011
0110
0000
0000
,
1000
0000
0000
0000
0010
0000
0000
0000
0100
0000
0000
0100
0000
0000
1000
0000
,
0001
0010
1000
0010
,
0100
0000
1000
0010
0001
0000
1000
0000
,
0010
0000
0100
0000
0001
0100
1000
0000
,
1000
0000
0100
0000
0010
1000
0100
0000
,
0011
1100
0110
2002
,
0000
0000
3003
1001
,
0010
0000
0000
0000
0100
0000
0000
0000
0001
0000
0100
0000
0000
0100
0000
0000
,
1000
0000
0010
0000
0100
0010
1000
0100
,
0010
0000
0100
0001
1000
0001
0000
0100
0010
0000
0100
1000
0010
0001
0000
0001
,
0100
1000
0000
0001
0010
0000
1000
0001
0000
0010
0000
1000
0000
0100
0010
0000
,
1001
0000
0000
0000
;

//--------------- dance-single - XLev450X-ESP ----------------
#NOTES:
     dance-single:
     XLev450X:
     Hard:
     9:
     0.313826,0.371287,0.082508,0.072195,0.025784,213,205,8,7,0,0,0.313826,0.371287,0.082508,0.072195,0.025784,213,205,8,7,0,0:
0000
0000
0000
0000
,
0000
0000
0000
0000
,
0000
0000
0000
0000
,
0000
0000
0000
0000
,
0000
0000
0000
0000
,
0000
0000
0000
0000
,
0000
0000
0000
0000
,
0000
0000
0000
0000
,
0000
0000
0100
0010
0100
1000
0001
1000
,
0000
0000
0001
0010
0001
1000
0100
1000
,
0000
0000
0010
0100
0001
0010
0100
1000
,
0100
1000
0010
0100
0010
0100
0001
1000
,
0000
0000
0100
0010
0001
1000
0010
0000
,
0010
0100
0001
1000
0001
1000
0010
0100
,
0000
0000
0001
1000
0010
0100
0010
0100
,
0001
1000
0100
0010
0100
1000
0010
0100
,
0000
0000
0001
0010
0100
1000
0010
1000
,
0100
0010
0100
1000
0010
1000
0100
0010
,
0100
0010
0001
0100
0001
0100
0010
0000
,
0010
0100
0001
0010
0100
0010
0100
0000
,
0000
0000
0010
1000
0001
0100
0000
1000
,
0100
1000
0001
0100
0010
0100
0010
1000
,
0000
0000
0010
0100
0001
1000
0001
0000
,
0010
0100
0010
1000
0100
1000
0100
0010
,
0000
0000
0000
0000
0000
0000
0000
0000
0000
0000
0000
0000
0000
0000
0000
0000
0000
0000
0000
0000
0000
0000
0000
0000
0100
0000
0000
0000
0000
0000
0000
0000
0000
0000
0000
0000
0000
0000
0000
0000
0000
0000
0000
0000
0000
0000
0000
0000
0010
0000
0000
0000
0000
0000
0000
0000
0000
0000
0000
0000
0000
0000
0000
0000
0000
0000
0000
0000
0000
0000
0000
0000
0200
0000
0000
0000
0000
0000
0000
0000
0000
0000
0000
0000
0000
0000
0000
0000
0000
0000
0000
0300
0000
0000
0000
0000
0000
0000
0000
0000
0000
0000
0000
0000
0000
0000
0000
0000
0000
0000
0000
0000
0000
0000
0000
0000
0000
0000
0000
0000
0010
0000
0000
0000
0000
0000
0000
0000
0000
0000
0000
0000
0000
0000
0000
0000
0000
0000
0000
0000
0000
0000
0000
0000
1000
0000
0000
0000
0000
0000
0000
0000
0000
0000
0000
0000
0000
0000
0000
0000
0000
0000
0000
0000
0000
0000
0000
0000
0010
0000
0000
0000
0000
0000
0000
0000
0000
0000
0000
0000
0000
0000
0000
0000
0000
0000
0000
0000
0000
0000
0000
0000
,
0101
0000
1010
0000
0011
0000
0000
0010
,
0100
0000
0000
0000
0001
0000
0000
0000
1000
0000
0000
0000
0020
0000
0000
0030
0000
0000
0000
0000
0010
0000
0000
0000
0100
0000
0000
0000
0001
0000
0000
0000
,
1000
0000
0001
0000
2000
0000
0000
3000
0000
0000
0010
0000
1000
0000
0100
0000
,
1000
0001
0100
0001
0100
0010
0000
0010
,
1000
0001
0100
0010
0100
0000
0000
0001
,
0010
0100
1000
0010
1000
0010
0100
0001
,
1000
0001
1000
0100
0110
0000
1000
0001
,
0010
0100
0010
0001
1100
0000
1000
0010
,
0100
0001
1000
0010
1100
0000
0000
0000
,
0200
0000
0300
0001
0000
0000
1000
0000
0000
0010
0000
0000
1000
0000
0000
0010
0000
0000
0100
0000
0000
0002
0000
0000
,
0000
0000
0000
0000
0000
0000
0000
0000
0000
0000
0000
0000
0000
0000
0000
0000
0000
0000
0000
0000
0000
0000
0000
0000
0000
0000
0000
0000
0000
0000
0000
0000
0000
0000
0000
0000
0000
0000
0000
0000
0000
0000
0000
0000
0000
0000
0000
0000
0000
0000
0000
0000
0000
0000
0000
0000
0000
0000
0000
0003
0000
0000
0000
0000
0000
0000
0000
0000
0000
0000
0000
0000
0100
0000
0000
0000
0000
0000
0000
0000
0000
0000
0000
0000
0000
0000
0000
0000
0000
0000
0000
0000
0000
0000
0000
0000
,
0010
0100
1000
0010
1000
0010
0000
0001
,
0100
0010
1000
0010
1001
0000
0000
0001
,
0010
0100
0010
0100
1000
0010
1000
0010
,
0100
0001
0100
0001
2002
0000
0000
0000
,
3003
0000
0000
0000
;

//--------------- dance-single - XLev450X-CSP ----------------
#NOTES:
     dance-single:
     XLev450X:
     Challenge:
     11:
     0.458215,0.556931,0.237211,0.030941,0.360974,311,288,23,3,0,0,0.458215,0.556931,0.237211,0.030941,0.360974,311,288,23,3,0,0:
0000
0000
0000
0000
,
0000
0000
0000
0000
,
0000
0000
0000
0000
,
0000
0000
0000
0000
,
0000
0000
0000
0000
,
0000
0000
0000
0000
,
0000
0000
0000
0000
,
0000
0000
0000
0000
,
0010
0000
1000
0000
0100
0000
0010
0100
1000
0000
0010
0000
1000
0000
1001
0000
,
0010
0000
0001
0000
0100
0000
0010
0100
0001
0000
0010
0000
0001
0000
1001
0000
,
0010
0000
1000
0000
0100
0000
1000
0001
0100
0000
0010
0000
1000
0000
0100
0000
,
0220
0000
0000
0000
0330
0100
1001
0000
,
0010
0000
1000
0000
0001
0010
0100
0010
0000
1000
0010
0000
0001
0000
0100
0000
,
0010
0000
1000
0000
0010
0100
0010
0001
0000
0010
0100
0000
0010
0000
1000
0000
,
0001
0000
0000
0000
0000
0000
1000
0000
0000
0000
0000
0000
0100
0000
0000
0010
0000
0000
0001
0000
0000
0010
0000
0000
0000
0000
0000
0000
0000
0000
0100
0000
1000
0000
0100
0000
1000
0000
0000
0000
0000
0000
0001
0000
0000
0000
0000
0000
,
1000
0000
0000
1001
0000
0000
0010
0100
0001
0000
0010
0000
0001
0000
1000
0000
,
1000
0000
0010
0000
0100
0010
0000
0100
0010
0000
1000
0000
0100
0000
0010
0000
,
0001
0010
0100
1000
0010
0100
0001
1000
,
0001
0000
0010
0000
0100
0010
0000
0100
0010
0000
0001
0000
0100
0000
0000
0000
,
0010
0010
1000
1000
0001
0001
0100
0100
,
1000
0000
0000
0100
0010
0000
0100
0000
1000
0000
0000
0010
1000
0000
0100
0000
,
0010
0000
0000
0001
0010
0000
0001
0000
0010
0000
0000
0100
1000
0000
0010
0000
,
1000
0000
0000
0001
0010
0000
0100
0000
1000
0000
0000
0001
1000
0000
0010
0000
,
0010
0100
0010
1000
0100
1000
0100
0010
,
0110
0000
0001
0100
0000
0010
1000
0010
1000
0000
0001
0000
1000
0000
0000
0000
,
0110
0000
1000
0100
0000
0010
0001
0010
0001
0000
1000
0000
0001
0000
0000
0000
,
1100
0000
0001
0100
0000
0010
0100
0010
0100
0000
0001
0000
1000
0000
0000
0000
,
1010
0000
0001
0010
0000
0100
1000
0100
1000
0000
0001
0000
1000
0000
0100
0000
,
0010
0000
0001
0000
1000
0000
0010
0000
0100
0001
0100
0000
0010
0100
0010
0000
,
1000
0000
0001
0000
0100
0000
0000
0000
1000
0100
0010
0001
0010
0100
1000
0001
,
0100
0100
0010
0100
0000
1010
0001
0010
,
0000
0000
1100
0000
0001
0000
1000
0000
0001
0100
0010
1000
0001
1000
0010
0100
,
0101
0000
0000
0000
0110
0000
0000
1100
0000
0000
0001
0000
0100
0010
0100
0010
,
1000
0000
0100
0000
0010
0100
1000
0100
0010
0000
1010
0000
0110
0000
0101
0000
,
1100
0000
0000
0000
0110
0000
0000
1100
0000
0000
1000
0000
0100
0010
0100
0010
,
0001
0000
0100
0000
0010
0100
0001
0100
0010
0000
0011
0000
0110
0000
1100
0000
,
0001
0100
0001
0000
1000
0100
1000
0000
0001
0010
0001
0000
1000
0010
1000
0000
,
0010
0100
0010
0000
1000
0001
1000
0000
0100
0010
0100
0000
0010
0000
0001
0000
,
1000
0001
0100
0001
1000
0000
0000
0000
0001
1000
0100
1000
0001
0000
0000
0000
,
1000
0000
0001
0000
0100
0000
0001
0000
1000
0010
0100
0001
0200
0000
0000
0000
,
0300
0000
0000
0000
;
