#TITLE:Lisa-RICCIA;
#ARTIST:DJ YOSHITAKA;
#GENRE:HARD RENAISSANCE;
#MUSIC:Lisa-RICCIA.ogg;
#BANNER:Lisa-RICCIA.png;
#BACKGROUND:Lisa-RICCIA-bg.png;
#CDTITLE:./CDTitles/jubeat saucer.png;
#SAMPLESTART:29.778;
#SAMPLELENGTH:15;
#OFFSET:0.661;
#BPMS:0=205;
#BGSTAGE:30;

//--------------- dance-single - XLev450X-bSP ----------------
#NOTES:
     dance-single:
     XLev450X:
     Beginner:
     6:
     0,0,0,0,0:
0000
0000
0000
0000
,
0000
0000
0000
0000
,
0001
0000
1000
0000
,
0001
0000
1000
0000
,
0010
0000
1000
0000
,
0010
0000
0100
0000
,
0001
0000
1000
0000
,
0001
0000
1000
0000
,
0000
0000
0000
0000
,
0000
0000
0000
0000
,
2002
0000
0000
0000
,
0000
0000
0000
3003
,
0000
0000
0000
0000
,
0000
0000
0000
0000
,
1000
0000
0001
0000
,
1000
0000
0000
0000
,
0010
0000
1000
0000
,
0010
0000
0000
0000
,
0001
0001
1000
0000
,
0100
0100
0010
0000
,
0001
0010
0001
0000
,
1000
0100
1000
0000
,
0010
0000
1000
0000
,
0001
0000
0000
0000
,
2002
0000
0000
0000
,
0000
0000
0000
3003
,
0001
0001
0001
0000
,
1000
1000
1000
0000
,
0010
0010
0010
0000
,
0100
0100
0100
0000
,
0001
1000
0001
0000
,
0010
1000
0010
0000
,
0100
0000
0001
0000
,
0100
0000
0000
0000
,
0010
0010
1000
0000
,
0010
0100
0010
0000
,
0001
0001
0010
0000
,
0100
0000
1000
0000
,
0010
0010
1000
0000
,
0100
0100
0010
0000
,
0001
0000
1000
0000
,
0001
0000
0000
0000
,
0010
0000
0000
0000
,
0010
0000
0000
0000
,
0010
0000
0000
0000
,
0000
0000
0000
0000
,
1000
0000
0000
0000
,
1000
0000
0000
0000
,
1000
0000
0000
0000
,
0000
0000
0000
0000
,
0001
0000
0000
0000
,
0000
0000
0000
0000
,
1000
0000
0000
0000
,
0000
0000
0000
0000
,
0010
0000
0010
0000
,
0100
0000
0000
0000
,
0001
0000
0001
0000
,
0001
0000
0000
0000
,
1000
0000
0010
0000
,
1000
0000
0100
0000
,
0010
0000
0001
0000
,
0100
0000
0000
0000
,
0001
0000
1000
0000
,
0010
0000
1000
0000
,
0001
0000
0000
0000
,
1000
0000
0000
0000
,
1001
0000
0000
0000
,
0000
0000
0000
0000
,
0000
0000
0000
0000
,
0000
0000
0000
0000
,
0000
0000
0000
0000
,
0000
0000
0000
0000
,
0000
0000
0000
0000
,
0000
0000
0000
0000
,
0001
0000
0000
0000
,
1000
0000
0000
0000
,
0001
0000
0000
0000
,
0010
0000
0000
0000
,
1000
0000
0100
0000
,
0001
0000
1000
0000
,
2002
0000
0000
0000
,
0000
0000
0000
3003
,
0220
0000
0000
0000
,
0000
0000
0000
0330
,
0001
0000
1000
0000
,
0010
1000
0010
0000
,
0001
0000
0100
0000
,
0001
1000
0001
0000
,
0010
0000
1000
0000
,
0100
0010
0001
0000
,
1000
0000
0001
0000
,
0001
0001
1000
0000
,
0010
0010
1000
0000
,
0100
0100
0010
0000
,
0001
0000
0010
0000
,
0001
0000
0000
0000
,
1000
0000
0100
0000
,
1000
0000
0000
0000
,
0010
0000
1000
0000
,
0010
0000
0000
0000
,
0001
0000
0001
0000
,
1000
0000
0000
0000
,
0100
0000
0100
0000
,
0010
0000
0000
0000
,
0001
0000
1000
0000
,
0100
0000
0000
0000
,
0010
0000
0001
0000
,
0010
0000
0000
0000
,
2002
0000
0000
0000
,
0000
0000
0000
0000
,
0000
0000
0000
0000
,
0000
0000
0000
0000
0000
0000
0000
0000
0000
0000
0000
0000
0000
0000
0000
0000
0000
0000
0000
0000
0000
0000
0000
0000
0000
0000
0000
0000
0000
0000
0000
3003
;

//--------------- dance-single - XLev450X-BSP ----------------
#NOTES:
     dance-single:
     XLev450X:
     Easy:
     10:
     0,0,0,0,0:
0000
0000
0000
0000
,
0000
0000
0000
0000
,
0001
0000
1000
0010
0000
0100
0000
0001
,
0000
0000
1000
0000
0000
0000
0010
0000
1000
0000
0000
0001
0000
0000
1000
0000
,
0001
0000
1000
0001
0000
0100
0000
1000
,
0000
0000
0001
0000
0000
0000
1000
0000
0001
0000
0000
1000
0000
0000
0001
0000
,
0010
0000
1000
0100
0000
0010
0000
0001
,
0000
0010
0000
0100
0010
0100
0000
2002
,
0000
0000
0000
0000
,
0000
0000
0000
3003
,
0001
0000
0000
0000
,
0000
1000
0000
0000
0010
0000
0100
0000
,
0010
0001
0000
0000
,
0000
0000
1000
0000
0000
0000
0000
0000
0001
0000
0000
0100
0000
0000
0010
0000
,
1000
0001
1000
0010
,
0000
0010
0001
0010
,
0100
0000
0000
1000
0000
0000
0001
0000
,
0000
0100
0000
0000
0010
0000
1000
0000
,
0010
0001
1000
0100
,
0001
0000
0010
0000
0100
0010
0100
0000
,
0001
1000
0100
0010
,
0001
0000
0010
0000
0010
1000
0010
0000
,
0001
0100
1000
0001
,
0100
0000
0010
0000
0100
0010
0100
0000
,
0001
0000
0000
1000
0000
0000
0010
1000
,
0000
0010
0000
0000
0100
0000
0001
0000
,
1000
0000
0001
1000
0000
0010
0000
0100
,
0000
0000
0001
0000
0000
0000
1000
0000
0010
0000
0000
0001
0000
0000
1000
0000
,
0001
0000
1000
0100
0000
0001
0000
0010
,
0000
0000
1000
0000
0000
0000
0010
0000
0100
0000
0000
0010
0000
0000
0100
0000
,
0001
0000
0010
1000
0000
0010
0000
0001
,
0000
0010
0000
0100
0001
1000
0000
2002
,
3003
0000
1000
0000
0010
0000
0001
0100
,
1000
0001
1000
0001
,
0001
0000
1000
0001
0000
0100
0000
0010
,
0000
0000
1000
0000
0000
0000
0001
0000
0100
0000
0000
1000
0000
0000
0001
0000
,
1000
0000
0001
0010
0000
1000
0000
0100
,
0000
0000
0001
0000
0000
0000
0100
0000
0010
0000
0000
0100
0000
0000
0010
0000
,
1000
0000
0100
0001
0000
0100
0000
1000
,
0000
0100
0000
0010
1000
0001
0000
2002
,
3003
0000
0001
0000
0100
0000
1000
0010
,
0001
1000
0001
1000
,
0001
1000
0010
0100
,
0001
0000
0010
1000
0010
0000
0010
0000
,
0100
0000
0001
0100
0001
0000
0001
1000
,
0001
0000
0010
1000
0010
0000
0000
0000
,
0001
0010
1000
0100
,
0010
0000
0001
0100
0001
0000
0000
0000
,
0010
1000
0010
0000
0010
0100
0000
2002
,
0000
0000
0000
3003
,
0001
0000
0000
0000
,
0000
1000
0000
0000
0010
0000
0100
0000
,
0010
0001
0000
0000
,
0000
0000
1000
0000
0000
0000
0000
0000
0001
0000
0000
0100
0000
0000
0010
0000
,
1000
0001
1000
0010
,
0000
0010
0001
0010
,
0100
0000
0000
1000
0000
0000
0001
0000
,
0000
0100
0000
0000
0010
0000
1000
0000
,
0010
0001
1000
0100
,
0001
0000
0010
0000
0100
0010
0100
0000
,
0001
1000
0100
0010
,
0001
0000
0010
0000
0010
1000
0010
0000
,
0001
0100
1000
0001
,
0100
0000
0010
0000
0100
0010
0100
0000
,
0001
0000
0000
1000
0000
0000
0010
1000
,
0000
0010
0000
0000
0100
0000
0001
0000
,
1001
0000
0000
0000
,
0000
0000
0000
0000
,
1000
0000
0000
0000
,
0000
0000
0000
0000
,
0001
0000
0000
0000
,
0000
0000
0000
0000
,
1001
0000
0000
0000
,
0000
0000
0000
0000
,
0001
1000
0001
0000
,
0010
1000
0010
0000
,
0100
0010
0100
0000
,
0001
0010
0001
0000
,
1000
0100
0001
0010
,
0100
0000
1000
0000
0001
0000
0000
2002
,
0000
0000
0000
0000
,
0000
0000
0000
3003
,
2002
0000
0000
0000
,
0000
0000
0000
3003
,
0001
1000
0010
0000
,
0100
1000
0100
0001
,
0010
0100
1000
0000
,
0001
0001
1000
0100
,
0010
0001
0010
0000
,
0001
0000
1000
0000
0010
0000
1000
0010
,
1000
0010
0001
0000
,
0100
0001
0100
0000
,
0001
0000
1000
0000
,
0010
1000
0100
0000
,
0010
0000
0001
0000
,
0010
0100
1000
0000
,
0001
1000
0100
0000
,
0001
0100
0001
0000
,
1000
0010
1000
0100
,
0010
0100
0010
0000
0001
0000
0000
0000
,
0001
1000
0010
0000
,
1000
0100
0001
0000
,
0010
0010
0100
0000
,
0001
0001
1000
0000
,
0010
1000
0100
0010
,
0001
0000
0001
0000
,
1000
0000
0001
0000
1000
0000
0000
0220
,
0000
0000
0000
0330
,
0001
0000
0000
1000
0000
0001
0000
0100
,
0000
0010
0000
1000
0000
0001
2000
0002
,
0000
0000
0000
0000
,
0000
0000
0000
0000
0000
0000
0000
0000
0000
0000
0000
0000
0000
0000
0000
0000
0000
0000
0000
0000
0000
0000
0000
0000
0000
0000
0000
0000
0000
0000
0000
3003
;

//--------------- dance-single - XLev450X-DSP ----------------
#NOTES:
     dance-single:
     XLev450X:
     Medium:
     14:
     0,0,0,0,0:
0000
0000
0000
0000
,
0000
0000
0000
0000
,
0001
0000
1000
0001
0000
1000
0000
0010
,
0000
0000
0100
0000
0001
0000
1000
0000
0001
0000
0000
0010
0000
0000
1000
0000
,
0010
0000
1000
0100
0000
0010
0000
0001
,
0000
0000
0100
0000
0010
0000
1000
0000
0001
0000
0000
1000
0000
0000
0100
0000
,
0001
0010
1000
0000
0100
1000
0010
0000
,
0001
0100
1000
0100
0001
1000
0000
2002
,
0000
0000
0000
0000
,
0000
0000
3003
0000
,
2002
0000
0000
3003
,
0000
0001
0000
0000
1000
0000
0001
0000
,
0010
0100
0000
0000
,
0000
0000
1000
0000
0000
0000
0100
0000
0001
0000
0000
1000
0000
0000
0010
0000
,
0100
0001
1000
0010
,
0000
0000
0001
0000
0010
0000
1000
0010
,
1000
0000
0000
0001
0000
0000
1000
0010
,
0000
0000
0100
0000
0000
0000
0000
0000
0010
0000
0000
0001
0000
0000
0100
0000
,
1000
0000
0001
0000
0010
0000
1000
0010
,
1000
0000
0010
0000
0001
0000
0100
0001
,
0100
0000
0001
0000
1000
0000
0010
1000
,
0010
0000
0001
0010
0001
0100
1000
0001
,
1000
0000
0010
0000
1000
0100
0010
0001
,
0000
1000
0010
0000
1000
0000
0001
1000
,
0010
0000
0000
0101
0000
0000
0010
1000
,
0000
0010
0000
0000
2000
0000
0002
3003
,
0001
0000
0010
0100
0000
0010
0000
2000
,
0000
0000
3010
0000
0100
0000
0000
0000
1000
0000
0000
0001
0000
0000
1000
0000
,
0001
0000
0100
0010
0000
0100
0000
2000
,
0000
0000
3100
0000
0010
0000
0000
0000
1000
0000
0000
0100
0000
0000
0010
0000
,
0001
0000
0010
0100
0000
0010
0000
2000
,
0000
3010
0100
0000
1000
0001
0000
1001
,
0000
0010
0100
0010
0100
0010
0000
1001
,
0000
1000
0001
0000
0100
0001
1000
0010
,
1000
0000
0010
0100
0000
0010
0000
0002
,
0000
0000
0013
0000
0100
0000
0000
0000
0001
0000
0000
1000
0000
0000
0001
0000
,
1000
0000
0100
0010
0000
0100
0000
0002
,
0000
0000
0103
0000
0010
0000
0000
0000
0001
0000
0000
0100
0000
0000
0010
0000
,
1000
0000
0010
0100
0000
0010
0000
0002
,
0000
0013
0100
0000
0001
1000
0000
1001
,
0000
0010
0100
0010
0100
0010
0000
1001
,
0000
0001
2000
0000
0000
0000
3001
0010
,
0200
0000
0310
0001
0000
1000
0000
0010
,
0100
2010
3100
0012
,
0203
0000
0310
1000
0000
0001
0000
0021
,
0000
0130
0000
1020
0000
0130
0000
0000
,
0020
0000
0130
0001
0000
1000
0000
1200
,
0000
0310
0000
0201
0000
0310
0000
0000
,
0100
0000
0000
0001
0000
1000
0000
2002
,
0000
0000
0000
3003
,
2002
0000
0000
3003
,
0000
0001
0000
0000
1000
0000
0001
0000
,
0010
0100
0000
0000
,
0000
0000
1000
0000
0000
0000
0100
0000
0001
0000
0000
1000
0000
0000
0010
0000
,
0100
0001
1000
0010
,
0000
0000
0001
0000
0010
0000
1000
0010
,
1000
0000
0000
0001
0000
0000
1000
0010
,
0000
0000
0100
0000
0000
0000
0000
0000
0010
0000
0000
0001
0000
0000
0100
0000
,
1000
0000
0001
0000
0010
0000
1000
0010
,
1000
0000
0010
0000
0001
0000
0100
0001
,
0100
0000
0001
0000
1000
0000
0010
1000
,
0010
0000
0001
0010
0001
0100
1000
0001
,
1000
0000
0010
0000
1000
0100
0010
0001
,
0000
1000
0010
0000
1000
0000
0001
1000
,
0010
0000
0000
0101
0000
0000
0010
1000
,
0000
0010
0000
0000
2000
0000
0002
3003
,
0001
0000
1000
0010
0000
0100
0000
0001
,
0000
0000
1000
0000
0010
0000
1000
0000
0010
0000
0000
0100
0000
0000
0001
0000
,
1000
0000
0001
1000
0000
0010
0000
0100
,
0000
0000
0001
0000
1000
0000
0010
0000
1000
0000
0000
0001
0000
0000
0100
0000
,
1000
0000
0001
1000
0000
0010
0000
0100
,
0000
0010
0001
0010
0100
1000
0000
0001
,
0000
1000
0010
0001
0010
1000
0000
0001
,
0000
0100
1000
0000
0001
1000
0001
1000
,
0010
0000
0100
1000
0000
0001
0000
0100
,
0000
1000
0001
1000
0010
0000
0000
0000
,
0001
0000
1000
0010
0000
0100
0000
0010
,
0000
0000
0001
0000
1000
0000
0010
0000
1000
0000
0000
0001
0000
0000
0010
0000
,
1000
0001
0010
1000
0100
0001
0100
0001
,
1000
0100
1000
0000
0010
0001
0010
0000
0100
0001
0100
0000
0000
0000
2002
0000
,
0000
0000
0000
0000
,
0000
0000
0000
3003
,
2002
0000
0000
0000
,
0000
0000
0000
3003
,
1000
0010
0100
0010
1000
0001
0010
2000
,
0000
0000
3010
0000
0001
0000
1000
0000
0010
0000
0000
0010
0000
0000
0100
0000
,
0001
0100
0010
0100
0001
1000
0100
0002
,
0000
0000
0103
0000
1000
0000
0001
0000
0100
0000
0000
0100
0000
0000
0010
0000
,
1000
0010
0100
0010
1000
0001
0010
2000
,
0000
3010
0001
1000
0010
0100
0000
1001
,
0000
0100
0010
0100
0010
0100
0000
1001
,
0000
1000
0001
0010
1000
0010
0100
0010
,
0001
0010
0100
0010
0001
1000
0010
0002
,
0000
0000
0013
0000
1000
0000
0001
0000
0010
0000
0000
0010
0000
0000
0100
0000
,
1000
0100
0010
0100
1000
0001
0100
2000
,
0000
0000
3100
0000
0001
0000
1000
0000
0100
0000
0000
0100
0000
0000
0010
0000
,
0001
0010
0100
0010
0001
1000
0010
0002
,
0000
0013
1000
0001
0010
0100
0000
1001
,
0000
0100
0010
0100
0010
0100
0000
1001
,
0000
0001
2000
0000
0000
0000
3001
0100
,
2000
0000
3100
0010
1000
0001
0000
1000
,
0100
0012
0103
1020
,
0032
0000
0013
0100
0001
1000
0001
0010
,
0000
2100
0000
3010
0000
0201
0000
0000
,
2300
0000
3100
0010
1000
0001
1000
0100
,
0000
0012
0000
0103
0000
1020
0000
0000
,
0032
0000
0013
0100
0001
1000
0000
2002
,
0000
0000
0000
3003
,
0001
1000
0001
1000
0000
0001
0000
1000
,
0000
0010
0000
0001
0000
1000
0002
2000
,
0000
0000
0000
0000
,
0000
0000
0000
0000
0000
0000
0000
0000
0000
0000
0000
0000
0000
0000
0000
0000
0000
0000
0000
0000
0000
0000
0000
0000
0000
0000
0000
0000
0000
0000
0000
3003
;

//--------------- dance-single - XLev450X-ESP ----------------
#NOTES:
     dance-single:
     XLev450X:
     Hard:
     16:
     0,0,0,0,0:
0000
0000
0000
0000
,
0000
0000
0000
0000
,
0001
1000
0010
0100
0000
0010
0001
1000
,
0010
0000
0100
0000
0010
0000
1000
0000
0001
0000
0000
1000
0000
0000
0010
0000
,
0100
0000
0010
0000
1000
0000
0001
1000
0000
0000
0000
0010
0000
0000
0000
1000
,
0000
0010
1000
0000
0001
0000
1000
0000
0010
0000
0000
1000
0000
0000
0001
0000
,
0010
1000
0010
0000
0001
0010
0001
0000
0100
0010
0100
0000
0001
0100
1000
0000
,
0001
0010
0100
1000
0001
0010
0100
1000
0001
0000
1000
0000
0000
0000
2002
0000
,
0000
0000
0000
0000
,
0000
0000
3003
0000
,
0001
1000
0010
0100
0010
1000
0001
1000
,
0000
0010
0000
1000
0100
0000
0010
0000
,
0001
1000
0010
1000
0010
0100
1000
0001
,
0000
0000
0010
0000
0000
0000
1000
0000
0001
0000
0000
0100
0000
0000
0010
0000
,
1000
0001
1000
0010
1000
0010
1000
0010
,
0000
0001
0010
0001
0100
1000
0001
1000
,
0001
0000
0000
1000
0000
0000
0010
0100
,
0000
0000
0001
0000
0000
0000
0100
1000
0100
0000
0001
0000
0100
0000
1000
0000
,
0010
0000
1000
0010
0100
0010
0001
0010
,
0000
0000
0100
0000
1000
0000
0010
0000
1000
0100
0001
0000
0100
0000
1000
0000
,
0001
1000
0010
1000
0100
0010
0001
0100
,
0000
0000
0001
0000
1000
0000
0010
0000
1000
0001
0100
0000
0010
0000
1000
0000
,
0001
0000
0010
0000
1000
0010
0100
0010
,
0000
0000
0001
0000
0010
0000
0001
0000
0100
0010
1000
0000
0001
0000
1000
0000
,
0001
0000
0000
1000
0000
0000
0001
1000
,
0000
0010
0000
0100
0010
0000
2002
3003
,
1010
0010
0100
0101
0000
1001
0000
0011
,
0000
0000
0001
0000
0010
0000
0100
0000
0110
0000
0000
1100
0000
0000
1000
0000
,
0011
0010
0100
1100
0000
1001
0000
1010
,
0000
0000
1000
0000
0010
0000
0100
0000
0110
0000
0000
0101
0000
0000
0001
0000
,
1010
0010
0100
0101
0000
1001
0000
0011
,
0000
0001
0010
0100
1000
0001
0000
0200
,
0000
0010
0010
0010
0310
1000
0100
0010
,
0001
0000
0100
0000
0010
0000
1000
0001
1000
0000
0001
0000
0100
0000
0001
0000
,
0101
0100
0010
1010
0000
1001
0000
1100
,
0000
0000
1000
0000
0100
0000
0010
0000
0110
0000
0000
0011
0000
0000
0001
0000
,
1100
0100
0010
0011
0000
1001
0000
0101
,
0000
0000
0001
0000
0100
0000
0010
0000
0110
0000
0000
1010
0000
0000
1000
0000
,
0101
0100
0010
1010
0000
1001
0000
1100
,
0000
1000
0100
0010
0001
1000
0000
0020
,
0000
0100
0100
0100
0130
0001
0010
0100
,
1000
0010
0200
0000
0000
0000
0310
0100
,
1000
0100
0010
1000
0100
0010
1000
0010
,
0100
0001
1000
0010
0100
0001
0100
1000
,
0010
0000
0100
0001
0100
0010
0001
0010
,
0100
1000
0001
0010
0100
1000
0100
0010
,
0000
0100
0010
1000
0100
0010
1000
0010
,
0100
0001
1000
0010
0100
0001
0100
1000
,
0010
0100
0001
0010
0001
0100
0010
2020
,
0000
0000
0000
3030
,
0001
1000
0010
0100
0010
1000
0001
1000
,
0000
0010
0000
1000
0100
0000
0010
0000
,
0001
1000
0010
1000
0010
0100
1000
0001
,
0000
0000
0010
0000
0000
0000
1000
0000
0001
0000
0000
0100
0000
0000
0010
0000
,
1000
0001
1000
0010
1000
0010
1000
0010
,
0000
0001
0010
0001
0100
1000
0001
1000
,
0001
0000
0000
1000
0000
0000
0010
0100
,
0000
0000
0001
0000
0000
0000
0100
1000
0100
0000
0001
0000
0100
0000
1000
0000
,
0010
0000
1000
0010
0100
0010
0001
0010
,
0000
0000
0100
0000
1000
0000
0010
0000
1000
0100
0001
0000
0100
0000
1000
0000
,
0001
1000
0010
1000
0100
0010
0001
0100
,
0000
0000
0001
0000
1000
0000
0010
0000
1000
0001
0100
0000
0010
0000
1000
0000
,
0001
0000
0010
0000
1000
0010
0100
0010
,
0000
0000
0001
0000
0010
0000
0001
0000
0100
0010
1000
0000
0001
0000
1000
0000
,
0001
0000
0000
1000
0000
0000
0001
1000
,
0000
0010
0000
0100
0010
0000
2002
3003
,
0001
0000
1000
0010
0000
0100
0000
1000
,
0000
0000
0001
0000
1000
0000
0010
0000
1000
0000
0000
0010
0000
0000
0001
0000
,
0010
0000
1000
0001
0000
0010
0000
1000
,
0100
0000
0010
0000
0001
0000
1000
0000
0010
0000
0000
0010
0000
0000
1000
0000
,
0100
0000
0001
1000
0000
0010
0000
1000
,
0100
0010
0001
0010
1000
0001
0000
1001
,
0000
0010
1000
0010
1000
0001
0000
0010
,
0000
1000
0100
0000
0001
1000
0010
0100
,
0001
0010
0001
0010
0100
1000
0001
1000
,
0010
0000
1000
0000
0001
0000
0100
0000
0001
0100
1000
0100
0010
0001
0010
1000
,
0100
1000
0100
0001
0010
1000
0001
0100
,
0010
0000
1000
0000
0001
0000
1000
0000
0001
1000
0001
0100
1000
0100
0001
1000
,
0010
0001
0010
0000
1000
0100
1000
0000
0010
0100
0010
0000
0001
1000
0001
0000
,
1000
0100
0010
0001
1000
0100
0010
0001
1000
0000
0001
0000
0000
0000
2002
0000
,
0000
0000
0000
0000
,
0000
0000
0000
3003
,
2002
0000
0000
0000
,
0000
0000
0000
3003
,
0001
0100
0010
0001
1000
0100
0010
1000
,
0001
0010
0100
0000
1000
0000
0001
0000
1000
0000
0010
0100
0000
0001
1000
0000
,
0001
1000
0100
0000
0010
0000
1000
0000
0001
0000
0100
0010
0001
0000
1000
0000
,
0010
0100
0001
0000
0100
0000
0010
0000
0001
0000
0010
0100
0000
0001
1000
0000
,
0001
0000
0010
0100
0010
0000
1000
0000
0001
0000
0100
0010
0100
0000
1000
0000
,
0001
0100
0010
0000
0100
0000
0010
0000
1000
0000
0001
0000
0000
0000
0020
0000
,
0000
0000
0130
0010
0100
0010
0100
0010
0100
0000
1000
0000
0010
0000
0100
0000
,
0001
0000
0010
0000
0100
0000
1000
0001
1000
0000
0010
0000
0100
0000
0001
0000
,
1000
0100
0010
1000
0001
0100
0010
0001
,
1000
0010
0100
0000
0001
0000
1000
0000
0001
0000
0010
0100
0000
1000
0001
0000
,
1000
0001
0100
0000
0010
0000
0001
0000
1000
0000
0100
0010
1000
0000
0001
0000
,
0010
0100
1000
0000
0100
0000
0010
0000
1000
0000
0010
0100
0000
1000
0001
0000
,
1000
0000
0010
0100
0010
0000
0001
0000
1000
0000
0100
0010
0100
0000
0001
0000
,
1000
0100
0010
0000
0100
0000
0010
0000
0001
0000
1000
0000
0000
0000
0020
0000
,
0000
0000
0130
0010
0100
0010
0100
0010
0100
0000
0001
0000
0010
0000
0100
0000
,
1000
0010
0200
0000
0300
0000
0001
0100
,
1000
0000
0100
0010
0100
0000
0001
0000
0010
0000
1000
0000
0010
0000
0100
0000
,
0001
1000
0010
0100
0001
1000
0010
0100
,
0001
0100
1000
0001
0100
1000
0100
0010
,
0001
1000
0100
0010
0001
0010
1000
0100
,
0001
0000
0100
0010
0100
0000
1000
0000
0010
0000
0001
0000
0010
0000
0100
0000
,
1000
0001
0010
0100
1000
0001
0010
0100
,
1000
0100
0001
1000
0100
0001
0100
0220
,
0000
0000
0000
0330
,
0001
1000
0010
0100
0000
0001
0000
1000
,
0000
0010
0000
0100
0000
0010
0100
2000
,
0000
0000
0000
0000
,
0000
0000
0000
0000
0000
0000
0000
0000
0000
0000
0000
0000
0000
0000
0000
0000
0000
0000
0000
0000
0000
0000
0000
0000
0000
0000
0000
0000
0000
0000
0000
3000
;

//--------------- dance-single - XLev450X†-CSP ----------------
#NOTES:
     dance-single:
     XLev450X†:
     Challenge:
     18:
     0,0,0,0,0:
0000
0000
0000
0000
,
0000
0000
0000
0000
,
0001
0100
0010
0100
0001
1000
0010
0100
,
0001
0100
0010
1000
0010
0100
0001
1000
,
0100
0010
0100
0010
0100
0010
0001
1000
,
0100
1000
0100
0010
0100
1000
0010
0100
,
0001
0100
0010
0100
0001
0010
0100
1000
0010
0100
0010
0100
0001
1000
0010
1000
,
0010
0100
0010
1000
0100
0010
0100
1000
0001
0000
1000
0000
0000
0000
2002
0000
,
0000
0000
0000
0000
,
0000
0000
3003
0000
,
0001
1000
0010
0100
0010
1000
0001
1000
,
0000
1001
0000
0000
1010
0000
0110
0000
,
0001
0000
1000
0001
0100
0010
1000
0001
,
0001
0100
1000
0000
0001
0000
0100
0000
1000
0000
0000
0001
0000
0000
0100
0000
,
1001
0000
1200
0310
0100
1000
0001
0020
,
0000
0031
1000
0100
0010
0001
1000
0001
,
0101
0100
0010
1010
1000
0010
0110
1001
,
0000
0000
0101
0000
0100
0000
0010
1000
0001
0000
0100
0000
0001
0000
1000
0000
,
1001
0000
0000
0000
0011
0000
0001
0010
0100
0000
0010
0000
0001
0000
1000
0000
,
0100
0000
0010
0000
0001
0000
1000
0100
0010
0000
0010
0000
0001
0000
0001
0000
,
1001
0000
0000
0000
1010
0000
1000
0010
0100
0000
0010
0000
1000
0000
0001
0000
,
0100
0000
0010
0000
1000
0000
0001
0100
0010
0000
0010
0000
1000
0000
1000
0000
,
1001
0000
0000
0000
1100
0000
1000
0100
0010
0000
0001
0000
0010
0000
0100
1000
,
0001
0000
0010
0000
0100
0000
1000
0100
0010
0000
0001
0000
1000
0000
1000
0000
,
1001
0000
0001
0100
0010
0000
0110
0000
0100
0010
1000
0000
1010
0000
1010
0000
,
0000
0000
1001
0000
0001
0100
0010
1000
0001
0100
0010
1000
0100
0000
0010
0000
,
2000
3000
1010
0110
0000
0011
0000
0101
,
0000
0000
0001
0000
0100
0000
0010
0000
1010
0000
0000
0210
0000
0000
0310
0000
,
0002
0000
0013
0100
0010
1000
0100
1100
,
0000
0000
1000
0000
0100
0000
0010
0000
0011
0000
0000
0210
0000
0000
0310
0000
,
2000
0000
3010
0100
0010
0001
0100
0101
,
0000
0001
0100
0100
0010
0110
0000
1010
,
0000
1000
1000
1000
1000
0100
0010
0002
,
0000
0000
1003
0000
0010
0000
0100
0010
1000
0000
0001
0000
1000
0000
0100
0000
,
0001
1000
0010
0100
0000
0010
0000
1000
,
0000
0000
0001
0000
1000
0000
0010
0000
0100
0000
0000
0001
0000
0000
1000
0000
,
0001
0100
1000
0010
0000
0100
0000
0010
,
0000
0000
0001
0000
1000
0000
0001
0000
1000
0000
0000
0001
0000
0000
1000
0000
,
0010
1000
0100
0010
0001
0010
1000
0100
,
0000
0001
0010
1000
0001
1000
0000
0010
,
0000
1000
0100
0010
0001
0010
0100
1000
,
0000
0002
2000
0000
0000
3003
0100
0001
,
0010
0000
0100
0010
0001
0000
0011
0000
0000
0000
1001
0000
0000
0000
1010
0000
,
0010
0000
0100
0000
0010
0100
0010
0000
1000
0010
1000
0000
0010
0100
0010
0000
,
0001
0000
0010
0100
0001
0000
0101
0000
0000
0000
1001
0000
0000
0000
1100
0000
,
0100
0000
0010
0000
0100
0010
0100
0000
1000
0100
1000
0000
0100
0010
0100
0000
,
0010
0000
0100
0010
0001
0000
0011
0000
0000
0000
1001
0000
0000
0000
1010
0000
,
0010
0000
0100
0000
0010
0100
0010
0000
1000
0010
1000
0000
0010
0100
0010
0000
,
0001
0000
0010
0100
0001
0000
0101
0000
0000
0000
1001
0000
0000
0000
0022
0000
,
0000
0000
0033
0110
,
0001
1000
0010
0100
0010
1000
0001
1000
,
0000
1001
0000
0000
1010
0000
0110
0000
,
0001
0000
1000
0001
0100
0010
1000
0001
,
0001
0100
1000
0000
0001
0000
0100
0000
1000
0000
0000
0001
0000
0000
0100
0000
,
1001
0000
1200
0310
0100
1000
0001
0020
,
0000
0031
1000
0100
0010
0001
1000
0001
,
0101
0100
0010
1010
1000
0010
0110
1001
,
0000
0000
0101
0000
0100
0000
0010
1000
0001
0000
0100
0000
0001
0000
1000
0000
,
0010
0100
0001
1000
0010
1000
0100
1000
0010
0100
0010
1000
0010
1000
0100
0010
,
0001
0100
0001
1000
0010
0100
0010
1000
0100
0010
0001
0100
0010
1000
0100
0010
,
0100
1000
0100
0010
0001
0010
0100
1000
0100
1000
0010
0100
0010
0100
0001
0010
,
0001
0010
0100
1000
0001
0010
0001
1000
0010
0100
0001
1000
0010
0100
0001
0010
,
0100
1000
0010
0100
0010
1000
0001
0100
0001
0010
0001
1000
0010
1000
0001
0100
,
0010
0100
0010
1000
0100
0010
0001
0010
0001
1000
0100
0010
0100
0010
0001
0010
,
0100
1000
0001
1000
0010
1000
0010
0100
0010
1000
0100
1000
0001
0010
0001
1000
,
0001
0100
0010
1000
0100
1000
0001
0100
0010
1000
0001
0010
0001
0100
1000
0001
,
1000
0010
0100
0010
0000
0001
0000
1000
,
0000
0000
0010
0000
0100
0000
0010
0000
1000
0000
0000
0001
0000
0000
0100
0000
,
0010
0000
1000
0010
0000
0001
0000
0010
,
0000
0000
1000
0000
0100
0000
0010
0000
1000
0000
0000
0001
0000
0000
0100
0000
,
0010
0000
1000
0001
0000
0010
0000
1000
,
0000
0001
0100
0010
1000
0001
0000
1000
,
0000
0010
0100
0010
0001
0010
0000
1000
,
0001
0000
1000
0000
0010
0000
0001
0000
0010
0100
0010
0000
0100
0001
0100
0000
,
0010
1000
0001
0100
0000
0010
0000
1000
,
0000
0000
0100
0000
0010
0000
0001
0000
1000
0000
0000
0001
0000
0000
0100
0000
,
0010
0000
1000
0010
0000
0100
0000
0010
,
0000
0000
0001
0000
1000
0000
0001
0000
1000
0000
0000
0100
0000
0000
0010
0000
,
0001
0100
0010
0100
0001
0010
0100
1000
0010
0100
0010
0100
0001
1000
0010
1000
,
0010
0100
0010
1000
0100
0010
0100
1000
0001
0000
1000
0000
0000
0000
2002
0000
,
0000
0000
0000
0000
,
0000
0000
0000
3003
,
2002
0000
0000
0000
,
0000
0000
0000
3003
,
0001
1000
0001
0000
0010
0100
1000
0000
0010
0100
0001
0000
0010
0000
0011
0000
,
0001
0010
0100
1000
0001
1000
0010
0100
0001
0000
1000
0010
0000
0100
0010
0000
,
0001
0010
0100
0000
0010
0100
0001
0000
0010
0100
1000
0000
0010
0000
1010
0000
,
1000
0010
0100
0001
1000
0001
0010
0100
1000
0000
0001
0010
0000
0100
0010
0000
,
1000
0000
0010
0100
1000
0000
0001
0000
1000
0010
0100
0000
0001
0000
0101
0000
,
0100
0001
0100
0010
1000
0001
1000
0100
0010
0000
0010
0000
0000
0000
0011
0000
,
0000
0000
0001
0010
0001
1000
0001
0100
0001
0100
0010
0000
1000
0000
0001
0000
,
1000
0010
0100
0001
1000
0001
0010
0100
,
0001
0100
0010
0000
0100
0010
0001
0000
0100
0010
1000
0000
0100
0000
1100
0000
,
1000
0100
0010
0001
1000
0001
0100
0010
1000
0000
0001
0100
0000
0010
0100
0000
,
1000
0100
0010
0000
0100
0010
1000
0000
0100
0010
0001
0000
0100
0000
0101
0000
,
0001
0100
0010
1000
0001
1000
0100
0010
0001
0000
1000
0100
0000
0010
0100
0000
,
0001
0000
0100
0010
0001
0000
1000
0000
0001
0100
0010
0000
1000
0000
1010
0000
,
0010
1000
0010
0100
0001
1000
0001
0010
0100
0000
0100
0000
0000
0000
1100
0000
,
0000
0000
1000
0100
1000
0001
1000
0010
1000
0010
0100
0000
0001
0000
1000
0000
,
0001
0100
0020
0000
0130
0000
0010
1000
,
0100
0000
1000
0100
0010
0000
0100
0000
0001
0000
1000
0000
0010
0000
0110
0000
,
0000
0000
0100
0010
0100
0010
0001
1000
0001
1000
0100
0010
0100
0010
0001
0000
,
0100
0000
0001
0100
0010
0000
0100
0000
1000
0000
0001
0000
0010
0000
0110
0000
,
0000
0000
0100
0010
0100
0010
1000
0001
1000
0001
0100
0010
0100
0010
1000
0000
,
0100
0000
1000
0100
0010
0000
0100
0000
0001
0000
1000
0000
0010
0000
0110
0000
,
0000
0000
0100
0010
0100
0010
0001
1000
0001
1000
0100
0010
0100
0010
0001
0000
,
0100
0000
0001
0100
0010
0000
0100
0000
1000
0000
0001
0000
0010
0000
2020
0000
,
0000
0000
3030
0110
,
0001
1000
0010
0100
0000
0001
0000
1000
,
0000
0100
0000
0010
0000
0001
2000
0002
,
0000
0000
0000
0000
,
0000
0000
0000
0000
0000
0000
0000
0000
0000
0000
0000
0000
0000
0000
0000
0000
0000
0000
0000
0000
0000
0000
0000
0000
0000
0000
0000
0000
0000
0000
0000
3003
;
