#TITLE:Line 4 Ruin;
#ARTIST:Ryu☆;
#GENRE:ELECTRO TECH;
#MUSIC:Line 4 Ruin.ogg;
#BANNER:Line 4 Ruin.png;
#BACKGROUND:Line 4 Ruin-bg.png;
#CDTITLE:./CDTitles/bm IIDX 22 PENDUAL.png;
#SAMPLESTART:83.88;
#SAMPLELENGTH:15;
#OFFSET:1.19;
#BPMS:0=141;
#BGCHANGES:0=Line 4 Ruin.mp4=1.000=0=0=0=StretchNoLoop====,
99999.000=-nosongbg-=1.000=0=0=0=StretchNoLoop====;
#BGSTAGE:27;

//--------------- dance-single - XLev450X-bSP ----------------
#NOTES:
     dance-single:
     XLev450X:
     Beginner:
     3:
     0,0,0,0,0:
0000
0000
0000
0000
,
0000
0000
0000
0000
,
0000
0000
0000
0000
,
0000
0000
0000
0000
,
0000
0000
0000
0000
,
0000
0000
0000
0000
,
0000
0000
0000
0000
,
0000
0000
0000
0000
,
0000
0000
0000
0000
,
0001
0001
0001
0000
,
1000
1000
1000
0000
,
0010
0010
0010
0000
,
0100
0100
0100
0000
,
0010
0100
0010
0000
,
0001
1000
0001
0000
,
0010
1000
0010
0000
,
0100
0001
0100
0000
,
1001
0000
0000
0000
,
0001
0001
0000
0000
,
1000
1000
0000
0000
,
0010
0010
0010
0000
,
0100
0100
0000
0000
,
1000
1000
1000
0000
,
0001
0001
0000
0000
,
0100
0000
0100
0100
,
0100
0000
0000
0000
,
0010
0000
0000
0000
,
0001
0000
0000
0000
,
0100
0000
0000
0000
,
1000
0000
0000
0000
,
0010
0000
0000
0000
,
0100
0000
0000
0000
,
0001
0000
0000
0000
,
0010
0000
0000
0000
,
1000
0000
1000
0000
,
0001
0000
0000
0000
,
0010
0000
0010
0000
,
0100
0000
0000
0000
,
1000
0000
0100
0000
,
1000
0000
0000
0000
,
0001
0000
0010
0000
,
0001
0000
0000
0000
,
0001
0000
0001
0000
,
0001
0000
0000
0000
,
0100
0000
0100
0000
,
0100
0000
0000
0000
,
0010
0000
0010
0000
,
0010
0000
0000
0000
,
1000
0000
1000
0000
,
1000
0000
0000
0000
,
0001
0001
0000
0000
,
1000
1000
0000
0000
,
0010
0010
0000
0000
,
0100
0100
0000
0000
,
0010
0000
0000
0000
,
0100
0000
0000
0000
,
0001
0000
0000
0000
,
1000
0000
0000
0000
,
1001
0000
0000
0000
,
0000
0000
0000
0000
,
1001
0000
0000
0000
,
0000
0000
0000
0000
,
1001
0000
0000
0000
,
0000
0000
0000
0000
,
1001
0000
0000
0000
;

//--------------- dance-single - XLev450X-BSP ----------------
#NOTES:
     dance-single:
     XLev450X:
     Easy:
     6:
     0,0,0,0,0:
0000
0000
0000
0000
,
0000
0000
0000
0000
,
0000
0000
0000
0000
,
0000
0000
0000
0000
,
0000
0000
0000
0000
,
0000
0000
0000
0000
,
0000
0000
0000
0000
,
0000
0000
0000
0000
,
0000
0000
0000
0000
,
0001
1000
0010
0100
,
0001
0010
1000
0000
,
0010
1000
0100
0001
,
1000
0010
0100
0000
,
0001
0010
0001
0000
,
1000
0100
1000
0000
,
0010
1000
0010
0000
,
0100
0001
0010
0100
,
0002
0000
0000
2000
0000
0000
0000
3003
,
0001
1000
0100
0000
,
0010
1000
0100
0001
,
0010
0100
1000
0000
,
0001
1000
0001
0000
,
0100
1000
0010
0100
,
1000
0100
0010
0000
,
0001
0010
0001
0000
1000
0010
1000
0000
,
0010
0100
0010
0000
,
2002
0000
0000
3003
,
2020
0000
0000
3030
,
0220
0000
0000
0330
,
0022
0000
0000
0033
,
2002
0000
0000
3003
,
2020
0000
0000
3030
,
0220
0000
0000
0330
,
0022
0000
0000
0033
,
0001
1000
0001
0000
,
0100
1000
0100
0000
,
0010
0100
0010
0000
,
0001
0010
0001
0000
,
0001
1000
0001
0010
,
1000
0100
0010
0000
,
0010
0100
0001
0010
,
0001
1000
0001
0000
0010
1000
0010
0000
,
0001
1000
0001
0000
,
1000
0100
0010
0000
,
0010
0100
0010
0000
,
0001
0010
0001
1000
,
0001
1000
0100
0000
,
0010
0100
0001
0000
,
1000
0100
1000
0010
,
1000
0010
1000
0000
0001
0100
0001
0000
,
0001
1000
0100
0001
,
1000
0010
1000
0000
,
0010
1000
0100
0010
,
0001
0010
0001
0000
0100
0010
0100
0000
,
1000
0100
1000
0000
,
0001
1000
0001
0100
,
1000
0010
1000
0010
,
0001
0010
0001
0000
0001
1000
0001
0000
,
2002
0000
0000
3003
,
2020
0000
0000
3030
,
0220
0000
0000
0330
,
0022
0000
0000
0033
,
2002
0000
0000
3003
,
2020
0000
0000
3030
,
0220
0000
0000
0330
,
0022
0000
0033
2002
,
0000
3003
0000
0000
;

//--------------- dance-single - XLev450X-DSP ----------------
#NOTES:
     dance-single:
     XLev450X:
     Medium:
     10:
     0,0,0,0,0:
0000
0000
0000
0000
,
0000
0000
0000
0000
,
0000
0000
0000
0000
,
0000
0000
0000
0000
,
0000
0000
0000
0000
,
0000
0000
0000
0000
,
0000
0000
0000
0000
,
0000
0000
0000
0000
,
0000
0000
0000
0000
,
0001
1000
0010
0100
,
0001
0010
0001
0000
0010
1000
0010
0000
,
0001
1000
0010
0100
,
1000
0100
1000
0000
0010
0100
0010
0000
,
0001
0010
0100
1000
,
0001
1000
0001
0000
0010
1000
0010
0000
,
0100
0001
0010
0100
,
1000
0001
1000
0000
0010
1000
0010
0000
,
0002
0000
0000
2000
0000
0000
0000
3003
,
0001
1000
0100
0010
,
1000
0100
0010
0000
0001
0000
1000
0000
,
0010
0000
1000
0000
0010
0100
0010
0000
,
0001
0000
0100
0000
1000
0001
1000
0000
,
0010
0100
1000
0010
,
0001
0000
0010
0000
1000
0010
1000
0000
,
0001
0100
1000
0001
,
1000
0010
1000
0000
0010
0100
0010
0000
,
0002
0000
0000
2000
0000
3003
0000
0010
,
0000
1000
0001
0000
1000
0000
0010
0000
,
0101
0000
0000
1010
0000
0110
0000
1010
,
0000
1000
1001
0000
0001
0100
1000
0000
,
0001
0000
0000
1000
0000
0010
0000
0100
,
0001
1000
0010
1000
,
0100
0000
0000
0010
0000
0001
0000
1000
,
0000
0001
1000
0000
0010
1000
0010
0000
,
0001
0100
1000
0010
,
1000
0100
0001
0010
0000
1000
0001
1000
,
0010
1000
0100
0010
,
0001
0010
0100
0000
1000
0000
0000
0000
,
0001
0000
1000
0000
0010
1000
0010
0000
,
0001
0000
0100
0000
1000
0001
1000
0000
,
0010
0000
1000
0000
0100
0010
0100
0000
,
2002
0000
0000
3003
,
0001
1000
0100
0010
,
0001
0010
0001
0000
1000
0010
1000
0000
,
0100
0010
0001
0100
,
1000
0000
0001
0000
2000
0000
0200
3300
,
0010
1000
0100
0010
,
0001
0010
0001
0000
0100
0010
0100
0000
,
1000
0001
1000
0100
,
0010
1000
0010
0000
0001
0010
0001
0000
,
0100
0001
1000
0100
0010
0001
1000
0010
,
0100
1000
0010
0000
0001
0010
0001
0000
,
0100
0001
1000
0100
0001
0010
1000
0100
,
0001
0100
1000
0001
0020
0000
0100
0130
,
0001
0100
1000
0000
0100
0001
0010
0000
,
1000
0010
1000
0001
0010
0100
0010
0000
,
0001
1000
0010
0000
0100
0001
1000
0000
,
0001
1000
0001
0100
0010
1000
0010
0100
,
0002
0000
0000
2000
0000
3003
0000
0010
,
0000
0100
0001
0000
1000
0000
0100
0000
,
0002
0000
0000
1003
0000
0010
0000
0100
,
0000
0001
1000
0000
0010
0000
0100
0000
,
0002
0000
0000
1003
0000
0010
0000
0100
,
0000
0001
1000
0000
0010
0000
0100
0000
,
2000
0000
0000
3010
0000
0100
0000
1000
,
0000
0010
0100
0000
0010
0000
2002
0000
,
0000
3003
0000
0000
;

//--------------- dance-single - XLev450X-ESP ----------------
#NOTES:
     dance-single:
     XLev450X:
     Hard:
     13:
     0,0,0,0,0:
0000
0000
0000
0000
,
0000
0000
0000
0000
,
0000
0000
0000
0000
,
0000
0000
0000
0000
,
0000
0000
0000
0000
,
0000
0000
0000
0000
,
0000
0000
0000
0000
,
0000
0000
0000
0000
,
0000
0000
0000
0000
,
0001
0000
0010
0000
0100
0010
0000
0010
0000
0100
1000
0000
0001
0000
0100
0000
,
0001
0000
1000
0000
0100
0010
0000
0001
0000
0010
0100
0000
1000
0000
0001
0000
,
0100
0000
0010
0000
1000
0100
0000
0100
0000
0010
0001
0000
0100
0000
0010
0000
,
0001
0000
0010
0000
1000
0010
0000
0100
0000
0010
1000
0000
0100
0000
0010
0000
,
1001
0000
0001
0000
0100
0010
0000
1000
0000
0100
0010
0000
0001
0000
0100
0000
,
1000
0000
0100
0000
0010
1000
0000
0100
0000
0010
0001
0000
0100
0000
0010
0000
,
0001
0000
0010
0000
1000
0001
0000
0100
0000
0001
0010
0000
1000
0000
0010
0000
,
0100
0000
1000
0000
0010
0100
0000
0001
0000
0010
0100
0000
1000
0000
0100
0000
,
0002
0000
0000
2000
0000
0000
0000
3003
,
1000
0000
0010
0100
0002
0000
1000
0003
,
0010
0001
0010
0000
0001
0010
0001
0000
1000
0000
0000
0000
1100
0000
0000
0000
,
1000
0010
0001
0020
0000
0130
0001
2000
,
0000
0000
3100
0000
0110
0000
0000
0000
0001
0000
0000
1000
0200
0000
0000
0000
,
1300
0010
0001
0010
0100
0001
0000
0021
,
0000
1030
0010
0001
0100
0000
0110
0000
,
0010
0001
0010
2000
0000
3100
0000
0012
,
0000
0103
0001
1000
0020
0000
0130
0100
,
1001
0000
0001
0020
0000
0100
0000
0230
,
0000
1300
2000
0000
3020
0000
0230
0000
,
0302
0000
0000
1003
0000
2000
0000
3020
,
0000
0130
0002
0000
1003
0100
0010
0010
,
0001
0000
1000
0020
0000
0100
0000
0230
,
0000
0301
2000
0000
3200
0000
0320
0000
,
0032
0000
0003
0200
0000
0300
0010
0010
,
0000
1000
1000
0000
0200
0000
0300
0000
,
0011
0110
1010
1001
,
0001
0000
1000
0010
0000
0100
1000
0000
,
0001
0010
0100
1000
,
0010
1000
0100
0001
0000
0010
0100
1000
,
0001
0010
1000
0100
,
0010
1000
0100
0001
0000
0010
0100
1000
,
0001
0000
0010
0000
1000
0100
0010
0000
,
0001
0010
1000
0001
1000
0010
0100
0010
,
0001
0000
1000
0001
1000
0010
1000
0000
,
0010
0100
1000
0001
0000
0010
1000
0000
,
1000
0100
0010
0001
0010
1000
0001
0000
,
0010
1000
0100
0010
0001
0010
0100
1000
,
0001
0000
0010
0000
1000
0100
1000
0000
,
0001
1000
0001
1000
0000
0010
1000
0100
,
0010
0000
0001
0000
0100
1000
0100
0000
,
0010
1000
0010
0100
0001
0010
1000
0001
,
1000
0000
0010
0000
0100
0010
0100
0001
0000
1000
0100
0000
0010
0000
0100
0000
,
1100
0000
1000
0000
0100
0010
0001
0010
0000
0001
1000
0000
0010
0000
0100
0000
,
0101
0000
0001
0000
1000
0100
0010
0100
0000
0010
0001
0000
1000
0000
0010
0000
,
0110
0000
0100
0000
0001
0010
0100
0010
0000
0100
1000
0000
0001
0000
0001
0000
,
1000
0100
1000
0000
0010
0100
0010
1000
0000
0001
0100
0000
0010
0000
1000
0000
,
0001
0010
0001
0000
0100
0010
0100
0001
0000
1000
0100
0000
0010
0000
0100
0000
,
1000
0010
1000
0000
0001
0010
0100
0010
0000
0001
1000
0000
0010
0000
0100
0000
,
0001
1000
0001
0000
0010
0100
1000
0100
0000
0010
0001
0000
0100
0000
0100
0000
,
0020
0000
0030
1000
0000
2000
0000
3200
,
0000
0300
0020
0000
0032
0000
2003
0000
,
3020
0000
0030
0100
0000
0200
0000
0302
,
0000
0013
0100
1000
0010
0100
0001
1000
,
0200
0000
0300
0010
0000
0020
0000
0032
,
0000
0003
0200
0000
0320
0000
2030
0000
,
3002
0000
0003
0020
0000
0030
0100
0100
,
0000
1000
1000
0000
0010
0100
2002
0000
,
0000
3003
0000
0000
;
