#TITLE:Lighthouse;
#ARTIST:The Word Alive;
#GENRE:METALCORE;
#MUSIC:Lighthouse.ogg;
#BANNER:Lighthouse.png;
#BACKGROUND:Lighthouse-bg.png;
#SAMPLESTART:67.686;
#SAMPLELENGTH:15;
#OFFSET:-0.168;
#BPMS:0=151.07;
#DISPLAYBPM:151;
#BGSTAGE:17;

//--------------- dance-single - XLev450X-bSP ----------------
#NOTES:
     dance-single:
     XLev450X:
     Beginner:
     2:
     0,0,0,0,0:
0000
0000
0000
0000
,
0000
0000
0000
0000
,
0000
0000
0000
0000
,
0000
0000
0000
0000
,
0000
0000
0000
0000
,
0000
0000
0001
0000
,
0001
0000
1000
0000
,
0000
0000
1000
0000
,
1000
0000
0001
0000
,
0000
0000
0010
0000
,
0010
0000
0100
0000
,
0000
0000
0100
0000
,
0100
0000
0010
0000
,
0000
0000
0001
0000
,
1000
0000
0001
0000
,
0000
0000
0010
0000
,
1000
0000
0010
0000
,
0000
0000
1000
0000
,
0100
0000
1000
0000
,
0000
0000
0001
0000
,
0100
0000
0001
0000
,
0000
0000
1000
0000
,
0010
0000
1000
0000
,
0000
0000
0001
0000
,
0100
0000
0010
0000
,
0000
0000
1000
0000
,
0100
0000
1000
0000
,
0000
0000
0010
0000
,
1000
0000
0010
0000
,
0000
0000
0100
0000
,
0010
0000
0100
0000
,
0000
0000
0001
0000
,
1000
0000
0001
0000
,
0000
0000
1000
0000
,
0100
0000
0010
0000
,
0000
0000
0001
0000
,
1000
0000
0010
0000
,
0100
0000
0001
0000
,
0000
0000
2002
0000
,
0000
0000
0000
0000
,
0000
3003
0000
0000
,
0000
0000
0000
0000
,
0000
0000
0001
0000
,
1000
0000
0010
0000
,
0000
0000
1000
0000
,
0001
0000
0100
0000
,
0000
0000
0010
0000
,
1000
0000
0001
0000
,
0000
0000
0100
0000
,
1000
0000
0010
0000
,
0000
0000
0001
0000
,
0000
0000
1000
0000
,
0000
0000
0010
0000
,
0100
0000
0010
0000
,
0000
0000
0001
0000
,
0001
0000
0000
0000
,
0000
0000
1000
0000
,
1000
0000
0000
0000
,
0000
0000
0100
0000
,
0100
0000
0000
0000
,
0000
0000
0010
0000
,
0010
0000
0000
0000
,
0000
0000
1001
0000
;

//--------------- dance-single - XLev450X-BSP ----------------
#NOTES:
     dance-single:
     XLev450X:
     Easy:
     5:
     0,0,0,0,0:
0000
0000
0000
0000
,
0000
0000
0000
0000
,
0000
0000
0000
0000
,
0000
0000
0000
0000
,
0000
0000
0000
0000
,
0000
0000
0001
1000
,
0010
0000
1000
0100
,
0001
0010
1000
0100
,
0010
0000
0001
0001
,
1000
0001
1000
0010
,
0100
0000
1000
1000
,
0010
0000
0100
0001
,
0100
0010
1001
0000
,
0000
0000
0001
0001
,
1000
0010
0000
0000
,
0000
0000
1000
0100
,
0001
0010
0000
0000
,
0000
0000
1000
0001
,
0100
1000
0000
0000
,
0000
0000
0010
1000
,
0100
0001
0000
0000
,
0000
0000
0001
0000
,
1000
0000
0010
0000
,
0000
0000
1000
0000
,
0010
0000
0100
0000
,
0001
0000
1000
0000
,
0000
0000
1000
0000
,
0010
0000
0100
0000
,
0001
0000
1000
0000
,
0000
0000
0010
0000
,
1000
0000
0010
0000
,
0000
0000
0100
0000
,
0001
0000
1000
0000
,
0000
0000
1000
0000
,
0100
0000
0010
0000
,
0001
0000
1000
0000
,
0010
0000
0100
0000
,
0000
0000
2002
0000
,
0000
3003
2000
0000
,
0000
0000
0000
3000
0002
0000
0000
0000
,
0000
0000
0000
0003
0200
0000
0000
0000
,
0000
0000
0022
0000
,
0000
0033
1000
0010
,
1000
0000
0001
0100
,
0001
0000
0010
0100
,
0010
0000
1000
0001
,
1000
0100
0001
1000
,
0010
0000
0010
0100
,
0010
0000
0001
0010
,
0001
0000
1001
0000
,
0000
0000
0010
0000
,
1000
0000
0001
0000
,
0100
0000
0010
0010
,
0001
0010
1010
0000
,
0000
0000
0010
0000
,
1000
0010
0000
0000
,
0001
0000
0100
0001
,
0010
0000
1000
0001
,
1000
0000
0010
0000
,
0100
0001
1000
0000
,
0000
0000
0010
1000
,
0010
0000
0001
1000
,
0010
0100
2002
0000
,
0000
3003
0000
0000
;

//--------------- dance-single - XLev450X-DSP ----------------
#NOTES:
     dance-single:
     XLev450X:
     Medium:
     9:
     0,0,0,0,0:
0000
0000
0000
0000
,
0000
0000
0000
0000
,
0000
0000
0000
0000
,
0000
0000
0000
0000
,
0000
0000
0000
0000
,
0000
0000
0001
1000
,
0100
0000
1000
0000
0010
1000
0010
0000
,
0001
0010
0001
0000
0100
0000
1000
0000
,
0001
0000
0010
0000
1000
0010
0100
0001
,
0010
1000
0001
0000
1000
0000
0100
0000
,
1000
0001
1000
0000
0010
0000
1000
0000
,
0100
0000
1000
0000
0001
1000
0001
0000
,
0010
1000
0010
0000
1001
0000
0000
0000
,
0000
0000
0000
0000
0000
0000
0000
0000
0001
0000
0000
1000
0000
0000
0100
0000
,
0010
0000
0000
0001
0000
0000
1000
0000
0000
0000
0000
0000
0001
0000
0000
0000
,
0100
0000
0000
0000
0000
0000
0000
0000
0001
0000
0000
1000
0000
0000
0010
0000
,
0100
0000
0000
0001
0000
0000
1000
0000
0010
0000
0000
0000
1000
0000
0000
0000
,
0100
0000
0000
0000
0001
0000
0000
0000
1000
0000
0000
0001
0000
0000
0100
0000
,
0010
0000
0000
1000
0000
0000
0001
0000
0000
0000
0000
0000
0000
0000
0000
0000
,
0100
0000
0000
0000
0000
0000
0000
0000
1000
0000
0000
0010
0000
0000
0100
0000
,
0001
0000
0000
1000
0000
0000
0001
0000
0100
0000
0000
0000
1000
0000
0000
0000
,
0010
0000
0000
0100
0000
0000
0001
0000
1000
0000
0000
0000
0001
0000
0000
0000
,
1000
0000
0010
0000
1000
0010
1000
0000
,
0010
0100
0010
0000
0001
0000
0010
0000
,
1000
0000
0001
0100
,
0001
0000
1000
0001
,
1000
0010
0100
1000
,
0001
0000
0010
1000
,
0100
0010
0100
0000
0001
0000
1000
0000
,
0001
0000
0001
1000
,
1001
0000
0010
1000
,
1010
0000
0010
0100
,
0110
0000
0001
1000
,
0001
0000
0010
1000
,
0100
0001
1000
0001
,
1000
0000
0010
0100
,
1000
0010
1000
0000
0001
0000
0100
0000
,
0001
0100
0001
0000
2002
0000
0000
0000
,
0000
0000
0000
3003
0002
0000
0000
0000
,
1000
0000
1000
0000
,
2000
0000
0000
3003
0010
0000
1000
0000
,
0100
0000
0001
0100
,
0001
0100
0001
0000
1000
0000
0001
0000
,
0100
0000
0010
1000
,
0100
1000
0010
0100
,
1000
0000
0001
1000
,
0010
0000
0000
0100
0000
0000
1000
0000
0001
0000
0000
0000
0010
0000
0000
0000
,
0100
0000
1000
0000
0001
0010
0001
0000
,
1000
0100
1000
0000
0010
0000
0100
0000
,
1000
0001
0100
0010
,
1000
0000
0010
0010
,
1000
0100
0001
1000
,
0001
0000
1000
0001
,
0010
1000
0010
0000
2002
0000
0000
0000
,
0000
0000
0000
0000
0000
0000
3003
0000
0001
0000
0000
1000
0000
0000
0100
0000
,
0010
0000
0000
0001
0000
0000
1000
0000
0000
0000
0000
0000
0001
0000
0000
0000
,
0100
0000
0000
0000
0000
0000
0000
0000
0001
0000
0000
1000
0000
0000
0010
0000
,
0100
0000
0000
0001
0000
0000
1000
0000
0010
0000
0000
0000
1000
0000
0000
0000
,
0100
0000
0000
0000
0001
0000
0000
0000
1000
0000
0000
0001
0000
0000
0100
0000
,
0010
0000
0000
1000
0000
0000
0001
0000
0000
0000
0000
0000
0000
0000
0000
0000
,
0100
0000
0000
0000
0000
0000
0000
0000
1000
0000
0000
0010
0000
0000
0100
0000
,
0001
0000
0000
1000
0000
0000
0001
0000
0100
0000
0000
0000
1000
0000
0000
0000
,
0010
0000
0000
0100
0000
0000
0001
0000
2002
0000
0000
0000
0000
0000
0000
0000
,
0000
3003
0000
0000
;

//--------------- dance-single - XLev450X-ESP ----------------
#NOTES:
     dance-single:
     XLev450X:
     Hard:
     13:
     0,0,0,0,0:
0000
0000
0000
0000
,
0000
0000
0000
0000
,
0000
0000
0000
0000
,
0000
0000
0000
0000
,
0000
0000
0000
0000
,
0000
0000
0000
0000
0000
0000
0000
0000
0001
0000
0000
1000
0000
0000
0010
0000
,
0100
0000
0000
0001
0000
0000
1000
0000
0100
0000
0000
0001
0000
0000
1000
0000
,
0010
0000
0000
0100
0000
0000
1000
0000
0001
0000
0000
0100
0000
0000
1000
0000
,
0010
0000
0000
1000
0000
0000
0100
0000
0001
0000
0000
1000
0000
0000
0010
0000
,
0100
0000
0000
1000
0000
0000
0001
0000
1000
0000
0000
0000
0010
0000
0000
0000
,
0100
1000
0001
0000
1000
0000
0001
0000
,
0010
0001
0010
0000
1000
1000
0001
1000
,
0010
1000
0100
0010
2002
0000
0000
0000
,
0000
0000
0000
0000
0000
0000
3003
0000
1000
0000
0100
0010
0001
0000
0010
0100
,
1000
0000
0100
0010
0001
0010
0100
0000
2000
0000
0000
0000
0020
0000
3030
0000
,
1000
0000
0010
0000
1000
0000
0000
0000
0010
0000
0001
1000
0010
0000
0001
1000
,
0100
0000
1000
0001
0100
0000
0100
1000
0001
0000
0010
0000
1000
0000
0000
0000
,
0020
0000
0000
0000
0100
0000
0130
0000
1000
0000
0001
1000
0100
0000
0001
1000
,
0010
0000
0001
0100
0010
0000
1000
0000
0100
0000
0001
0000
2000
0000
0000
0000
,
0002
0000
0000
0000
0000
0000
3003
0000
1000
0000
0100
0001
1000
0000
0001
1000
,
0010
0000
1000
0001
0010
0000
0001
1000
0100
0000
0001
0000
1000
0000
0000
0000
,
0202
0000
0000
0303
0001
0000
1000
0000
,
0010
0000
1000
0010
1000
0000
0100
0000
,
1000
0000
0010
0000
0010
0001
0010
0100
,
1000
1000
0010
0001
0100
0100
1000
0001
,
0100
1000
0010
0000
0001
0010
0001
0000
,
0100
1000
0100
0000
0010
1000
0010
0100
,
1000
0001
0010
0000
0001
1000
0001
0000
,
1000
0010
1000
0000
0100
0000
1000
0000
,
0202
0000
0000
0303
0001
0000
1000
0000
,
0100
0000
1000
0000
0010
1000
0010
0100
,
1000
0001
0010
1000
0001
0000
0100
0000
,
0010
1000
0010
0000
0010
0001
0010
0100
,
1000
0100
0001
1000
0001
0000
1000
0000
,
0010
1000
0010
0000
0100
0000
1000
0000
,
0001
0010
0001
0000
1000
0100
0001
0000
,
0001
0000
1000
0000
0001
0000
0000
0000
0010
0000
0000
1000
0000
0000
0001
0000
,
0100
0000
0000
0010
0000
0000
0100
0000
2002
0000
0000
0000
0000
0000
0000
0000
,
0000
0000
0000
3003
0002
0000
0000
0000
,
1000
0000
1000
1000
,
2000
0000
0000
3003
0010
0000
1000
0000
,
0100
0000
0000
0000
0010
0000
0000
0000
0001
0000
1000
0100
0001
0010
1000
0000
,
0010
0000
0100
0010
1000
0001
0010
1000
0001
0000
0000
0000
1000
0000
0000
0000
,
0100
1000
0100
0000
0010
1000
0010
0100
,
0001
0000
0001
0000
1000
0010
1000
0000
,
0010
0100
0010
0000
0001
1000
0100
1000
,
0001
0000
0000
1000
0000
0000
0001
0000
0100
0000
0000
0000
0010
0000
0000
0000
,
1000
0010
0100
1000
0000
0001
0000
1000
,
0000
0100
1000
0010
0001
1000
0010
0000
,
0100
1000
0010
0000
0102
0100
0103
2000
,
0001
3001
1002
1003
0010
1000
0100
1000
,
0010
0000
1000
0000
0100
0000
1000
0100
0001
0000
0010
0000
0001
0000
1000
0000
,
0100
0000
0010
0000
1000
0000
0001
1000
0100
0000
0010
0001
1000
0000
0001
1000
,
0100
0000
0010
0001
1000
0001
0010
0100
2002
0000
0000
0000
0000
0000
0000
0000
,
0000
0000
0000
0000
0000
0000
3003
0000
1000
0000
0100
0010
0001
0000
0010
0100
,
1000
0000
0100
0010
0001
0010
0100
0000
2000
0000
0000
0000
0020
0000
3030
0000
,
1000
0000
0010
0000
1000
0000
0000
0000
0010
0000
0001
1000
0010
0000
0001
1000
,
0100
0000
1000
0001
0100
0000
0100
1000
0001
0000
0010
0000
1000
0000
0000
0000
,
0020
0000
0000
0000
0100
0000
0130
0000
1000
0000
0001
1000
0100
0000
0001
1000
,
0010
0000
0001
0100
0010
0000
1000
0000
0100
0000
0001
0000
2000
0000
0000
0000
,
0002
0000
0000
0000
0000
0000
3003
0000
1000
0000
0100
0001
1000
0000
0001
1000
,
0010
0000
1000
0001
0010
0000
0001
1000
0100
0000
0001
0000
1000
0000
0001
0000
,
0100
0001
1000
0100
0001
0010
0100
0010
2002
0000
0000
0000
0000
0000
0000
0000
,
0000
3003
0000
0000
;
