#TITLE:Liar;
#ARTIST:zts;
#GENRE:TECHNO TRANCE;
#MUSIC:Liar.ogg;
#BANNER:Liar.png;
#BACKGROUND:Liar-bg.png;
#SAMPLESTART:86.459;
#SAMPLELENGTH:15;
#OFFSET:-0.316;
#BPMS:0=140;

//--------------- dance-single - XLev450X-bSP ----------------
#NOTES:
     dance-single:
     XLev450X:
     Beginner:
     4:
     0,0,0,0,0:
0000
0000
0000
0000
,
0000
0000
0000
0000
,
0000
0000
0000
0000
,
0000
0000
0000
0000
,
0000
0001
0001
0001
,
0000
1000
1000
1000
,
0000
0010
0010
0010
,
2002
0000
0000
0000
,
3003
0001
1000
0001
,
0000
1000
0010
1000
,
0000
0100
0010
0100
,
0000
0001
1000
0001
,
0000
0001
1000
0010
,
1000
0100
0001
0010
,
0000
1000
0001
0100
,
0010
2001
0000
0000
,
3000
0001
1000
0010
,
0000
1000
0100
0001
,
0000
1000
0001
0100
,
0010
0000
1000
0010
,
0100
0000
1000
0001
,
1000
0000
0010
0010
,
0010
0000
0100
1000
,
0001
1000
0010
0100
,
0000
0010
0100
1000
,
0001
0010
0100
1000
,
0000
1000
0001
0100
,
0010
0000
1000
0010
,
0100
1000
0001
0100
,
0000
1000
0001
0100
,
0000
0010
1000
0001
,
0010
2002
0000
0000
,
3003
0220
0000
0000
,
0000
0000
0000
0000
,
0330
1001
0000
0000
,
0000
0000
0000
0000
,
0000
0000
0000
0000
,
0000
0000
0000
0000
,
0000
0110
0000
0000
,
0000
0000
0000
0000
,
0000
0000
0000
0000
,
0000
0000
0000
0000
,
0000
0001
1000
0001
,
0000
1000
0100
1000
,
0000
0010
1000
0010
,
0000
0001
0010
0001
,
0000
0100
1000
0001
,
0000
0100
0010
0100
,
0000
2002
0000
0000
,
0000
0000
0000
0000
,
3003
0010
0010
1000
,
0000
1000
0001
1000
,
0000
0100
1000
0001
,
0000
0100
0010
1000
,
0000
0010
0010
1000
,
0000
0100
0001
1000
,
0000
0100
0001
1000
,
0000
2020
0000
0000
,
3030
0001
1000
0001
,
0010
1000
0001
0100
,
0000
1000
0010
1000
,
0000
0100
0001
0100
,
0000
0010
1000
0010
,
0000
0001
0010
0001
,
0000
1000
0100
0010
,
0000
1001
0000
0000
,
0000
0010
1000
1000
,
0000
0100
0001
1000
,
0000
0100
1000
0010
,
1000
0001
0100
0010
,
0000
1000
0001
0100
,
0010
1000
0001
0010
,
0000
1000
0010
0100
,
0001
1001
0000
0000
,
0000
0210
0000
0000
,
0000
0300
0000
0000
;

//--------------- dance-single - XLev450X-BSP ----------------
#NOTES:
     dance-single:
     XLev450X:
     Easy:
     7:
     0,0,0,0,0:
0000
0000
0000
0000
,
0000
0000
0000
0000
,
0000
0000
0000
0000
,
0000
0000
0000
0000
,
0000
0000
1000
0000
0001
0000
1000
0010
,
1000
0000
0100
0000
1000
0000
0001
0010
,
0001
0000
1000
0000
0100
0000
1000
0010
,
1000
0101
0000
0110
0000
1010
0000
0110
,
0000
1001
0001
0000
1000
0000
0001
0000
,
1000
0000
0010
1000
0010
0000
0100
0000
,
0000
1000
0010
1000
,
0001
0000
0001
0010
0001
0000
1000
0010
,
1000
0100
1000
0001
,
0100
0000
0010
1000
0010
0000
1001
0000
,
0000
0000
1000
0000
0001
0000
0100
0010
,
0100
2002
0000
0000
,
0000
3003
0010
0000
0010
0000
1000
0000
,
0001
0000
0100
0000
1000
0000
0010
1000
,
0010
0100
1000
0001
,
0100
0000
1000
0001
1000
0001
1000
0010
,
1000
0100
1000
0001
,
0100
1000
0010
0100
,
0000
1000
0001
1000
,
0010
0000
1000
0010
1000
0000
0100
0001
,
0010
1000
0001
1000
,
0001
0000
0100
0000
1000
0000
0010
0100
,
0010
1000
0001
0010
,
1000
0000
0000
0011
0000
1100
0000
0110
,
0000
1001
0001
0000
1000
0000
0010
0000
,
0100
0000
1000
0010
1000
0000
0100
0000
,
0010
0000
0001
0010
0001
0000
1000
0001
,
0100
0000
0010
0000
1000
0000
0010
1000
,
0001
1000
0120
0000
0000
0000
0000
0000
,
0000
0000
0000
0000
,
0000
0030
0001
0000
0000
0000
1000
0000
,
0000
0001
0000
1000
,
0010
1000
0000
0001
,
0000
0100
0000
1000
,
0001
0100
0000
1000
,
0000
0010
1000
0001
,
0000
1010
0000
0101
,
0000
0000
0010
1000
,
0001
0000
0100
0000
1000
0000
0001
0010
,
0001
1000
0100
1000
,
0000
0010
1000
0100
,
1000
0000
0001
0100
0001
0000
1000
0010
,
1000
0100
1000
0001
,
0000
0000
1000
0000
0010
1000
0000
0001
,
0100
0000
0010
0000
1000
0000
0010
0001
,
0010
0220
0000
0330
,
2002
3003
0001
0000
1000
0000
0010
0100
,
0010
1000
0010
0101
,
0000
0000
1000
0000
0010
0000
1000
0010
,
1000
0001
0010
0100
,
1001
0000
0001
0000
0100
0000
1000
0010
,
1000
0000
0100
0000
0001
0000
0010
0001
,
0010
0000
1000
0000
0010
0000
0100
1000
,
0010
0100
1002
0000
1000
0000
1000
0000
,
1000
0003
0010
0000
1000
0000
0100
0000
,
0001
0000
0001
0010
0001
0000
1000
0010
,
1000
0100
1000
0001
,
0100
0000
1000
0010
0100
0001
1000
0000
,
0101
1000
0010
1000
,
1000
0000
0001
0100
0001
0000
1000
0010
,
0100
1000
0001
1000
,
0100
0000
1000
0001
0100
0000
1000
0000
,
0000
0001
0100
1000
,
0001
0000
0100
0001
0100
0000
1000
0010
,
1000
0010
0100
0010
,
1000
0000
0001
0010
0001
0000
1000
0100
,
1000
0001
1000
0010
,
0100
0000
1000
0010
1000
0000
0001
0010
,
0001
0000
1000
0001
1000
0000
0010
0100
,
0010
0000
0001
0000
1000
0000
0010
0100
,
0010
2002
0000
0000
,
0000
3003
0000
0000
;

//--------------- dance-single - XLev450X-DSP ----------------
#NOTES:
     dance-single:
     XLev450X:
     Medium:
     12:
     0,0,0,0,0:
0000
0000
0000
0000
,
0000
0000
0000
0000
,
0000
0000
0000
0000
,
0000
0000
0000
0000
,
0000
0000
1001
0000
0010
1000
0010
0000
,
0100
0000
0001
0000
0010
0001
0010
0000
,
1000
0001
0100
0010
1000
0001
0010
0100
,
0010
0101
0000
1010
0000
0110
0000
1001
,
0000
0001
1000
0010
1000
0000
1100
0000
,
0011
0000
1000
0001
0100
0010
1000
0001
,
0100
0000
0010
1000
0001
0000
1000
0100
,
0001
1000
0010
0000
1000
0000
0001
0100
,
0010
0000
1000
0000
0001
0000
0100
1000
,
0001
0000
1000
0000
0010
0000
1000
0001
,
0100
0010
1000
0000
0001
0000
0100
0010
,
0001
0000
0000
0000
1000
0100
1000
0000
0010
0100
0010
0000
0001
0010
0001
0000
,
1001
0000
0000
0000
0010
0000
1000
0000
0010
0000
0100
0000
0001
0000
0000
1000
,
0000
0001
0000
0100
0000
0000
0001
0000
1000
0000
0000
0000
0010
0000
0000
0100
,
0000
0001
0000
1000
0000
0000
0010
0000
1000
0000
0001
0000
0010
0000
0000
0100
,
0000
0001
0000
1000
0000
0000
0011
0000
0000
0000
1100
0000
0000
0000
0110
0000
,
0000
0001
1000
0010
1000
0000
1100
0000
,
0001
0000
1000
0001
1000
0010
1000
0010
,
0100
0000
1000
0000
0001
0000
0100
0010
,
1000
0000
0010
0000
1000
0000
0001
1000
,
0001
0101
1010
0110
,
0110
0011
1100
0110
,
1001
0011
1100
1100
,
1100
0000
0000
1001
0000
1010
0000
0110
,
0000
0011
0011
0000
0011
0000
1100
0000
,
1001
0000
0001
1000
0010
1000
0100
0001
,
1000
0120
0100
0100
,
0100
0000
0130
0000
0001
1000
0010
0100
,
0001
1000
0020
0000
0000
0000
0000
0000
,
0000
0000
0000
0000
,
0000
0030
0001
0000
0000
0000
1000
0000
,
0000
0000
0110
0000
0000
0011
0000
0000
,
0000
1100
0000
1001
,
0000
0000
0010
0000
0000
0100
0000
0000
,
0001
1000
0000
0010
,
0000
0000
0100
0000
0000
0010
0000
0000
,
0000
0000
1010
0000
0000
0101
0000
0000
,
0000
0000
1000
0001
,
0100
0000
0010
0001
0010
0000
0100
0000
,
1000
0000
0010
1000
0001
0100
0000
0010
,
1000
0000
0001
0000
0100
0000
1000
0001
,
0100
0000
1000
0000
0010
0100
0000
0001
,
1000
0000
0001
0000
1000
0000
0001
0010
,
0001
0000
0100
0000
1000
0001
0000
0000
,
0100
0000
0010
0000
1000
0010
0100
0001
,
0010
0100
0002
0000
0000
0000
0000
0000
,
2000
0000
3003
0000
0001
0000
1000
0000
0010
0000
0100
0000
0001
0000
0000
1000
,
0000
0100
0000
0010
0000
0000
0001
0000
0010
0000
1000
0000
0001
0000
0000
0100
,
0000
1000
0000
0100
0000
0000
0001
0000
1000
0000
0010
0000
0100
0000
0000
1000
,
0000
0001
0000
0100
0000
0000
1000
0000
0001
0000
0010
0000
1000
0000
0000
1000
,
0000
0001
0000
0100
0000
0000
1000
0000
0010
0000
1000
0000
0010
0000
0000
1000
,
0000
0001
0000
0100
0000
0000
1000
0000
0001
0000
1000
0000
0010
0000
0000
0100
,
0000
1000
0000
0001
0000
0000
1000
0000
0010
0000
0100
0000
1000
0000
0000
0001
,
0000
1000
0000
0010
0000
0000
1000
0000
0001
0000
0100
0000
0010
0000
0000
1000
,
0000
0001
0000
0100
1000
0000
0100
0000
0001
0000
0000
0000
0001
0000
0000
0000
,
1000
0000
0010
1000
0010
0000
0100
0000
,
1000
0000
0001
0100
0001
0000
1000
0010
,
1000
0000
0010
0100
0010
0000
0011
0000
,
1100
0000
0001
0000
1000
0000
0010
0100
,
1000
0001
1000
0100
,
1000
0000
0010
1000
0010
0000
0100
1000
,
0100
0001
0100
1000
,
0000
0000
0001
0000
1000
0000
0010
1000
,
0010
0100
0001
0000
1000
0000
0001
0100
,
1000
0000
0001
0000
1000
0000
0010
1000
,
0010
0000
0100
0000
1000
0000
0010
0100
,
1000
0001
0100
0000
1000
0000
0010
0100
,
1000
0000
0101
0000
1010
0000
0010
1000
,
0001
0000
0001
0000
1000
0000
1000
0010
,
1000
0000
0000
0000
1000
0100
1000
0000
0001
0010
0000
0001
0100
0010
0000
0100
,
0000
0001
0000
1000
0200
0000
0000
0000
0000
0000
0000
0000
0000
0000
0000
0000
,
0000
0300
0000
0000
;

//--------------- dance-single - XLev450X-ESP ----------------
#NOTES:
     dance-single:
     XLev450X:
     Hard:
     16:
     0,0,0,0,0:
0000
0000
0000
0000
,
0000
0000
0000
0000
,
0000
0000
0000
0000
,
0000
0000
0000
0000
,
0000
0000
1000
0010
1000
0000
0001
0000
0100
0000
0000
0000
0010
0000
0000
0000
,
0001
1000
0001
0100
0010
0001
1000
0000
,
0010
0000
0000
0000
1000
0000
0001
0000
0100
0000
0010
0000
1000
0000
0001
1000
,
0010
1100
0000
0101
0000
1010
0000
0110
,
0000
0000
0001
0000
1000
0000
0010
1000
0100
0000
0010
0001
0010
0000
1000
0000
,
0010
0000
0100
0000
0010
0000
1000
0010
1000
0000
0100
0001
0100
0000
0010
0000
,
1000
0000
0001
0000
0100
0000
0001
0100
0001
0000
1000
0010
1000
0000
0010
0100
,
0010
1000
0001
0000
1000
0000
0010
0000
0100
0001
0000
0000
1000
0000
0010
0000
,
0100
0000
0000
0000
0010
0001
0010
1000
0010
0000
0100
0000
0001
0000
1000
0000
,
0100
0000
0000
0000
0010
1000
0010
0100
0001
0000
1000
0000
0010
0000
0100
0000
,
1000
0000
0001
0000
0010
0100
0010
1000
0001
0100
0010
1000
0001
0000
0100
0000
,
0010
0000
1000
0000
0010
0001
0100
1000
0010
1000
0100
0001
0100
0010
1000
0000
,
0001
0000
0100
1000
0010
0000
1000
0000
0001
0000
0100
0000
0001
0000
1000
0001
,
1000
0000
0010
0000
0100
0000
1000
0000
0001
0000
0100
0000
0010
0000
1000
0001
,
0000
0100
0000
0010
1000
0000
0001
0100
0001
0000
0010
0000
0001
0000
0010
0000
,
0001
1000
0000
0010
0100
0000
0001
0010
0001
0000
1000
0100
1000
0000
0010
0100
,
0010
0000
1000
0100
0001
0000
0100
0000
0010
0000
1000
0000
0001
0000
0100
0001
,
0000
1000
0000
0010
0100
0000
0010
1000
0010
0000
0100
0000
0001
0000
0100
1000
,
0010
0000
0001
0000
0100
0000
0001
0000
1000
0000
0001
0000
0100
0001
0000
1000
,
0000
0000
0001
0000
0100
0000
0000
0000
0010
0000
1000
0000
0010
0000
0100
0000
0001
0000
1000
0000
0010
0000
0100
0000
0001
0000
0100
0000
1000
0001
1000
0000
,
0010
0000
1000
0100
0001
0000
0100
0000
0010
0000
1000
0000
0001
0000
0100
0000
,
0010
0000
0001
0000
0010
0000
0001
0010
0001
0000
1000
0010
1000
0000
0010
0100
,
0010
0000
0001
0000
1000
0000
0001
0100
0001
0000
1000
0000
0010
0000
1000
0100
,
0001
0000
1000
0000
0010
0000
0001
0100
0001
0000
0010
1000
0010
0000
0010
0100
,
0010
0000
0001
1000
0001
0000
0001
0010
0001
0000
1000
0000
0010
0000
0100
0000
,
1000
0000
0001
0000
0100
0000
0001
0100
0001
0000
1000
0000
0010
0000
1000
0010
,
1000
0000
0001
0000
0100
0001
0100
0000
0010
1000
0010
0000
0100
0010
0100
0000
,
0001
1000
0100
0010
0001
1000
0100
0010
0001
0010
0100
1000
0010
1000
0001
0100
,
1000
0001
0010
1000
0200
0000
0000
0000
0000
0000
0000
0000
0000
0000
0000
0000
,
0000
0000
0000
0000
,
0300
1001
0000
0011
,
0000
0000
1100
0000
0000
0110
0000
0000
,
0000
0011
0000
1000
,
0000
0000
0001
0000
0000
0100
0000
0000
,
0000
1000
0000
0001
,
0000
0000
1010
0000
0000
0101
0000
0000
,
0000
0000
0110
0000
0000
1001
0000
0000
,
0000
0000
1000
0001
,
0010
0000
0000
0000
1000
0000
0001
0000
0100
0000
0010
0001
0010
0000
1000
0000
,
0010
0000
0100
1000
0010
0100
0000
0001
,
1000
0000
0000
0000
0010
0000
1000
0000
0001
0000
0100
0001
0100
0000
0010
0000
,
1000
0000
0010
0000
0100
0000
0000
0000
0001
0000
1000
0000
0000
0010
0000
0000
,
0100
0000
0000
0000
0001
0000
1000
0000
0010
0000
1000
0010
1000
0000
0001
0000
,
1000
0000
0010
0000
0100
0000
0000
0000
0001
0000
1000
0000
0000
0010
0000
0000
,
0100
0000
1000
0000
0001
0100
0001
0100
,
1000
0000
0001
1000
0020
0000
0000
0000
0000
0000
0000
0000
0030
0000
0000
0000
,
2002
0000
3003
0000
0010
1000
0010
0100
1000
0001
0100
1000
0010
0000
0000
0100
,
0000
0001
0000
1000
0000
0010
0100
0001
0100
1000
0001
1000
0010
0000
0000
0100
,
0000
0001
0000
1000
0000
0001
0100
1000
0010
0001
1000
0100
0001
0000
0000
0100
,
0000
0010
0000
1000
0000
0001
0100
1000
0010
0001
1000
0100
0001
1000
0000
0010
,
0000
0100
0000
0001
1000
0100
0001
1000
0010
0001
0100
1000
0001
0000
0000
1000
,
0000
0000
0010
0000
0000
0000
0100
0000
0000
0000
0010
0000
0001
0000
0100
0000
1000
0000
0010
0000
0001
0000
1000
0000
0100
0000
0000
0000
0001
0100
1000
0000
,
0010
0001
0000
0100
0010
0100
0010
0100
0010
1000
0001
1000
0010
0000
0000
0010
,
0000
0001
0000
1000
0000
1000
0001
0010
0100
1000
0010
1000
0010
0000
0000
0100
,
0000
1000
0000
0010
0001
0000
0000
0000
1000
0000
0000
0000
0010
0000
0100
0000
,
1000
0000
0010
0000
0001
0000
0010
0001
0010
0000
1000
0010
1000
0000
0010
0000
,
0100
0000
0000
0000
0001
0000
1000
0000
0010
0000
0100
0000
0010
0000
0000
0001
,
0000
1000
0000
0010
0000
0100
0001
0000
1000
0000
0010
0000
0100
0000
0001
1000
,
0010
0000
0000
0000
0001
0000
0010
0000
0001
0010
0001
0000
1000
0000
0010
0000
,
1000
0010
1000
0000
0010
0000
0100
0000
0001
1000
0001
0000
0100
0000
0010
0000
,
1000
0000
0000
0000
0001
0000
0010
0000
0100
0001
0100
0000
0010
0000
0000
1000
,
0010
1000
0001
0000
0100
0000
0000
0000
1001
0000
0000
0000
0110
0000
0000
0000
,
1001
0000
0000
0000
0010
0000
0001
0010
0001
0000
1000
0000
0010
0000
1000
0000
,
0010
0000
0000
0000
0100
0000
0001
0000
1000
0000
0010
0000
0100
0000
0000
0001
,
0000
1000
0000
0010
0000
0000
1000
0000
0010
0000
0000
0000
0100
0000
0000
0001
,
0000
0100
0000
0001
0000
0000
1000
0000
0010
0000
0000
0000
1000
0000
0010
1000
,
0010
0100
0001
1000
0010
0000
0100
1000
,
0001
0100
0010
0001
1000
0010
0001
1000
,
0010
0000
0001
0000
0010
1000
0100
0010
0001
0010
0001
0100
0001
0100
0010
1000
,
0001
1000
0010
0100
0001
1000
0000
0000
0010
0100
0000
0001
1000
0000
0001
0100
,
0000
0010
0000
0001
2000
0000
0000
0000
0000
0000
0000
0000
0000
0000
0000
0000
,
0000
3000
0000
0000
;
