#TITLE:Lethal Weapon;
#ARTIST:BEMANI Sound Team "HuΣeR";
#ARTISTTRANSLIT:HuΣeR;
#GENRE:RECKLESS HARDCORE;
#MUSIC:Lethal Weapon.ogg;
#BANNER:Lethal Weapon.png;
#BACKGROUND:Lethal Weapon-bg.png;
#CDTITLE:./CDTitles/bm IIDX 26 Rootage.png;
#SAMPLESTART:44.939;
#SAMPLELENGTH:15;
#OFFSET:0.380;
#BPMS:0=180
,200=90
,215=180
,248=90
,251=180;
#STOPS:215=0.333
,251=0.333;
#BGCHANGES:-0.250=Lethal Weapon.mp4=1.000=0=0=0=StretchNoLoop====,
99999.000=-nosongbg-=1.000=0=0=0=StretchNoLoop====;
#BGSTAGE:30;

//--------------- dance-single - XLΣv450X-bSP ----------------
#NOTES:
     dance-single:
     XLΣv450X:
     Beginner:
     4:
     0,0,0,0,0:
0000
0000
0000
0000
,
0000
0000
0000
0000
,
0000
0000
0000
0000
,
0000
0000
0000
0000
,
0000
0000
0000
0000
,
0000
0000
0000
0000
,
0000
0000
0000
0000
,
0000
0000
0000
0000
,
0000
0000
0000
0000
,
0000
0000
0000
0000
,
0001
1000
0001
0000
,
0010
1000
0010
0000
,
0100
0010
0100
0000
,
0001
0010
0001
0000
,
0001
0001
1000
1000
,
0010
0010
0100
0100
,
0001
1000
0001
1000
,
1001
0000
0000
0000
,
0010
1000
0010
0000
,
0001
0000
1000
0000
,
0001
0100
0001
0000
,
1000
0000
1000
0000
,
0010
0010
0100
0000
,
0001
0001
1000
0000
,
0001
0000
1000
0000
,
0001
0000
0000
0000
,
1000
1000
0000
0000
,
0000
0000
0000
0000
,
0001
0001
0000
0000
,
0000
0000
0000
0000
,
0100
0100
0000
0000
,
0000
0000
0000
0000
,
0010
0010
0000
0000
,
0000
0000
0000
0000
,
0001
0000
1000
0000
,
0001
0000
0000
0000
,
0010
0000
1000
0000
,
0010
0000
0000
0000
,
0100
0000
0010
0000
,
0100
0000
0000
0000
,
1001
0000
0000
0000
,
0000
0000
0000
0000
,
0001
0000
1000
0000
,
0100
0000
0000
0000
,
0001
0000
1000
0000
,
0010
0000
0000
0000
,
1000
0000
0010
0000
,
1000
0000
0000
0000
,
0001
0000
0100
0000
,
0001
0000
0000
0000
,
0001
0000
0000
0000
,
1000
0000
0000
0000
,
0010
0000
0000
0000
,
0100
0000
0000
0000
,
0001
1000
0001
0000
,
0001
0000
1000
0000
,
0010
1000
0010
0000
,
0100
0000
0001
0000
,
1000
1000
0001
0000
,
0100
0100
0010
0000
,
1000
0000
0001
0000
,
1000
0000
0000
0000
,
1001
0000
0000
0000
,
0001
1000
0001
0000
,
0010
0000
1000
0000
,
0100
0100
0010
0000
,
0001
0001
1000
0000
,
0001
0000
0100
0000
,
1000
0000
0000
0000
,
0001
0001
0000
0000
,
1000
1000
0000
0000
,
0010
1000
0000
0000
,
0100
0001
0000
0000
,
0001
1000
0001
0000
,
0100
0010
0100
0000
,
0010
1000
0010
0000
,
0001
0000
0000
0000
,
1000
0000
0001
0000
,
1000
0001
1000
0000
,
0010
1000
0010
0000
,
0100
0000
0001
0000
,
1000
0000
0000
2002
,
0000
0000
0000
0000
,
3003
0000
0000
0000
;

//--------------- dance-single - XLΣv450X-BSP ----------------
#NOTES:
     dance-single:
     XLΣv450X:
     Easy:
     9:
     0,0,0,0,0:
0000
0000
0000
0000
,
0000
0000
0000
0000
,
0000
0000
0000
0000
,
0000
0000
0000
0000
,
0000
0000
0000
0000
,
0000
0000
0000
0000
,
0000
0000
0000
0000
,
0000
0000
0000
0000
,
0000
0000
0000
0000
,
0000
0000
0000
0000
,
0001
1000
0010
1000
,
0100
0001
1000
0001
,
0010
0000
1000
0000
0010
0000
0001
0010
,
0001
1000
0100
1000
,
0010
0000
1000
0000
0001
0000
1000
0010
,
1000
0001
0100
1000
,
0001
0100
0001
0000
1000
0010
1000
0000
,
0010
0100
0010
0100
2002
0000
0000
3003
,
0010
0000
1000
0001
0000
0100
0001
0000
,
0100
1000
0001
0010
,
1000
0000
0001
0000
0010
0000
0000
0100
,
0000
1000
0000
0010
0000
1000
0000
0100
,
1000
0001
1000
0001
,
1000
0100
1000
0001
,
0001
0010
0001
0000
1000
0010
1000
0000
,
0001
0000
0100
0000
0010
0000
2002
3003
,
0010
0000
1000
0000
0000
0001
0010
0000
,
0000
1000
0100
0000
0001
0000
1000
0000
,
0010
0000
0100
0000
0001
0000
0000
0101
,
0000
1010
0000
0110
0000
1001
0000
0001
,
1000
0000
0010
0000
0000
1000
0100
0000
,
0000
0001
0010
0000
1000
0000
0001
0000
,
0010
0000
1000
0000
0100
0000
0001
0010
,
0001
1000
0001
0100
0010
0200
0020
0330
,
0001
1000
0001
1000
,
0010
0000
0100
1000
0100
0000
0001
0000
,
0010
0000
0001
0010
0001
0000
1000
0010
,
1000
0001
0100
1000
,
0001
0100
1000
0010
,
0001
1000
0010
0100
,
0001
0000
0000
1000
0000
0001
0010
0000
,
1000
0000
0100
0002
0000
2000
0000
3003
,
0001
0010
0001
1000
,
0202
0303
0010
0000
1000
0000
0010
0000
,
2020
3030
0001
0000
0022
0033
0001
0000
,
2002
3003
0010
0000
2020
3030
0001
0000
,
1000
0100
1000
0001
,
0010
0001
0010
0000
1000
0000
0100
0000
,
1000
0010
1000
0000
0100
1000
0100
0000
,
0001
0010
1000
0001
0200
0000
0002
0303
,
1000
0000
0001
0000
0100
1000
0010
1000
,
0100
0000
0001
0000
1000
0001
0010
0000
,
1000
0000
0100
0000
1000
0000
0001
1000
0100
0000
0010
0000
1000
0000
0001
0100
,
0010
0000
1000
0000
0100
0000
0001
0100
1000
0001
0010
1000
0200
0000
0300
0000
,
0001
0000
0000
1000
0000
0000
0001
0000
,
0000
0100
0000
0000
0010
0000
1000
0000
,
0100
0000
0000
0001
0000
0000
1000
0000
,
0000
0001
0000
0000
0100
0000
0010
0000
,
0001
0010
0001
0000
,
1000
0100
1000
0000
,
0010
1000
0001
0010
,
0001
1000
0001
1000
0002
0000
2000
3003
,
0002
0203
0320
0130
,
0001
1000
0001
1000
,
0100
0000
1000
0000
0010
1000
0100
1000
,
0001
0010
1000
0001
,
0100
1000
0010
0000
,
0001
0010
1000
0100
,
1000
0010
1000
0002
0000
0200
0000
0303
,
0001
1000
0010
0100
,
1000
0001
0001
0000
,
1000
0100
1000
0010
,
0100
1000
0202
0303
,
1000
0010
1000
0100
,
0001
1000
0001
0000
,
1000
1000
0010
0100
,
1000
0000
0001
0000
0020
0000
0200
0330
,
1000
0100
0001
0010
,
1000
0100
1000
0001
,
0010
0001
0010
0000
1000
0010
1000
0000
,
0001
0000
0100
0000
0020
0000
0200
0330
,
1000
0001
0100
0010
1000
0001
0220
0000
,
0000
0000
0000
0000
,
0330
0000
0000
0000
;

//--------------- dance-single - XLΣv450X-DSP ----------------
#NOTES:
     dance-single:
     XLΣv450X:
     Medium:
     13:
     0,0,0,0,0:
0000
0000
0000
0000
,
0000
0000
0000
0000
,
0000
0000
0000
0000
,
0000
0000
0000
0000
,
0000
0000
0000
0000
,
0000
0000
0000
0000
,
0000
0000
0000
0000
,
0000
0000
0000
0000
,
0000
0000
0000
0000
,
0000
0000
0000
0000
,
0001
0000
1000
0000
0010
0000
1000
0010
,
1000
0000
0001
0000
0010
0000
0001
1000
,
0001
0000
0010
1000
0010
0000
0001
0010
,
0001
0000
1000
0000
0100
0000
1000
0001
,
1000
0000
0010
0000
1000
0000
0001
1000
,
0001
0010
1000
0100
,
0001
1000
0010
1000
0100
1000
0001
0010
,
1000
0100
0001
0000
0100
0000
0010
1000
0002
0000
0000
0000
2000
0000
3003
0000
,
1000
0000
0001
0000
0010
1000
0010
1000
,
0000
0001
0010
0001
0000
0100
2000
3000
,
0001
0000
0100
0000
1000
0001
0000
1100
,
0000
1010
0000
1001
0000
0110
0000
1001
,
0100
0000
0010
0000
1000
0001
1000
0010
,
0000
0001
0010
0000
1000
0100
1000
0000
,
0101
1010
0010
1000
,
0001
0000
0010
0000
0001
0000
1000
0000
0100
0000
0001
0000
2000
0000
0000
3000
,
0001
0000
1000
0000
0100
1000
0001
1000
,
0000
0010
1000
0010
0000
0001
0010
0001
,
1000
0000
0100
0000
1000
0001
0000
0101
,
0000
1010
0000
1100
0000
1010
0000
0110
,
0010
0000
0001
0000
0010
0001
1000
0100
,
0000
1000
0001
1000
0010
0000
1000
0000
,
0010
1000
0010
0000
0001
0010
0001
0000
,
1000
0100
1000
0001
0010
1000
0002
0003
,
0001
0000
1000
0000
0010
1000
0010
0100
,
1000
0001
0010
0001
1000
0010
1000
0001
,
0100
0000
1000
0000
0001
0000
0100
1000
,
0100
1000
0010
1000
0010
1000
0001
0010
,
0001
0000
1000
0000
0100
1000
0001
0000
,
0010
1000
0010
0000
0001
0000
1000
0000
,
0001
0100
1000
0000
0010
1000
0010
0000
,
0001
0010
0001
1000
0200
0000
0020
0330
,
0001
0000
1000
0000
0001
1000
0001
0000
,
0010
0000
1000
0000
0100
1000
0010
0000
,
0010
1000
0100
1000
0001
0010
1000
0001
,
0100
1000
0001
1000
0010
1000
0001
0000
,
0010
0000
0000
1000
0000
0000
0010
0000
0100
0000
0000
1000
0000
0000
0100
0000
,
0001
0000
0000
0010
0000
0000
0001
0000
1000
0000
0000
0100
0000
0000
1000
0000
,
0001
1000
0010
1000
0001
0100
1000
0001
,
0010
1000
0001
0100
2000
0000
0020
3030
,
0001
0000
1000
0000
0001
0000
0100
1000
0100
0000
0010
0000
1000
0000
0100
0010
,
0001
0000
1000
0001
0010
0000
1000
0100
0001
0000
0100
0010
1000
0000
0010
0100
,
1000
0000
0001
0000
0100
0000
0001
0100
1000
0000
0001
0000
1000
0000
0001
0010
,
0001
1000
0010
0100
1000
0001
0100
0010
0001
1000
0100
0001
0020
0000
0030
0000
,
0001
0000
0000
0100
0000
0000
1000
0000
0000
0100
0000
0000
0010
0000
0000
0001
,
0000
0000
0100
0000
0000
0010
0000
0000
1000
0000
0001
1000
0010
0000
1000
0000
,
0001
0000
0000
0010
0000
0000
0100
0000
0000
1000
0000
0000
0001
0000
0000
0100
,
0000
0000
0010
0000
0000
0001
0000
0000
1000
0000
0001
0100
1000
0000
0100
0000
,
0001
0000
0000
1000
0000
0000
0001
0000
0000
0100
0000
0000
1000
0000
0001
0000
,
0010
0000
0000
1000
0000
0000
0100
0000
1000
0000
0000
0100
0000
0000
0001
0000
,
0001
0010
0001
0000
1000
0100
1000
0000
0001
0100
1000
0000
0100
1000
0100
0000
,
0001
0100
1000
0100
0001
0010
0100
1000
0200
0000
0000
0000
0002
0000
0303
0000
,
0002
0000
0000
0000
1003
0000
0001
0000
0100
0000
0010
1000
0020
0000
0030
0000
,
0001
0000
1000
0000
0010
1000
0010
1000
,
0000
0001
0010
0001
1000
0100
1000
0001
,
0010
0000
1000
0000
0001
0000
0010
1000
,
0010
0000
0001
0010
0001
0000
1000
0010
,
1000
0100
1000
0001
0010
1000
0001
0010
,
1000
0001
0010
0001
2000
0002
0000
3003
,
0001
0000
1000
0000
0010
1000
0010
0000
,
0010
0000
0100
0000
1000
0000
0001
0010
,
0001
0000
1000
0000
0100
0000
1000
0001
,
1000
0001
0100
1000
0001
0010
1000
0000
,
0001
0000
0000
0010
0000
0000
0100
0000
1000
0000
0000
0001
0000
0000
1000
0000
,
0100
0000
0000
0010
0000
0000
0001
0000
0100
0000
0000
1000
0000
0000
0100
0000
,
0001
1000
0001
0000
0010
0001
0010
0000
,
1000
0100
1000
0001
0010
1000
0001
0000
,
0001
0000
1000
0000
0010
1000
0010
0000
,
0001
0000
1000
0000
0100
1000
1000
0000
,
0001
0010
1000
0001
0100
1000
0001
0010
,
0002
0023
2030
3200
0302
0003
0020
0030
,
0001
0010
0100
1000
0001
0010
2002
0000
,
0000
0000
0000
0000
,
3003
0000
0000
0000
;

//--------------- dance-single - XLΣv450X-ESP ----------------
#NOTES:
     dance-single:
     XLΣv450X:
     Hard:
     17:
     0,0,0,0,0:
0000
0000
0000
0000
,
0000
0000
0000
0000
,
0000
0000
0000
0000
,
0000
0000
0000
0000
,
0000
0000
0000
0000
,
0000
0000
0000
0000
,
0000
0000
0000
0000
,
0000
0000
0000
0000
,
0000
0000
0000
0000
,
0000
0000
0000
0000
,
0001
0000
1000
0000
0010
0000
1000
0000
0001
0000
0100
0000
1000
0000
0001
1000
,
0010
0000
0001
0000
1000
0000
0100
0000
1000
0000
0001
0000
0010
0000
1000
0100
,
0001
0000
1000
0000
0010
0000
1000
0000
0010
0000
1000
0000
0001
0000
0010
1000
,
0001
0000
1000
0000
0010
0000
1000
0000
0100
0000
1000
0000
0001
0000
1000
0010
,
0001
0000
1000
0000
0010
0000
1000
0001
0100
0000
1000
0000
0001
0000
1000
0100
,
0001
0000
0100
0000
1000
0000
0001
0100
1000
0000
0010
0000
1000
0000
0001
0010
,
1000
0000
0010
0001
0100
0000
1000
0100
0001
0000
1000
0100
0010
0000
1000
0100
,
0001
0010
0100
1000
0001
0010
0100
1000
0002
0000
0000
0000
2000
0000
0000
3003
,
0001
1000
0010
1000
0001
1000
0010
0001
,
0000
0000
1000
0000
0000
0000
0100
0000
1000
0000
0001
0000
1000
0001
0010
0100
,
1000
0001
0100
1000
0100
0001
0100
1001
,
0001
0101
0100
1010
0010
0101
0100
1010
,
0010
1000
0010
0000
1000
0000
0001
0000
0100
0000
1000
0000
0001
0000
0020
0000
,
0030
1000
0100
1000
0001
1000
0010
0001
,
0101
1010
1001
1010
,
0001
0000
1000
0000
0100
0000
1000
0000
0001
0000
0100
0000
0002
0000
0000
0003
,
1000
0000
0001
0000
1000
0010
1000
0100
,
0000
0000
0001
0000
0010
0000
0001
0000
0010
0000
1000
0001
0100
0000
1000
0000
,
0001
0000
0100
0010
1000
0001
1000
0101
,
0100
1010
0010
0110
0100
1001
1000
0011
,
0010
0000
1000
0000
0001
1000
0010
1000
,
0000
0100
1000
0001
0010
0100
1000
0100
,
0101
1010
0011
1010
,
0001
0100
1000
0001
0100
0010
2000
3000
,
0001
0100
0010
0100
0001
0100
0010
0000
2000
0000
0100
0000
3002
0000
0100
0000
,
1003
0000
0100
0000
1010
0000
1000
0000
1001
0000
0100
0001
0100
0000
0010
0000
,
1000
0001
1000
0001
0010
0000
0100
1000
0001
0000
0100
0000
0010
0000
1000
0000
,
0100
1000
0100
1000
0001
0000
0100
0010
1000
0000
0010
0000
1001
0000
0000
0000
,
1000
0100
0010
0100
1000
0100
0010
0000
0002
0000
0100
0000
2003
0000
0100
0000
,
3001
0000
0100
0000
0011
0000
0001
0000
1001
0000
0100
1000
0200
0000
0010
0000
,
0310
0000
0001
0010
0100
0000
1000
0010
0100
0000
0001
1000
0020
0000
0130
0000
,
1010
0000
1001
0000
0011
0000
1001
0000
0100
1000
0100
0010
0002
0000
0000
0003
,
0010
0000
1000
0000
0010
0000
1000
0000
0100
0000
1000
0000
0001
0000
1000
0001
,
0010
0000
1000
0000
0100
0000
1000
0000
0001
0000
0010
0000
0001
0000
0100
0010
,
1000
0000
0100
0000
1000
0000
0001
0010
0100
0000
1000
0000
0001
0000
0100
1000
,
0010
0000
1000
0000
0001
1000
0010
0000
0001
0000
0100
0000
1001
0000
0000
0000
,
0010
1000
0010
0000
0001
0010
0001
0000
,
1000
0100
1000
0001
1000
0010
1000
0000
,
0001
0100
1000
0001
0010
1000
0001
0010
,
1000
0001
1000
0100
0001
0010
1000
0100
0001
0010
0100
1000
0100
0001
0010
0100
,
0001
0000
1000
0000
0010
0000
1000
0000
0001
0000
0100
0000
1000
0000
0001
1000
0010
0000
1000
0000
0001
0000
0100
0000
1000
0000
0001
0000
0010
0000
1000
0001
,
0010
0000
1000
0000
0010
0000
0100
0010
0001
0000
1000
0000
0001
0000
0100
0010
1000
0000
0001
0000
0100
0000
1000
0100
0001
0000
0010
0000
1000
0000
0001
0010
,
0100
0000
1000
0000
0001
0000
0100
0000
0010
0000
1000
0100
0001
0000
0100
0000
1000
0000
0001
0000
0100
0000
0010
0000
1000
0010
0001
0000
0100
0000
1000
0000
,
0001
0100
1000
0100
0010
0001
0010
0100
1000
0100
0010
0001
0010
0100
1000
0100
0010
0001
0010
0100
1000
0100
0010
0001
0020
0000
0000
0000
0030
0000
0000
0000
,
0001
1000
0010
1000
0001
0000
1000
0001
0010
0001
1000
0000
0001
1000
0010
1000
,
0001
0000
1000
0001
0010
0001
1000
0000
0100
0010
0001
0010
0100
0000
1000
0000
,
0001
0100
0010
0100
0001
0000
1000
0100
0010
0100
1000
0000
0001
0100
0010
0100
,
0001
0000
1000
0100
0010
0100
1000
0000
0001
1000
0001
0100
0010
0000
1000
0000
,
0001
0010
0100
1000
0010
0000
1000
0100
0010
0001
0100
0000
0001
0010
0100
1000
,
0010
0000
1000
0100
0010
0001
0100
0000
0001
1000
0001
1000
0010
0000
0100
0000
,
0001
1000
0010
1000
0001
0010
0001
1000
0100
0010
0001
0010
0100
1000
0001
1000
,
0020
0000
0000
0000
0100
0000
0100
0000
0200
0000
0000
0000
0330
0000
0000
0000
,
2002
0000
0000
0000
3000
0000
0000
0000
0023
0000
0000
0000
0230
0000
0000
0000
2300
0000
0000
0000
3010
0000
0100
0000
2002
3003
0000
0000
0000
0000
0000
0000
,
0010
1000
0001
1000
0010
0000
0100
0001
1000
0000
0100
0000
0010
0000
0001
0000
,
0100
0001
1000
0001
0100
0000
0010
1000
0100
0000
0010
0000
1001
0000
0000
0000
,
0001
0010
0100
0010
0001
0010
0100
0000
2000
0000
0010
0000
3002
0000
0010
0000
,
1003
0000
0100
0000
1100
0000
0100
0000
0110
0000
0010
0001
0020
0000
0100
0000
,
0130
0000
1000
0100
1000
0000
0010
0100
0001
0000
0010
0001
2000
0000
3100
0000
,
0011
0000
1001
0000
1010
0000
1001
0000
0100
1000
0100
0010
0002
0000
0000
0003
,
0010
1000
0010
0000
0001
0010
0001
1000
,
0100
0001
1000
0001
0100
1000
0001
0000
,
0010
0001
1000
0100
1000
0000
0001
0010
,
1000
0000
0001
1000
0010
0100
1000
0000
,
0001
0010
0001
1000
0010
1000
0010
0100
,
1000
0001
0100
1000
0001
0010
0001
0000
,
1000
0100
1000
0001
0010
1000
0001
1000
,
0001
1000
0100
0010
0001
0010
0100
1000
0100
0010
0001
0010
0200
0000
0000
0300
,
0010
1000
0010
0000
1000
0100
0000
0010
0001
0000
0100
0010
0000
1000
0001
0000
,
0010
0100
1000
0000
0001
0100
0000
0010
1000
0000
0100
0010
0000
0001
1000
0000
,
0010
0100
0010
0100
0001
0100
0010
1000
0001
0010
0100
1000
0100
0010
0001
0010
,
0200
0000
0010
0000
0010
0000
0310
0000
0100
0001
1000
0010
0200
0000
0300
0000
,
0001
0010
0100
1000
0001
0010
0100
1000
0001
0010
0100
1000
0002
0000
0000
0000
,
0000
1000
0000
1000
0000
1000
0000
2000
,
3003
0000
0000
0000
0000
0000
0000
0000
;
