#TITLE:Let me be your cure;
#ARTIST:Pizuya's Cell;
#GENRE:ELECTRIC DANCE ROCK;
#MUSIC:Let me be your cure.ogg;
#BANNER:Let me be your cure.png;
#BACKGROUND:Let me be your cure-bg.png;
#CDTITLE:./CDTitles/bm IIDX 26 Rootage.png;
#SAMPLESTART:40.708;
#SAMPLELENGTH:15;
#OFFSET:-0.083;
#BPMS:0=192;
#BGSTAGE:31;

//--------------- dance-single - XLev450X-bSP ----------------
#NOTES:
     dance-single:
     XLev450X:
     Beginner:
     3:
     0,0,0,0,0:
0000
0000
0000
0000
,
0000
0000
0000
0000
,
0000
0000
0000
0000
,
0000
0000
0000
0000
,
0000
0000
0000
0000
,
0000
0000
0000
0000
,
0000
0000
0000
0000
,
0000
0000
0000
0000
,
0000
0000
0000
1000
,
0000
0001
0000
1000
,
0000
0000
0000
0010
,
0000
0100
0000
0010
,
0000
0000
0000
1000
,
0000
0010
0000
1000
,
0000
0000
0000
2002
,
0000
0000
0000
3003
,
0000
0000
0000
0010
,
0100
0010
0000
1000
,
0010
1000
0000
0001
,
0010
0001
0000
0100
,
0001
0100
0000
0001
,
0000
1000
0000
0001
,
0000
0000
0000
0100
,
0000
0010
0000
1000
,
0000
0000
0000
1000
,
1000
0001
0000
0010
,
0010
0100
0000
1000
,
0010
1000
0000
0010
,
0000
0100
0000
0001
,
0000
0000
0000
1000
,
0000
0001
0000
0220
,
0000
0000
0000
0000
,
0000
0330
0000
0001
,
0000
1000
0000
0001
,
0000
0000
0000
0010
,
0000
0100
0000
0010
,
0000
0000
0000
1000
,
0000
0010
0000
1000
,
0000
0000
0000
0100
,
0000
0001
0000
0100
,
0000
0000
0000
0001
,
0000
1000
0000
0010
,
0000
1000
0000
0001
,
0000
0000
0000
0010
,
0000
0000
0000
1000
,
0000
0100
0000
0010
,
0000
0000
0000
2002
,
0000
0000
0000
0000
,
0000
3003
0000
0010
,
0010
0010
0000
0100
,
0100
0100
0000
0001
,
1000
0001
0000
0010
,
0000
1000
0000
0001
,
0010
0001
0000
1000
,
0100
1000
0000
0010
,
0000
0100
0000
0001
,
0000
0000
0000
1000
,
0000
0001
0000
1000
,
0000
0000
0000
0010
,
0000
0001
0000
0010
,
0000
0000
0000
2002
,
0000
0000
0000
0000
,
0000
0000
0000
3003
,
0000
0000
0000
0000
,
0000
0000
0000
0010
,
0000
0000
0000
0001
,
0000
0000
0000
1000
,
0000
0000
0000
0100
,
0000
0000
0000
0010
,
0000
0000
0000
0001
,
0000
0000
0000
1000
,
0000
0000
0000
0000
,
0000
0000
0000
0010
,
0000
0000
0000
0001
,
0000
0000
0000
1000
,
0000
0000
0000
0100
,
0000
0000
0000
0010
,
0000
0000
0000
0001
,
0000
0000
0000
1000
,
0000
0000
0000
0000
,
0000
0000
0000
0001
,
0000
1000
0000
0010
,
0000
0000
0000
0100
,
0000
1000
0000
0001
,
0000
0000
0000
0010
,
0010
0010
0000
1000
,
0001
1000
0000
0010
,
1000
0010
0000
0000
,
0000
0000
0000
0001
,
0000
1000
0000
0100
,
0000
0000
0000
0010
,
0000
1000
0000
0001
,
0000
0000
0000
0001
,
0000
1000
0000
0001
,
0000
0000
0000
0220
,
0000
0000
0000
0000
,
0000
0330
0000
0001
,
0001
0001
0000
1000
,
0010
1000
0000
0100
,
0001
0100
0000
0010
,
1000
0010
0000
0001
,
1000
0001
0000
0010
,
0100
0010
0000
1001
;

//--------------- dance-single - XLev450X-BSP ----------------
#NOTES:
     dance-single:
     XLev450X:
     Easy:
     7:
     0,0,0,0,0:
0000
0000
0000
0000
,
0000
0000
0000
0000
,
0000
0000
0000
0000
,
0000
0000
0000
0000
,
0000
0000
0000
0000
,
0000
0000
0000
0000
,
0000
0000
0000
0000
,
0000
0000
0000
0000
,
0000
0000
0000
0001
,
0001
1000
0010
0100
,
1000
0001
0000
1000
,
1000
0010
0100
1000
,
0010
0100
0000
0001
,
0010
1000
0100
0001
,
0010
1000
0000
1000
,
0001
1000
0001
2002
,
0000
0000
3003
0001
,
1000
0010
0100
1000
,
0001
0010
0000
1000
,
0100
1000
0000
0001
,
0010
0001
0000
0100
,
0001
1000
0100
0010
,
1000
0010
0000
1000
,
0100
0001
0000
0001
,
1000
0001
0000
0001
,
0001
1000
0010
0100
,
1000
0010
0000
0001
,
1000
0010
0000
0100
,
1000
0010
0000
0001
,
0000
1000
0000
0001
,
1000
0010
0000
0100
,
0010
1000
0001
0100
,
1000
0001
0000
0001
,
1000
0001
0000
1000
,
0100
0001
0010
1000
,
0000
0001
0010
0001
,
0000
0100
1000
0100
,
0001
1000
0010
0100
,
0010
1000
0000
0001
,
0010
0000
1000
0000
0000
0001
0000
1000
,
0000
0010
0000
0100
0000
0000
0001
0000
,
1000
0001
0000
1000
,
0000
0100
0001
0010
,
0000
1000
0010
0100
,
0000
0001
0000
0001
,
1000
0001
0100
1000
,
0010
1000
0000
0001
,
1000
0000
0001
0000
0010
0000
0001
0010
,
0001
0000
1000
0100
1000
0000
0001
0000
,
1000
0010
0100
0010
,
0000
0001
0010
1000
,
0000
0001
0010
1000
,
0001
1000
0001
0000
0010
0000
1000
0000
,
0100
0001
0000
0100
,
0010
1000
0000
0010
,
0001
1000
0001
0100
,
0001
1000
0000
0001
,
0000
0100
0000
0000
0010
0000
1000
0000
,
0001
1000
0000
0001
,
0100
1000
0000
0010
,
0100
0010
0000
0002
,
0000
0000
0000
2000
,
0000
0000
0000
0000
0000
3003
2000
0000
,
0000
0000
0000
0002
,
0000
0000
3003
0001
,
0000
1000
0000
0001
,
0000
0000
0000
0010
,
0000
0100
0000
0010
,
0000
0000
0000
1000
,
0000
0100
0000
1000
,
0000
0000
0000
0001
,
0000
0010
0000
0001
,
0000
0000
0000
0001
,
0000
1000
0000
0010
,
0000
0100
0000
0001
,
0000
1000
0000
0001
,
0000
0010
0000
1000
,
0000
0010
0000
0100
,
0000
0001
0000
0001
,
1000
0010
0000
0010
,
0100
0010
0000
0001
,
1000
0001
0100
1000
,
0001
0010
0000
0001
,
0000
0010
0000
1000
,
0100
0001
0000
0001
,
0000
1000
0000
0001
,
0010
0100
0000
1000
,
0000
0000
0001
0000
0000
0100
0000
0001
,
0000
1000
0000
0010
0000
0100
0000
0000
,
0001
1000
0000
0001
,
0000
0010
0000
0100
,
0000
0010
0000
0001
,
0000
0000
0000
1000
,
0000
0001
0000
0010
,
0000
1000
0000
1000
,
0010
0100
0000
0001
,
0010
0001
0000
1000
,
0000
0001
0000
0100
,
0000
0010
0000
1000
,
0000
0001
0000
0010
,
0000
0000
0000
1000
,
0000
0001
0000
0100
,
0000
0010
0000
1000
,
0000
0000
0001
0000
0000
0100
0000
0001
,
0000
1000
0000
0010
0000
2002
3003
0000
;

//--------------- dance-single - XLev450X-DSP ----------------
#NOTES:
     dance-single:
     XLev450X:
     Medium:
     10:
     0,0,0,0,0:
0000
0000
0000
0000
,
0000
0000
0000
0000
,
0000
0000
0000
0000
,
0000
0000
0000
0000
,
0000
0000
0000
0000
,
0000
0000
0000
0000
,
0000
0000
0000
0000
,
0000
0000
0000
0000
,
0000
0000
0000
0001
,
1000
0010
0000
0100
,
0010
0100
0000
0001
,
0010
0001
0000
1000
,
0001
1000
0000
0010
,
0000
0100
0000
1000
,
0001
0100
0000
1000
,
0010
0100
0001
1000
,
0000
0001
0000
1000
,
0010
1000
0100
0001
,
0010
0100
0000
0010
,
1000
0010
0100
0001
,
1000
0001
0000
0001
,
1000
0100
0001
1000
,
0010
0100
0000
1000
,
0010
1000
0000
0001
,
0100
1000
0000
0001
,
1000
0100
0001
0010
,
1000
0010
0000
0001
,
0010
1000
0001
0100
,
0010
1000
0000
0001
,
0000
1000
0000
0010
,
0100
1000
0000
0001
,
1000
0000
0100
0000
1000
0001
0000
1000
,
0000
0010
0010
0010
0000
1000
0000
0000
,
0001
0000
1000
0000
0100
1000
0010
0000
,
0100
0000
1000
0000
0001
0010
0001
0000
,
1000
0100
1000
0001
,
1000
0000
0010
1000
0010
0000
0001
0000
,
0100
0001
0000
1000
0010
0000
0100
1000
,
0000
0001
0000
0100
0000
1000
0000
0001
,
1000
0000
0010
1000
0010
0101
0000
1010
,
0000
0110
0000
1001
0000
0002
0000
0003
,
1000
0001
0100
1000
,
0001
0000
0010
0001
0010
0000
1000
0000
,
0100
1000
0001
1000
,
0010
0101
0000
1000
,
0010
0100
1000
0001
,
0100
0000
1000
0000
0000
0000
0001
1000
,
0001
0000
0010
1000
0010
0000
0100
0000
,
1000
0001
0000
1000
,
0001
0100
1000
0001
,
0010
0100
0000
0001
,
1000
0001
1000
0010
,
1000
0010
1000
0000
0000
0000
0001
0000
,
0100
1000
0001
0100
,
1000
0000
0001
0100
0001
0000
1000
0000
,
0010
0100
1000
0001
,
1000
0000
0100
0000
0001
0000
0000
0100
0000
0000
1000
0000
0001
0000
0000
0000
,
0100
0000
0001
0000
1000
0000
0000
0010
0000
0000
0001
0000
0100
0000
0000
0000
,
1000
0001
0010
1000
,
0001
0000
0010
0100
0010
0000
0001
0000
,
0010
0000
1000
0000
0000
0000
0001
0010
,
0001
0000
1000
0100
1000
0000
0010
0100
,
0010
0000
0100
0010
0100
0000
0001
0000
,
1000
0000
0001
0000
1000
0000
0010
1000
,
0010
0000
0001
0010
0001
0000
1000
0000
,
0000
0001
0000
0100
,
0000
0010
1000
0010
,
0000
0001
0000
1000
,
0001
0100
0000
1000
,
0000
0001
0000
0000
0100
0000
0000
0010
,
0000
1000
0001
0100
,
0000
0001
0000
1000
,
0001
0100
0000
1000
,
0010
1000
0000
0001
,
0010
0001
0000
0100
,
1000
0001
0100
1000
,
0001
0010
0000
0100
,
0010
0100
0000
0001
,
0010
0001
0000
1000
,
0001
0100
1000
0001
,
0000
0100
0000
0010
0000
1000
0000
0000
,
0001
1000
0100
1000
,
0010
0100
0000
0001
,
0010
0100
1000
0001
,
0010
0011
0000
1000
,
0100
0001
0000
1000
0010
0000
0100
1000
,
0000
0001
0000
0100
1000
0000
0001
0000
,
0010
0000
1000
0100
1000
0010
0000
1000
,
0000
0001
0000
0100
0000
1000
0000
0000
,
0001
1000
0100
1000
,
0010
0001
0000
0100
,
1000
0000
0010
0000
1000
0010
1000
0000
,
0001
0100
0000
0001
,
1000
1000
0010
0100
,
1000
0001
0000
1000
,
0001
0000
0100
0000
1000
0000
0001
1000
,
0001
0000
0010
1000
0010
0000
0001
0000
,
1000
0100
0000
0010
,
0001
0010
0000
1000
,
0100
0000
0001
0000
0010
0000
0100
0010
,
0100
0000
0001
0010
0001
0000
1000
0000
,
0001
0100
0000
1000
,
0001
0100
1000
0001
,
0010
0000
1000
0000
0010
1000
0000
0001
,
0000
0100
0000
0010
0000
2002
3003
0000
;

//--------------- dance-single - XLev450X-ESP ----------------
#NOTES:
     dance-single:
     XLev450X:
     Hard:
     13:
     0,0,0,0,0:
0000
0000
0000
0000
,
0000
0000
0000
0000
,
0000
0000
0000
0000
,
0000
0000
0000
0000
,
0000
0000
0000
0000
,
0000
0000
0000
0000
,
0000
0000
0000
0000
,
0000
0000
0000
0000
,
0000
0000
0000
0001
,
1000
0010
0100
1000
,
0010
0100
0001
0010
,
1000
0100
1000
0001
,
0010
0000
0100
0000
1000
0000
0010
1000
,
0010
0100
1000
0001
0010
0100
1000
0001
,
0010
0100
1000
0001
1000
0010
0001
0010
,
0001
0000
1000
0010
1000
0000
1001
0000
,
0000
0000
0000
0000
0000
0110
0000
0000
,
0001
0000
1000
0000
0010
1000
0010
0000
,
0100
0000
1000
0000
0001
0010
0001
0000
,
0100
0000
1000
0000
0001
1000
0001
0000
,
0010
1000
0100
1000
,
0010
1000
0010
0100
1000
0001
0010
0000
,
1000
0100
1000
0001
,
0001
1000
0010
0100
,
1000
0101
0000
0001
,
1000
0000
0010
0000
1000
0010
1000
0000
,
0100
1000
0001
0010
,
0100
0000
1000
0000
0010
0001
0010
0000
,
1000
0100
1000
0001
,
0000
0100
0000
0010
,
1000
0000
0010
0000
0000
0001
0000
0000
,
1000
0000
0100
0000
0000
0001
0000
1000
,
0000
0010
0000
0100
0000
0001
0000
0000
,
1000
0010
0100
1000
,
0010
0000
0100
0000
1000
0001
1000
0000
,
0010
1000
0100
0001
,
0010
0000
0001
0010
0001
0000
1000
0000
,
0010
0100
0000
0001
1000
0000
0010
0100
,
0000
1000
0000
0001
0000
0100
0000
1000
,
0001
0000
1000
0010
0100
1000
0000
0101
,
0000
1010
0000
0110
0000
0001
0000
1000
,
0001
1000
0010
1000
,
0100
0000
1000
0000
0010
1000
0010
0000
,
0001
0000
0010
0000
0001
0010
0001
0000
,
1000
0000
0100
0000
1000
0000
0001
1000
,
0001
0000
0010
1000
0010
0000
0010
0100
,
0010
0000
0001
0010
0001
0000
1000
0001
,
0100
1000
0010
0100
0001
1000
0010
0100
,
0001
1000
0010
0000
0000
0000
0001
0000
,
1000
0001
0010
1000
,
0100
0000
0001
0010
0001
0000
1000
0000
,
0100
1000
0001
0100
,
0010
1000
0010
0000
0010
0000
0001
0000
,
1000
0010
0010
1000
,
0001
0100
1000
0001
,
0010
0001
0010
0000
1000
0000
0010
0000
,
0100
0000
1000
0000
0001
0000
0000
0100
0000
0000
1000
0000
0010
0000
0000
0000
,
1000
0000
0001
0000
1000
0000
0000
0100
0000
0000
1000
0000
0010
0000
0000
0000
,
0100
0000
1000
0000
0001
1000
0001
0000
,
0100
1000
0001
0010
,
0001
0000
0010
0000
0001
0000
1000
0010
,
1000
0000
0010
0100
0010
0000
0001
0010
,
0001
0000
1000
0001
1000
0000
0001
1000
,
0010
1000
0100
1000
0010
1000
0001
0100
,
1000
0010
0001
1000
0010
1000
0001
0000
,
0000
0001
0000
1000
,
0000
0010
0100
1000
,
0000
0001
0000
0100
,
0001
0001
1000
0010
,
0000
0100
0000
1000
0000
0001
0100
0000
,
0000
0001
0000
1000
0000
0010
1000
0000
,
0001
0100
0010
1000
,
0000
0010
0000
0001
,
0001
1000
0010
0100
,
1000
0010
0000
0001
,
1000
0010
0100
1000
,
0010
0001
0000
1000
,
0000
0100
0000
0001
,
1000
0001
0000
1000
,
0001
1000
0010
0100
,
0000
1000
0000
0010
0000
0001
0000
0000
,
1000
0001
0100
1000
,
0001
0010
0001
0100
,
1000
0001
1000
0010
,
1000
0000
0010
1000
0010
0000
0001
0000
,
0010
1000
0001
0010
,
0100
0101
0000
1000
,
0001
0000
1000
0000
0001
0100
0000
1010
,
0000
0110
0000
1001
0000
0001
0000
0000
,
1000
0001
0100
1000
,
0010
0010
0000
0010
,
0001
0010
1000
0100
,
1000
0001
0000
0001
,
1000
0010
0100
1000
,
0001
0000
0010
0000
0001
0000
0001
1000
,
0010
1000
0100
1000
0001
0010
1000
0001
,
0100
1000
0010
0001
1000
0010
1000
0000
,
0001
0100
1000
0001
,
0100
0010
0001
1000
,
0001
0000
0100
0000
1000
0000
0010
1000
,
0010
0100
0001
1000
0010
1000
0001
0000
,
0001
0000
1000
0010
1000
0000
0010
0000
,
0001
0000
0010
0001
0010
0000
1000
0000
,
0100
0000
1000
0000
0010
1000
0000
0011
,
0000
1100
0000
0110
0000
1001
0000
0000
;
