#TITLE:Legendary;
#SUBTITLE:;
#ARTIST:Roselia;
#TITLETRANSLIT:;
#SUBTITLETRANSLIT:;
#ARTISTTRANSLIT:;
#GENRE:;
#CREDIT:;
#MUSIC:Legendary.ogg;
#BANNER:Legendary.png;
#BACKGROUND:Legendary-bg.png;
#CDTITLE:;
#SAMPLESTART:64.143;
#SAMPLELENGTH:15.000;
#SELECTABLE:YES;
#OFFSET:-0.023;
#BPMS:0.000=144.000;
#STOPS:;
#BGSTAGE:27;
#BGCHANGES:0.023=Legendary.avi=1.000=0=0=0=StretchNoLoop====,
99999.000=-nosongbg-=1.000=0=0=0=StretchNoLoop====
;
#FGCHANGES:;

//--------------- dance-single - XLev450X-bSP ----------------
#NOTES:
     dance-single:
     XLev450X:
     Beginner:
     4:
     0,0,0,0,0:
0000
0000
0000
0000
,
0000
0000
0000
0000
,
0000
0000
0000
0000
,
0000
0000
0000
0000
,
0000
0000
0000
0000
,
0000
0000
0001
0001
,
0001
0000
1000
1000
,
1000
0000
0010
0100
,
0010
0000
0001
1000
,
0010
0000
0001
1000
,
0010
0000
0100
0010
,
1000
0000
0001
0100
,
0010
0000
1000
0010
,
0100
0001
2002
0000
,
0000
0000
0000
0000
,
0000
0000
0000
3003
0010
0000
0000
0000
,
0100
0000
0001
0000
,
1000
0000
0010
0000
,
0100
0000
0001
0000
,
1000
0000
0010
1000
,
0001
0000
0100
0001
,
1000
0000
0010
0010
,
1000
0000
0100
0100
,
0001
0000
0010
0001
,
1000
0000
0010
0000
,
0000
1001
0000
0000
0001
0000
0000
0000
,
0000
0101
0000
0000
1000
0000
1000
0000
,
1000
0000
0010
0100
,
0001
0000
0010
0000
,
0000
1001
0000
0000
0001
0000
0000
0000
,
0000
0101
0000
0000
1000
0000
0001
0000
,
0010
0100
0001
1000
,
0010
0100
0220
0000
,
0000
0000
0000
0000
,
0330
1001
0000
0000
0010
0000
0000
0000
,
0100
0000
0001
0000
,
1000
0000
0010
0000
,
0100
0000
0202
0000
,
0000
0000
0000
0303
0001
0000
1000
0000
,
0010
0000
0100
0001
,
1000
0000
1000
1000
,
1000
0000
0001
0001
,
0001
0000
0010
0001
,
1000
0000
0100
0001
,
0010
0000
1000
0010
,
0100
0000
0001
0010
,
0100
0000
0001
1000
,
0010
0100
0001
1000
,
0010
0100
0001
1000
,
0010
0100
2002
0000
,
0000
0000
0000
0000
0000
3003
0010
0000
,
0100
0001
2002
0000
,
0000
3003
0000
0220
0000
0000
0000
0000
,
0000
0330
0000
0101
0000
0000
0000
0000
;

//--------------- dance-single - XLev450X-BSP ----------------
#NOTES:
     dance-single:
     XLev450X:
     Easy:
     6:
     0,0,0,0,0:
0000
0000
0000
0000
,
0000
0000
0000
0000
,
0000
0000
0000
0000
,
0000
0000
0000
0000
,
0000
0000
0000
0000
,
0000
0000
0001
0001
,
0001
0000
1000
0010
,
1000
0000
0000
0000
0010
0000
0100
0001
,
0000
0000
1000
0000
0010
0000
0100
1000
,
0000
0001
0010
0100
,
0001
0000
1000
0010
,
0100
0000
0000
0000
0001
0000
0100
0010
,
0000
1000
0000
0001
0000
0100
0010
0000
,
1000
0001
0220
0000
,
0000
0000
0000
0000
,
0000
0330
0000
0001
1000
0000
0000
0010
,
0100
0000
0000
0001
1000
0000
0000
0100
,
0001
0001
1000
0001
,
0100
0000
1000
0001
,
0010
0000
0001
0001
,
1000
0010
0100
0001
,
1000
0000
0001
0010
,
0100
1000
0001
0010
,
0100
0000
0001
0000
,
1000
0000
0001
1000
,
0100
0010
0000
0000
1000
0000
0001
0000
,
1000
0010
0000
0000
1000
0000
0001
0000
,
0010
0100
0001
0000
1000
0000
0010
0000
,
1000
0001
0100
0000
0010
0000
1000
0000
,
0001
0100
0000
0000
0001
0000
1000
0000
,
0001
0100
0000
0000
0001
0000
1000
0000
,
0010
0100
0001
0000
1000
0000
0010
0000
,
0100
0001
0100
0000
2002
0000
0000
0000
,
0000
0000
0000
0000
0000
0000
0000
3003
,
0000
0100
0010
0000
0001
0000
0000
1000
,
0010
0000
0000
0100
0001
0000
0000
0010
,
0100
0001
1000
0010
,
0100
0001
1000
0000
2002
0000
0000
0000
,
0000
0000
0000
3003
0010
0000
1000
0000
,
0001
0100
0010
1000
,
0001
0100
0001
0000
1000
0000
0010
0000
,
0100
1000
0010
0100
,
0001
1000
0010
0100
0001
0000
1000
0000
,
0010
0100
0001
1000
,
0001
0100
0001
0000
1000
0000
0010
0000
,
1000
0000
0010
0100
,
0001
1000
0010
0000
0100
0000
0001
0000
,
1000
0010
0100
0001
,
1000
0000
0000
0000
0001
1000
0010
0000
,
0100
1000
0001
0000
0100
0000
0010
0000
,
1000
0001
0100
0010
2002
0000
0000
0000
,
0000
3003
0010
0000
1000
0001
0000
0100
,
0000
0000
0010
1000
0000
0001
0100
0000
,
0010
0000
1000
0001
0000
0000
0000
0000
;

//--------------- dance-single - XLev450X-DSP ----------------
#NOTES:
     dance-single:
     XLev450X:
     Medium:
     9:
     0,0,0,0,0:
0000
0000
0000
0000
,
0000
0000
0000
0000
,
0000
0000
0000
0000
,
0000
0000
0000
0000
0000
0000
0000
0000
0001
0000
0000
1000
0000
0000
0020
0000
,
0000
0000
0000
0000
,
0000
0000
0030
0000
0001
0000
1000
0010
,
0100
0000
0001
0000
1000
0001
0100
0010
,
1000
0000
0001
0000
0100
0000
0010
0001
,
0000
1000
0010
0000
0100
0000
1000
0010
,
0000
0100
0001
0000
0010
0000
1000
0000
,
0001
0100
0010
1000
,
0001
0100
0010
0000
1000
0001
0100
0010
,
0000
1000
0000
0001
0000
0100
0010
0000
,
1000
0000
0000
0001
0000
0000
0100
0000
0020
0000
0000
0000
0000
0000
0000
0000
,
0000
0000
0000
0000
,
0000
0000
0030
0001
1000
0000
0000
0010
,
0100
0000
0000
0000
0000
0000
0001
0000
1000
0000
0000
0010
0000
0000
0001
0000
,
1000
0000
0000
0000
0010
0000
0000
0000
0100
0000
0000
0001
0000
0000
1000
0000
,
0010
0000
0000
0000
1000
0000
0000
0000
0001
0000
0000
0100
0000
0000
0010
0000
,
2000
0000
3000
0000
0001
0000
0000
1000
,
0010
0000
0000
0000
0000
0000
0100
0000
0001
0000
0000
1000
0000
0000
0010
0000
,
0100
0000
0000
0000
0001
0000
0000
0000
1000
0000
0000
0010
0000
0000
0100
0000
,
0001
0000
0000
0000
1000
0000
0000
0000
0001
0000
0000
0100
0000
0000
0010
0000
,
1000
0000
0000
0000
0001
0010
0001
0000
,
0100
0000
1000
0000
0010
0000
0000
0000
0100
0000
0000
0001
0000
0000
1000
0000
,
0000
0000
0011
0000
0000
0000
0000
0000
0010
0000
0000
1000
0000
0000
0010
0000
,
0000
0101
0000
0000
0001
1000
0010
0000
,
0100
1000
0100
0000
0001
0000
0010
0100
,
0001
0000
0000
0000
1000
0000
0000
0000
0010
0000
0000
0100
0000
0000
0001
0000
,
0000
0000
1001
0000
0000
0000
0000
0000
0100
0000
0000
0001
0000
0000
1000
0000
,
0000
0101
0000
0000
0001
1000
0010
0000
,
0001
0010
0100
0000
0001
0000
0010
0000
,
1000
0001
0010
0000
1000
0000
0100
0000
,
0010
0001
1000
0010
,
0100
0001
0000
0000
1000
0000
0010
0000
,
1000
0001
0100
0000
0010
0000
1000
0000
,
0010
0001
1000
0000
0010
0000
0100
0000
,
0001
1000
0010
0000
2002
0000
0000
0000
,
0000
0000
0000
3003
0001
0000
1000
0000
,
0010
0100
0001
0000
0100
1000
0100
0000
,
0010
0001
0010
0000
0100
0000
0001
0000
,
1000
0010
0100
0000
0001
0100
0010
1000
,
0101
0000
0010
1000
,
0001
0100
0010
0000
1000
0000
0010
0000
,
0100
1000
0100
0000
0010
0000
0001
0000
,
0100
0010
1000
0000
0001
0000
0100
0000
,
0001
1000
0010
0000
1001
0000
0010
0000
,
0100
0001
1000
0010
,
0100
1000
0100
0000
0001
0010
0001
0000
,
1000
0001
0100
0000
0010
1000
0001
0100
,
0010
0100
1000
0010
0202
0000
0000
0000
,
0303
0000
0000
0000
1001
0000
0000
0000
0010
0000
0000
1000
0000
0000
0001
0000
,
0000
0010
1000
0100
0000
0001
0100
0010
,
1000
0001
0100
0010
0000
0000
0000
0000
;

//--------------- dance-single - Dragonic Overlord-ESP ----------------
#NOTES:
     dance-single:
     Dragonic Overlord:
     Hard:
     13:
     0,0,0,0,0:
0000
0000
0000
0000
,
0000
0000
0000
0000
,
0000
0000
0000
0000
,
0000
0000
0000
0000
0000
0000
0000
0000
0001
0000
0000
1000
0000
0000
0020
0000
,
0000
0000
0000
0000
0000
0000
0030
0000
0100
0000
0001
0010
1000
0100
0010
0001
,
0100
1000
0010
1000
0001
0000
0000
0000
1000
0000
0000
0010
0000
0001
0100
0000
,
0010
0000
0000
0000
0001
0000
0000
0000
1000
0000
0000
0100
0000
1000
0010
0000
,
0001
0000
1000
0000
0100
0000
0001
0100
0001
0000
0000
1000
0000
0000
0010
0000
,
0000
0000
0000
0000
0100
0000
0000
0000
0001
0000
0000
1000
0000
0000
0010
0000
,
0000
0000
0001
0000
0100
0010
0000
0000
0001
0000
0000
1000
0000
0001
0010
0000
,
1000
0000
0000
0000
0100
0000
0000
0000
0001
0000
0000
1000
0000
0100
0010
0000
,
0001
0000
1000
0000
0100
0000
0001
0100
0010
0000
0100
0000
1000
0000
0010
0000
,
0000
0100
0000
0001
0000
1000
0010
0000
,
0100
0000
0000
0001
0000
0000
0010
0000
2002
0000
0000
0000
0000
0000
0000
0000
,
0000
0000
0000
0000
,
3003
0000
0001
1000
0100
0010
0001
0000
1000
0000
0000
0100
0000
0000
0010
0000
,
0100
0000
0000
0010
0000
0000
0001
0000
1000
0000
0000
0010
0000
0000
0100
0000
,
0001
0000
0000
0000
1000
0000
0000
0000
0001
0000
0000
0100
0000
0000
0010
0000
,
1000
0000
0000
0000
0001
0000
0000
0000
0010
0000
0000
0100
0000
0000
0001
0000
,
1000
0000
0100
0010
1000
0100
0010
0100
0001
0000
0010
0000
0001
0000
1000
0000
,
0010
0000
0100
0000
0001
0000
0100
0000
0001
0000
0000
1000
0000
0000
0010
0000
,
0100
0000
0000
0000
0001
0000
0000
0000
1000
0000
0000
0001
0000
0000
0100
0000
,
0010
0000
0000
0000
1000
0000
0000
0000
0001
0000
0000
0010
0000
0000
0100
0000
,
0002
0000
0000
0003
1000
0010
0100
0001
,
1000
0000
0010
0000
0100
0001
0000
0000
0100
0010
0000
1000
0100
0000
0001
0010
,
0000
0000
1001
0000
0000
0000
0000
0000
0100
0001
0000
1000
0010
0000
1000
0001
,
0000
0000
0101
0000
0000
0000
0000
0000
0001
0000
0000
0010
0000
0000
0100
0000
,
0001
0000
0000
1000
0000
0000
0100
0000
0001
0000
0000
0000
1000
0000
0000
0000
,
0010
0000
0000
0000
0100
0000
0000
0000
0001
0100
0000
1000
0001
0000
0100
0010
,
0000
0000
1001
0000
0000
0000
0000
0000
0010
0100
0000
1000
0001
0000
0100
0010
,
0000
0000
1001
0000
0000
0000
0000
0000
0010
0000
0000
0100
0000
0000
1000
0000
,
0010
0000
0000
0100
0000
0000
1000
0000
0010
0000
0000
0000
0100
0000
0000
0000
,
0001
0000
0000
0000
1000
0000
0000
0000
0001
0000
0000
1000
0000
0000
0010
0000
,
0100
0000
0000
0001
0000
0000
1000
0000
0010
0000
0000
0100
0000
0000
0001
0000
,
1000
0000
0100
0001
0000
0000
0000
0000
0010
0000
0000
1000
0000
0000
0001
0000
,
0100
0000
0000
0010
0000
0000
1000
0000
0001
0000
0000
0100
0000
0000
0010
0000
,
1000
0000
0001
0000
0020
0000
0000
0030
,
1000
0000
0000
0010
1000
0100
0001
0100
0010
0000
0000
1000
0000
0000
0001
0000
,
0100
0010
0001
1000
0010
0000
0000
0000
0001
0000
0000
0100
0000
0000
0001
0000
,
1000
0000
0000
0100
0000
0000
0010
0000
0001
0000
0000
1000
0000
0000
0100
0000
,
0001
0010
0000
0100
0000
0000
0010
0000
0100
0000
0000
1000
0000
0000
0100
0000
,
0001
0000
0000
1000
0000
0000
0001
0000
1000
0000
0000
0001
0000
0000
0100
0000
,
0010
0000
0000
1000
0100
0000
0010
0000
0001
0000
0000
1000
0000
0000
0010
0000
,
0100
0000
0000
0001
0000
0000
1000
0000
0010
0000
0000
0100
0000
0000
0001
0000
,
1000
0001
0000
0010
0000
0000
0100
0001
1000
0000
0000
0010
0000
0000
0100
0000
,
0001
0000
0000
1000
0000
0000
0010
0000
0100
0000
0000
0001
0000
0000
1000
0000
,
0010
1000
0010
0000
0100
0001
0010
0000
1000
0000
0000
0000
0010
0000
0000
0000
,
0100
0000
0000
0000
0001
0000
0000
0000
1000
0000
0000
0010
0000
0000
0200
0000
,
0000
0000
0000
0000
0000
0300
0000
0000
0001
0000
0000
1000
0000
0000
0010
0000
,
0100
0000
0000
0001
0000
0000
1000
0000
0010
0000
0000
0000
0100
0000
0000
0000
,
0001
0000
1000
0000
0010
0000
0100
0000
0001
0010
0000
0000
1000
0000
0100
0000
,
0010
0000
0000
0100
0000
0000
0001
0000
1000
0000
0000
0010
0000
0000
0100
0000
,
0000
0001
1000
0010
0000
0100
0001
1000
,
0010
0100
0001
1010
0000
0000
0000
0000
;
