#TITLE:Lay Me Down;
#ARTIST:Avicii;
#GENRE:ELECTRONIC;
#MUSIC:Lay Me Down.ogg;
#BANNER:Lay Me Down.png;
#BACKGROUND:Lay Me Down-bg.png;
#SAMPLESTART:38.754;
#SAMPLELENGTH:15;
#OFFSET:-0.354;
#BPMS:0=125;
#BGSTAGE:17;

//--------------- dance-single - XLev450X-bSP ----------------
#NOTES:
     dance-single:
     XLev450X:
     Beginner:
     3:
     0,0,0,0,0:
0000
0000
0000
0000
,
0000
0000
0000
0000
,
0000
0000
0000
0000
,
0000
0000
0000
0000
,
0001
0001
0001
0000
,
0010
0010
0010
0000
,
0100
0100
0100
0000
,
1000
1000
1000
0000
,
0001
0000
1000
0000
,
0001
0000
0000
0000
,
0010
0000
0100
0000
,
0010
0000
0000
0000
,
1000
1000
0000
0000
,
0001
0001
0000
0000
,
0100
0100
0000
0000
,
0010
0010
0000
0000
,
0001
0000
0010
0000
,
0001
0000
0000
0000
,
0100
0000
1000
0000
,
0100
0000
0000
0000
,
0001
0000
1000
0000
,
0001
0000
0000
0000
,
0010
0000
1000
0000
,
0010
0000
0000
0000
,
0100
0000
0001
0000
,
0100
0000
0000
0000
,
1001
0000
0000
0000
,
0000
0000
0000
0000
,
0010
0000
0010
0000
,
0100
0000
0000
0000
,
0001
0000
0001
0000
,
0010
0000
0000
0000
,
1000
0000
1000
0000
,
0100
0000
0000
0000
,
1010
0000
0000
0000
,
0000
0000
0000
0000
,
0101
0000
0000
0000
,
0000
0000
0000
0000
,
1001
0000
0000
0000
,
0000
0000
0000
0000
,
0010
0000
0010
0000
,
0001
0000
0001
0000
,
1000
0000
1000
0000
,
0100
0000
0100
0000
,
0010
0000
0100
0000
,
0010
0000
0001
0000
,
1000
0000
0001
0000
,
1001
0000
0000
0000
;

//--------------- dance-single - XLev450X-BSP ----------------
#NOTES:
     dance-single:
     XLev450X:
     Easy:
     5:
     0,0,0,0,0:
0000
0000
0000
0000
,
0000
0000
0000
0000
,
0000
0000
0000
0000
,
0000
0000
0000
0000
,
0001
1000
0001
0000
,
0010
1000
0010
0000
,
0100
0001
0100
0000
,
0001
0001
1000
0000
,
0100
0100
0010
0000
,
1000
0001
1000
0000
,
0010
1000
0010
0000
,
0001
0100
0001
0000
,
0001
0000
1000
0000
0001
1000
0001
0000
,
0010
0000
1000
0000
0010
0100
0010
0000
,
0001
0000
0010
0000
0001
0010
0001
0000
,
1000
0001
0100
0000
,
1000
0000
0010
0000
1000
0010
1000
0000
,
0100
0000
0001
0000
1000
0001
1000
0000
,
0001
0000
0100
0000
0010
0100
0010
0000
,
2002
0000
0000
3003
,
0001
1000
0010
0100
,
0001
1000
0001
0000
,
1000
0010
0100
0000
,
0001
0100
1000
0000
,
0001
0001
0010
0100
,
1000
0001
0010
0000
,
0100
1000
0001
0000
,
0010
1000
0001
0000
,
0001
1000
0010
0100
,
0001
1000
0001
0000
,
1000
0010
0100
0000
,
0001
0100
1000
0000
,
0001
0001
0010
0100
,
1000
0001
0010
0000
,
0100
1000
0001
0000
,
0010
1000
0001
0000
,
0001
1000
0001
0000
,
0010
0100
0010
0000
,
1000
1000
0001
0000
,
2002
0000
0000
3003
,
0001
0000
1000
0000
,
0010
1000
0010
0000
,
0001
0000
0100
0000
,
0001
0001
0100
0000
,
0010
0000
1000
0000
,
0001
1000
0001
0000
,
0010
1000
0010
0000
,
2002
0000
0000
3003
;

//--------------- dance-single - XLev450X-DSP ----------------
#NOTES:
     dance-single:
     XLev450X:
     Medium:
     7:
     0,0,0,0,0:
0000
0000
0000
0000
,
0000
0000
0000
0000
,
0000
0000
0000
0000
,
0000
0000
0000
0000
,
0001
1000
0001
0100
,
0010
1000
0010
0000
,
0001
0100
1000
0001
,
0100
0010
1000
0000
,
0001
0001
0100
0000
,
0010
0010
1000
0000
,
0001
1000
0001
0000
,
0100
0010
1000
0000
,
1000
1000
0001
0100
,
0010
0000
1000
0000
0001
0010
0001
0000
,
0100
1000
0001
0100
,
1000
0000
0010
0000
1000
0010
1000
0000
,
0010
0100
0001
0000
,
1000
0001
0100
0000
,
1000
0001
1000
0000
0010
1000
0010
0000
,
2002
0000
0000
3003
,
0001
1000
0100
0001
,
0010
0000
0100
0000
0001
0001
0100
0000
,
1000
0010
1000
0100
,
0010
0001
0100
0000
,
1000
0001
0010
1000
,
0100
0000
0001
0000
0010
0001
0010
0000
,
0100
0000
1000
0000
0010
1000
0010
0000
,
0001
0000
0100
0000
0001
1000
0001
0000
,
1000
0100
0001
0010
,
0100
0000
1000
0000
0010
1000
0010
0000
,
0001
0100
1000
0001
,
0100
0001
1000
0000
,
0001
1000
0001
0000
0010
1000
0010
0000
,
0100
0010
0001
0000
,
0001
0010
0001
0000
0010
1000
0010
0000
,
0100
0001
1000
0000
,
1000
0010
1000
0000
0001
0100
0001
0000
,
0100
0010
1000
0000
,
0001
1000
0001
0000
0100
0001
0100
0000
,
0001
1000
0010
0000
,
0100
0010
1000
0001
,
0100
1000
0010
0100
,
0001
1000
0001
0100
,
1000
0000
0010
0000
0100
0100
0001
0000
,
1000
0001
0100
1000
,
0010
0100
0010
0000
0001
0000
1000
0000
,
0010
1000
0010
0000
0001
1000
0001
0000
,
2002
0000
0000
3003
;

//--------------- dance-single - XLev450X-ESP ----------------
#NOTES:
     dance-single:
     XLev450X:
     Hard:
     9:
     0,0,0,0,0:
0000
0000
0000
0000
,
0000
0000
0000
0000
,
0000
0000
0000
0000
,
0000
0000
0000
0000
,
0001
0000
1000
0000
0010
0100
0010
0000
,
0001
0000
1000
0000
0010
1000
0010
0000
,
0001
0010
0001
0000
0001
1000
0001
0000
,
0010
1000
0100
0010
0001
0010
0100
0000
,
0001
0000
1000
0000
0010
1000
0010
0000
,
0100
0000
0001
0000
0001
1000
0001
0000
,
0010
1000
0010
0100
0001
0010
0100
1000
,
0001
1000
0010
0100
0010
0000
0001
0000
,
1000
0001
1000
0000
0010
1000
0010
0000
,
0001
0010
0001
0000
0001
0100
0010
0000
,
1000
0000
0001
0000
1000
0001
1000
0000
,
0001
1000
1001
0000
,
0010
0000
1000
0000
0100
0010
0001
0000
,
0100
0000
1000
0000
0010
0100
0010
0000
,
0001
0010
0001
0000
0100
1000
0100
0000
,
2002
0000
0000
3003
,
0001
0000
1000
0000
0010
0100
0010
0000
,
0001
0000
0010
0000
1000
0100
1000
0000
,
0001
0000
0100
0000
0010
0010
0100
0000
,
0001
0000
1000
0000
0001
1000
0001
0000
,
0010
0000
1000
0000
0100
0010
0100
0000
,
0001
0010
0001
1000
,
0001
0001
1000
0000
0100
0100
0010
0000
,
0010
1000
0001
0000
,
0001
1000
0100
0010
,
0001
0000
0100
0000
0010
1000
0010
0000
,
0001
1000
0100
0001
,
0010
0100
0010
0000
0010
1000
0010
0000
,
0001
1000
0100
0001
,
0100
0010
1000
0001
,
0001
0001
1000
0000
0100
0100
0010
0000
,
0001
0000
1000
0000
0010
1000
0010
0000
,
0001
0000
0100
0000
1000
0001
1000
0000
,
0100
1000
0010
0100
,
0001
0001
0100
0000
1000
1000
0010
0000
,
0100
0000
1000
0000
0001
1000
0001
0000
,
1000
0010
1000
0100
,
0001
0010
0100
0000
0001
1000
0001
0000
,
1000
0010
0100
0010
,
0001
0010
0001
0000
0100
1000
0100
0000
,
0001
1000
0100
0010
,
1000
0010
1000
0000
0001
0100
0001
0000
,
1000
0000
0010
0000
0100
0010
0100
0000
,
2002
0000
0000
3003
;
