#TITLE:Last Concerto;
#ARTIST:ke-ji;
#MUSIC:Last Concerto.ogg;
#BANNER:Last Concerto.png;
#BACKGROUND:Last Concerto-bg.png;
#CDTITLE:./CDTitles/SDVX II -infinite infection-.png;
#SAMPLESTART:43.965;
#SAMPLELENGTH:15;
#OFFSET:-0.329;
#BPMS:0=220;
#BGSTAGE:30;

//--------------- dance-single - XLev450X -泥棒--bSP ----------------
#NOTES:
     dance-single:
     XLev450X -泥棒-:
     Beginner:
     4:
     0,0,0,0,0:
0000
0000
0000
0000
,
0000
0000
0000
0000
,
0000
0000
0000
0000
,
0000
0000
0000
0000
,
0000
0000
0000
1000
,
0000
0001
0000
0010
,
0001
0010
0000
1000
,
0000
0010
0000
1000
,
0010
1000
0000
1001
,
0000
0000
0101
0000
,
0000
0100
0000
0001
,
0000
0000
1000
0000
0000
0110
0000
0000
,
0000
0000
1001
0000
,
0000
0000
0000
0000
,
0000
0110
0000
0000
,
0000
0000
0000
0000
,
0101
0000
0000
0000
,
0000
0000
0000
0000
0000
0000
0000
0010
,
0000
0000
0010
0000
0000
0010
0000
0000
,
0001
0000
0100
0000
,
1000
0000
0010
0100
,
0010
1000
0000
0001
,
1000
0001
0010
0100
,
0001
0000
1000
0000
,
0001
1000
0001
0100
,
0000
0000
0010
0000
0000
1000
0000
0000
,
0001
0000
0010
0000
,
1000
0000
0100
0000
,
0010
0000
0000
0000
,
1000
0000
0001
0000
,
0000
0000
0100
0000
,
0010
0000
1000
0000
,
0001
0000
0100
0000
,
0000
0000
0010
0000
,
1000
0000
0000
0000
,
0001
0000
0100
0000
,
0000
0000
0010
0000
,
1000
0000
0001
0000
,
0100
0000
0010
0000
,
0000
0000
1000
0000
,
0001
0000
1000
0000
,
0010
0000
0000
0000
,
1000
0000
0001
0000
,
0100
0000
0000
0000
,
0010
0000
1000
0000
,
0001
0000
0100
0000
,
0010
0000
0000
0000
,
1000
0000
0001
0000
,
1000
0000
0000
0000
,
0010
0000
0100
0000
,
0001
0000
0000
0000
,
1000
0000
0010
0000
,
1000
0000
0000
0000
,
0100
0000
0010
0000
,
0100
0000
0000
0000
,
0001
0000
1000
0000
,
0001
0000
0000
0000
,
0010
0000
1000
0000
,
0001
0000
0000
0000
,
0001
0000
0100
0000
,
0010
0000
0000
0000
,
0001
0000
1000
0000
,
1000
0000
0000
0000
,
1000
0000
0010
0000
,
1000
0000
0000
0000
,
1001
0000
0000
0000
,
0010
0000
0100
0000
,
0010
0000
0000
0000
,
0001
0000
0010
0000
,
0001
0000
0000
0000
,
1000
0000
0100
0000
,
1000
0000
0000
0000
,
1001
0000
0000
0000
,
0000
0000
0000
0000
,
0000
0000
0000
0000
,
0000
0000
0000
0000
,
0110
0000
0000
0000
,
0000
0000
0000
0000
,
0010
0000
0000
0000
,
0001
0000
0000
0000
,
0100
0000
0000
0000
,
0001
0000
1000
0000
,
0001
0000
1000
0000
,
0100
1000
0100
0000
,
0001
0000
0100
0000
,
0001
0100
0001
0000
,
1001
0000
0000
1010
,
0000
0000
0010
0000
,
1000
0000
0000
0000
0001
0000
0000
0110
;

//--------------- dance-single - XLev450X -泥棒--BSP ----------------
#NOTES:
     dance-single:
     XLev450X -泥棒-:
     Easy:
     6:
     0,0,0,0,0:
0000
0000
0000
0000
,
0000
0000
0000
0000
,
0000
0000
0000
0000
,
0000
0000
0000
0000
,
0000
0000
0000
1000
,
0100
1000
0000
0010
,
0100
0010
0000
0001
,
1000
0001
0100
0010
,
1000
0001
0000
0101
,
0000
0100
0000
0000
1010
0000
0000
0001
,
0000
0000
0110
0000
0000
1000
0000
0100
,
0001
0000
1000
0000
0100
0020
0000
0000
,
0000
0000
0030
0000
1000
0000
0000
0001
,
0000
1000
0010
0001
,
0000
0000
0010
0000
0000
0100
0000
0000
,
0010
0001
0010
0000
,
0100
0000
0000
1000
0000
0000
0100
0000
,
0001
0100
0000
0100
,
0000
0000
0001
0000
0000
0100
0000
0000
,
1000
0000
0010
0000
1000
0000
0000
0010
,
0000
1000
0001
0010
,
0100
0000
1000
0000
0000
0010
0000
0000
,
0001
1000
0010
0100
,
0001
0000
0000
1000
0000
0000
0100
0000
,
0010
0100
0001
1000
,
0000
0000
0010
0000
0000
0100
0000
0000
,
0001
0000
0010
0000
,
1000
0000
0001
0100
,
1000
0000
0100
0000
,
0010
0001
1000
0000
,
1000
0000
0100
0001
,
0100
0010
1000
0001
,
0000
0010
1000
0000
,
0011
0000
1000
0001
,
0100
0000
0110
0000
,
1000
0010
0100
0000
,
1001
0000
0010
0100
,
0001
1000
0010
0100
,
0001
1000
0010
0000
,
0000
1000
0001
1000
,
0010
0000
0010
1000
,
0100
0000
0000
0001
,
0100
0010
0001
1000
,
0010
0000
0100
0000
,
0101
0000
1010
0000
,
0010
0000
0100
0000
,
0001
0000
1000
0000
,
0001
0000
1000
0000
0001
0100
1000
0000
,
1000
0000
0001
0000
,
0100
0010
1000
0000
,
0001
0000
1000
0000
,
0010
0000
1000
0000
0001
0100
0001
0000
,
1000
0000
0010
0000
,
0100
0001
1000
0000
,
0001
0000
1000
0000
,
0010
0100
1000
0000
,
0001
0000
0100
0000
,
0100
0001
0010
0000
,
1000
0000
0100
0000
,
0001
0000
0000
0000
0100
1000
0100
0000
,
0010
0000
0001
0000
,
1000
0001
1000
0000
,
1000
0000
0001
0000
,
1000
0000
0100
0000
,
0010
0000
0001
0000
,
1000
0100
0010
0000
,
0100
0000
0010
0000
,
0001
0000
1000
0000
0001
1000
0100
0000
,
0010
0000
1000
0000
,
0010
0000
1000
0000
,
0001
0000
0100
0000
,
0100
0001
0010
0100
,
2001
0000
0000
0000
,
0000
0000
3000
0000
,
0102
0000
0000
0000
,
0000
0000
0003
0000
,
0200
0000
0000
0000
,
0020
0000
0000
0330
,
1000
0000
0001
0000
,
0010
0000
0100
0000
,
0001
0000
0000
0000
,
1000
0000
0001
0000
,
0001
0010
0001
0000
,
0100
0010
0100
0000
,
1000
0001
1000
0010
,
0100
0001
1000
0000
,
1010
0000
0000
0010
0000
0000
0101
0000
,
0000
1000
0000
0000
0110
0000
0000
0001
,
0000
0010
1000
0000
0001
0000
0010
0200
,
0000
0000
0300
0000
,
1001
0000
0000
0000
;

//--------------- dance-single - XLev450X -泥棒--DSP ----------------
#NOTES:
     dance-single:
     XLev450X -泥棒-:
     Medium:
     11:
     0,0,0,0,0:
0000
0000
0000
0000
,
0000
0000
0000
0000
,
0000
0000
0000
0000
,
0000
0000
0000
0000
,
0000
0000
0000
0001
,
1000
0000
0010
1000
0010
0000
0100
0000
,
0001
0000
0001
0100
0001
0000
1000
0000
,
0001
0000
0100
0010
1000
0000
0001
0100
,
0010
0000
0000
0001
0000
0000
1000
0000
0000
0100
0000
0000
0001
0000
0000
0000
0000
0000
0010
0000
0000
0000
1000
0000
,
0000
0000
0001
0100
0000
0000
0010
0000
0001
0000
0000
0010
,
0100
0000
0000
0010
0000
0100
0000
0010
0000
0001
0000
0010
,
0100
0000
1000
0000
0100
0000
0001
0000
0000
0010
0000
0000
1000
0000
0000
0020
0000
0000
0000
0000
0000
0000
0000
0000
,
0000
0000
0030
0000
0001
0000
0000
1000
,
0000
0010
0100
1000
,
0001
0000
1000
0000
0000
0100
0000
0000
,
0010
1000
0001
0010
,
0100
0000
0000
0001
0000
0000
1000
0000
,
0001
0000
0100
0000
1000
0000
0010
1000
,
0010
0000
0100
0001
0100
0001
1000
0100
,
0010
1000
0001
0010
1000
0000
0010
0000
,
0001
0000
1000
0000
0010
0001
0010
0000
,
1000
0001
0100
1000
,
0010
0000
0001
0000
0010
1000
0010
0100
,
0001
0000
1000
0000
0001
0000
1000
0001
,
1000
0010
1000
0101
,
0000
0000
1010
0000
0000
0100
0010
0000
,
0100
1000
0001
0000
,
0010
0000
1000
0010
,
1000
0100
1000
0001
,
0010
1000
0001
0000
,
0100
1000
0000
0001
,
0100
1000
0010
1000
,
0001
0010
0001
0000
,
1000
0000
0010
1000
,
0001
0010
0001
0000
1000
0000
0010
0000
,
1000
0010
1000
0000
0001
0000
0100
0000
,
1000
0001
1000
0000
0001
0000
1000
0000
,
0010
1000
0010
0000
0001
0000
0010
1000
,
0001
0100
1000
0000
0001
0000
1000
0000
,
0010
1000
0001
0010
,
1000
0000
0001
1000
,
0100
1000
0010
0000
,
0010
1000
0001
0010
,
0001
0010
0001
0000
1000
0000
0000
0000
,
0100
1000
0001
0100
,
0101
0000
1010
0000
,
0010
0000
1000
0000
0010
0000
1000
0010
,
1000
0001
1000
0001
,
0001
1000
0010
1000
,
0100
1000
0001
0000
,
0100
1000
0001
0000
,
0100
0000
1000
0000
0010
0000
1000
0010
,
1000
0001
0100
1000
,
0010
0000
1000
0000
,
0001
1000
0001
0100
,
1000
0001
0010
1000
,
0001
0000
0100
0000
,
1000
0000
0010
0000
,
1000
0000
0010
0000
1000
0010
1000
0000
,
0001
0010
0001
0000
0100
0010
0100
0000
,
1000
0001
0100
0000
,
1000
0001
1000
0000
,
0010
1000
0010
0100
,
0001
0000
1000
0000
,
0010
0010
1000
0001
,
0100
1000
0001
0000
,
1000
0001
1000
0000
,
0010
1000
0001
0000
,
0001
0000
0010
0000
1000
0000
0010
1000
,
0010
0001
1000
0010
,
0100
0000
1000
0001
1000
0000
0010
0000
,
1000
0000
0001
1000
0100
0001
0010
0100
,
2001
0000
3000
1000
,
0001
0100
1000
0010
,
0201
0000
0000
0000
,
0000
0000
0000
0300
,
0220
0000
0000
0330
,
2002
0000
0000
0000
0000
0000
0000
0000
0000
3003
0000
0000
,
0001
1000
0100
0001
0010
1000
,
0100
0010
0001
0010
1000
0001
,
0110
1000
0100
0001
0010
1000
,
0100
0000
0010
0000
0001
0000
0010
0000
1000
0000
0100
0010
,
1000
0000
0001
0000
0100
0001
0100
0000
,
0010
0000
1000
0000
1000
0010
1000
0000
,
0001
0000
1000
0000
0010
0100
0001
0000
,
1000
0010
0100
1000
0001
0010
1000
0000
,
0100
0000
0001
0000
0000
1000
0010
0000
0000
0100
0000
1000
,
0000
0000
0100
0010
0000
0000
0100
0000
0010
0000
0100
0000
,
1000
0000
0000
0000
0100
0000
0010
0000
0001
0000
0010
0000
1000
0000
0000
0100
0000
0000
0001
0000
0000
0200
0000
0000
,
0000
0000
0300
0000
,
1001
0000
0000
0000
;

//--------------- dance-single - XLev450X -泥棒--ESP ----------------
#NOTES:
     dance-single:
     XLev450X -泥棒-:
     Hard:
     16:
     0,0,0,0,0:
0000
0000
0000
0000
,
0000
0000
0000
0000
,
0000
0000
0000
0000
,
0000
0000
0000
0000
,
0000
0000
0000
0000
0000
0000
0001
0100
,
1000
0001
0010
1000
0010
0000
0100
0010
,
0100
1000
0001
0100
0010
0000
1000
0001
,
1000
0001
1000
0001
0010
0001
1000
0010
,
1000
0000
0000
0100
0000
0000
0001
0000
0000
0000
0000
0000
0100
0000
0000
0000
0000
0000
0010
0000
0000
0000
0000
0000
1000
0000
0000
0000
0000
0000
0100
0000
0000
0000
0000
0000
1000
0000
0000
0000
0100
0000
0000
0000
0010
0000
0000
0000
,
0001
1000
0100
0010
0000
0000
0001
0010
0100
1000
0001
0010
,
0100
0000
0000
1000
0100
0010
0001
0010
0100
1000
0100
0010
,
0001
0000
0000
0000
0010
0000
0100
0000
0000
1000
0000
0000
0100
0000
0000
0000
0000
0000
0010
0000
0000
0000
0000
0000
1000
0000
0000
0000
0000
0000
0200
0000
0000
0000
0000
0000
0000
0000
0000
0000
0000
0000
0000
0000
0000
0000
0000
0000
,
0000
0000
0000
0300
0001
0000
0000
1000
,
0000
0010
1000
0010
0100
0001
0010
0100
,
0001
0100
1000
0000
0000
0001
0000
0010
,
1000
0000
0001
0000
0100
0000
0010
0000
1000
0000
0001
0000
0100
0000
1000
0100
,
0001
0000
0000
1000
0000
0001
0100
0001
,
0010
1000
0010
1000
0001
0100
0010
1000
,
0001
0000
0100
0010
0001
0100
1000
0001
,
0010
0000
0100
0000
1000
0001
1000
0001
1000
0000
0010
0000
1000
0000
0010
0000
,
0100
1000
0001
0010
0001
1000
0010
1000
,
0001
0000
0100
0010
0100
0000
1000
0000
0001
0000
0100
0000
1000
0000
0001
0000
,
0010
0000
1000
0000
0010
0000
0001
0000
1000
0000
0100
0000
0010
0000
0001
0100
,
1000
0001
0010
0100
1000
0001
0100
1000
,
0010
0000
1000
0000
0001
0000
1000
0000
0010
0000
1000
0100
0001
0000
0100
0000
,
0001
0000
1000
0001
0000
1000
0000
0010
,
1000
0001
0010
1000
0001
1000
0010
0000
,
1000
0000
0001
0100
0000
1000
0001
0000
,
0010
0000
0001
1000
0010
0001
1000
0000
,
0010
1000
0001
0100
,
0001
0000
1000
0000
0010
1000
0010
1000
,
0001
0000
0010
0000
1000
0000
0100
1000
,
0100
0000
0000
0000
0001
0000
0000
0000
0010
0000
0000
0000
1000
0100
0010
0000
,
0001
1000
0001
1000
,
0010
1000
0010
0000
0001
0000
1000
0010
,
1000
0000
0100
0000
1000
0000
0001
0010
,
0001
0000
1000
0000
0100
0000
1000
0001
,
1000
0000
0010
0000
0100
0000
1000
0100
,
0001
0000
0010
0000
0201
0000
0301
0100
,
1000
0000
0010
0100
1000
0001
0010
0100
,
1000
0001
1000
0100
0000
0010
0001
0000
0000
1000
0000
0100
,
0010
0000
1000
0001
1000
0000
0010
0000
,
1000
0000
0000
0000
0100
0000
0010
0000
0000
1000
0000
0000
0010
0000
0000
0100
0000
0000
0001
0000
0000
1000
0000
0000
,
0010
1000
0100
1000
,
0001
0000
0000
1000
0000
0000
0001
0000
0100
0000
0001
0000
1000
0000
0000
0010
0000
0000
1000
0000
0000
0000
0000
0000
,
0001
0000
0000
0010
0000
0000
0001
0000
0010
0000
1000
0000
0100
0000
0000
1000
0000
0000
0100
0000
0010
0000
1000
0000
,
0001
1000
0010
1000
0001
0100
0010
1000
,
0010
1000
0001
1000
0010
1000
0001
1000
,
0010
0000
0000
0000
0000
0000
1000
0000
0100
0000
0010
0000
0001
0000
0000
0000
0000
0000
1000
0000
0000
0001
0000
0000
,
1000
0000
0100
0000
0010
0000
0001
0000
0000
0000
0000
0000
1000
0000
0100
0000
0001
0000
0010
0000
0000
1000
0000
0000
,
0010
0000
0100
0000
0010
0000
0001
0000
1000
0000
0100
0000
0010
0000
0000
0000
0000
0000
0100
0000
0000
1000
0000
0000
,
0100
0001
1000
0010
1000
0001
0100
0010
,
1000
0000
0000
0000
0000
0000
0001
0000
0010
0000
0100
0000
1000
0000
0000
0000
0000
0000
0010
0000
0000
1000
0000
0000
,
0010
0000
0000
0000
0000
0000
0100
0000
0001
0000
0100
0000
1000
0000
0100
0000
0010
0000
0001
0000
0000
0010
0000
0000
,
0001
0000
1000
0000
0010
0000
1000
0100
,
0001
1000
0010
1000
0010
1000
0001
1000
,
0100
0000
0000
0001
0010
0100
1000
0000
0000
0010
0001
0100
,
1000
0000
0000
0000
0000
0000
0010
0000
1000
0000
0001
0000
0100
0000
0010
0000
0100
0000
1000
0000
0000
0001
0000
0000
,
1000
0000
0000
0000
0000
0000
0010
0000
0001
0000
0100
0000
1000
0000
0001
0000
0100
0000
0010
0000
0000
1000
0000
0000
,
0010
0100
0001
1000
0010
1000
0001
0100
,
0010
0000
0000
0000
0000
0000
1000
0000
0001
0000
1000
0000
0001
0000
0100
0000
0001
0000
1000
0000
0000
0010
0000
0000
,
1000
0000
0100
0000
0010
0000
0001
0000
1000
0000
0001
0000
0010
0000
0100
0000
0001
0000
1000
0000
0000
0001
0000
0000
,
0100
0000
0000
0000
0000
0000
0001
0000
1000
0000
0100
0000
0010
0000
0001
0000
0100
0000
1000
0000
0000
0010
0000
0000
,
1000
0001
0100
0010
1000
0001
1000
0010
,
1000
0000
0000
0001
0010
0100
1000
0100
0001
1000
0000
0000
,
0100
0000
0000
0000
0000
0000
1000
0000
0100
0000
0010
0000
0001
0000
0010
0000
0100
0000
1000
0000
0000
0010
0000
0000
,
1000
0000
0001
0010
0001
0000
1000
0010
,
1000
0100
0001
1000
0010
1000
0001
0100
,
0010
0000
0000
0000
0000
0000
1000
0000
0010
0000
0100
0000
0001
0000
0000
0000
0000
0000
1000
0000
0000
0010
0000
0000
,
1000
0000
0000
0000
0000
0000
0001
0000
1000
0000
0010
0000
0100
0000
0000
0000
0000
0000
1000
0000
0000
0001
0000
0000
,
1000
0000
0000
0010
0001
1000
0100
0001
0100
1000
0001
0100
,
1000
0010
0001
1000
0001
0100
0010
1000
,
0200
0000
0301
1000
,
0010
0100
0010
1000
,
0200
0000
0000
0000
,
0000
0000
0000
0300
,
0002
0000
0000
0000
,
2000
0000
0000
3003
,
0010
0100
0010
1000
0010
1000
0100
0010
0001
0010
0100
1000
,
0001
0100
0001
0100
0001
1000
0010
0100
0001
0010
0100
1000
,
0001
1000
0100
0010
0100
0010
0001
1000
0001
0010
0001
1000
,
0100
1000
0100
0010
0001
0100
0010
0100
0010
0100
0001
1000
,
0100
0010
0001
1000
0100
0001
0100
0000
,
0010
0100
0010
0001
1000
0010
0100
0000
,
0001
1000
0001
1000
0001
1000
0100
1000
,
0001
0000
0100
0000
0001
0010
1000
0000
0010
0000
0100
0000
0001
0000
0010
0000
,
0001
0010
0100
1000
0001
0010
0100
0000
0000
1000
0100
0010
,
0001
1000
0100
0010
0000
0000
0001
0010
0100
1000
0100
0010
,
0001
0000
0000
0000
0010
0000
0000
0000
0100
0000
0000
0000
1000
0000
0000
0000
0100
0000
0010
0000
0000
0001
0000
0000
0010
0000
0000
0000
0000
0000
0100
0000
0000
0000
0000
0000
0010
0000
0000
0000
0000
0000
0002
0000
0000
0000
0000
0000
,
0000
0000
0000
0003
,
1001
0000
0000
0000
;
