#TITLE:Lachryma《Re:Queen’M》 (BEMANI SYMPHONY Arr.);
#ARTIST:かねこちはる × Morrigan + gaQdan;
#ARTISTTRANSLIT:Chiharu Kaneko × Morrigan + gaQdan;
#MUSIC:Lachryma(Re-Queen'M) (BEMANI SYMPHONY Arr.).ogg;
#BANNER:Lachryma(Re-Queen'M) (BEMANI SYMPHONY Arr.).png;
#BACKGROUND:Lachryma(Re-Queen'M) (BEMANI SYMPHONY Arr.)-bg.png;
#CDTITLE:./CDTitles/jb festo.png;
#SAMPLESTART:119.411;
#SAMPLELENGTH:15;
#OFFSET:-0.020;
#BPMS:0=200;
#BGSTAGE:30;

//--------------- dance-single - XLev450X-bSP ----------------
#NOTES:
     dance-single:
     XLev450X:
     Beginner:
     6:
     0,0,0,0,0:
0000
0000
0000
0000
,
0000
0000
0000
0000
,
0000
0000
0000
0000
,
0000
0000
0000
0000
,
0000
0000
0000
0000
,
0000
0000
0000
0000
,
0000
0000
0000
0000
,
0000
0000
0001
0100
,
1000
0001
1000
0010
,
0001
1000
0001
0100
,
0000
0000
0010
1000
,
0001
0100
1000
0001
,
0010
0100
0001
0000
,
0000
0000
1000
0001
,
1000
0010
0100
0001
,
2002
0000
0000
0000
,
0000
0000
0000
0000
,
0000
0000
0000
0000
,
3003
0000
0000
0000
,
0000
0000
0000
0000
,
0000
0000
0000
0000
,
0001
0000
1000
0001
,
0010
0000
1000
0100
,
0001
1000
0001
0100
,
0010
0000
1000
0000
,
0001
0000
0001
0000
,
1000
0000
1000
0000
,
0001
0000
1000
0000
,
0001
0000
0000
0000
,
1000
0000
0010
0000
,
0100
0001
1000
0000
,
0010
0000
1000
0000
,
0001
0100
1000
0001
,
0010
0000
1000
0000
,
0010
0000
0100
0000
,
0001
1000
0010
0100
,
0001
1000
0010
0100
,
0022
0000
0000
0000
,
0000
0000
0000
0033
,
0001
1000
0001
0100
,
1000
0010
0100
0010
,
2020
0000
0000
0000
,
0000
0000
0000
3030
,
0001
0000
1000
0000
,
0001
0000
0010
0000
,
1000
0001
0100
0000
,
1000
0010
1000
0000
,
0010
0100
0001
0000
,
0001
1000
0001
0000
,
0010
1000
0100
0000
,
0001
1000
0010
0000
,
0100
1000
0001
0100
,
0010
1000
0001
0100
,
0000
0000
0001
0000
0000
0000
0000
1000
,
0000
0000
0000
0010
0000
0000
0000
0000
,
0001
0000
0000
0000
0000
0000
0000
0100
,
0000
0000
0000
0010
0000
0000
0000
0000
,
0000
0000
1000
0000
0000
0000
0000
0100
,
0000
0000
0000
0001
0000
0000
0000
0000
,
0001
0000
0000
1000
,
0000
0000
0010
0000
,
0000
0100
0000
0000
,
2002
0000
0000
0000
,
0000
0000
0000
0000
,
3003
0220
0000
0000
,
0000
0000
0000
0000
,
0000
0000
0330
0000
,
0000
0000
0000
0000
,
0002
0000
0003
1000
,
0010
1000
0001
0000
,
0100
0010
1000
0001
,
0010
0000
1000
0001
,
1000
0010
0100
0000
,
1000
0010
1000
0001
,
0100
0000
1000
0001
,
0100
0010
0202
0000
,
0000
0000
0000
0000
,
0000
0000
0000
0000
,
0000
0000
0303
0000
,
0000
0000
0000
0000
,
0000
0000
0000
0000
,
0000
0000
0001
0000
,
1000
0010
1000
0000
,
0100
0001
1000
0001
,
0100
0010
1000
0000
,
0001
0000
0010
0000
1000
0000
0000
0001
,
0000
0000
0000
0000
0100
0000
0000
0010
,
0000
0000
0001
0000
,
1000
0000
0010
0000
,
0000
0000
0001
0000
,
1000
0000
0100
0010
,
0001
0000
1000
0001
,
0100
0010
0001
0000
,
0000
0000
1000
0000
,
0010
0000
0100
0000
,
0001
0000
1000
0000
,
0010
0000
0100
0001
,
1000
0010
0200
0000
,
0000
0000
0300
0000
0001
0000
0000
1000
,
0000
0010
0001
1000
,
0001
0010
1000
0001
,
0100
0000
0000
0010
,
1000
0001
0010
0100
,
1000
0001
0010
1000
,
0001
0000
0000
1000
,
0010
0100
1000
0001
,
0010
1000
0000
1000
,
0100
0001
1000
0001
,
0000
0000
1000
0010
,
1000
0100
0000
0001
,
0010
1000
0001
0100
,
0010
0100
2002
0000
,
0000
0000
0000
0000
,
0000
0000
0000
3003
0000
0000
0000
0000
,
0000
0000
0000
0000
,
0000
0000
0000
0000
,
0000
0000
0000
0000
0000
0220
0000
0000
,
0000
0000
0000
0000
,
0000
0000
0000
0000
,
0000
0000
0000
0000
0000
0000
0000
0000
;

//--------------- dance-single - XLev450X-BSP ----------------
#NOTES:
     dance-single:
     XLev450X:
     Easy:
     11:
     0,0,0,0,0:
0000
0000
0000
0000
,
0000
0000
0000
0000
,
0000
0000
0000
0000
,
0000
0000
0000
0000
,
0000
0000
0000
0000
,
0000
0000
0000
0000
,
0000
0000
0000
0000
,
0000
0000
0001
1000
,
0010
0100
1000
0001
,
0100
0000
1000
0000
0010
1000
0010
0000
,
0100
0001
0010
1000
,
0001
1000
0001
0000
0010
0000
1000
0000
,
0001
0000
0010
1000
0100
0000
1000
0000
,
0001
0100
1000
0000
0010
0000
1000
0000
,
0010
1000
0001
0000
0010
0001
0010
0000
,
2002
0000
0000
0000
,
0000
0000
0000
0000
,
0000
0000
0000
0000
,
3003
0000
0000
0000
,
0000
0001
1000
0010
,
0100
1000
0001
0000
,
1000
0000
0010
0000
0001
0010
0001
0000
,
1000
0000
0001
0000
1000
0001
1000
0000
,
0010
1000
0010
0000
0010
0100
0010
0000
,
1000
0000
0001
0000
0010
1000
0001
0000
,
1000
0000
0000
0001
0000
0000
0100
0000
0000
0000
0000
0000
1000
0000
0000
0000
,
0001
0000
0000
1000
0000
0000
0010
0000
0000
0000
0000
0000
0001
0000
0000
0000
,
1000
0000
0100
0000
0001
0000
0000
0000
0100
0000
0000
1000
0000
0000
0010
0000
,
0001
0000
0220
0000
0000
0330
0000
0000
,
0001
1000
0001
1000
,
0010
1000
0010
0000
0001
0010
0001
0000
,
1000
0001
0100
1000
,
1000
0001
0100
0010
1000
0001
1000
0000
,
0010
0000
0000
1000
0000
0000
0001
0000
0000
0000
0000
0000
0100
0000
0000
0000
,
1000
0000
0000
0010
0000
0000
0100
0000
0000
0000
0000
0000
0001
0000
0000
0000
,
1000
0000
0010
1000
0010
0000
0001
0010
,
0001
0000
0000
0000
1000
0000
0001
0000
0100
0000
0000
0010
0000
0000
0100
0000
,
2002
0000
0000
0000
,
0000
0000
0000
3003
,
0001
1000
0010
0100
,
1000
0000
0001
0000
1000
0000
0001
1000
,
0010
0000
0000
0000
,
0100
0000
0000
0000
,
0011
0000
0000
1100
0000
0000
0110
0000
,
0000
1010
0000
0000
0101
0000
0010
0000
,
1000
0000
0001
0000
1000
0001
1000
0000
,
0010
0010
1000
0100
,
0001
0000
1000
0000
0001
1000
0001
0000
,
1000
0000
0010
0000
1000
0010
1000
0000
,
0001
0000
0100
0000
0001
0010
0001
0000
,
1000
0000
0100
0000
1000
0001
1000
0000
,
0010
0000
1000
0000
0010
1000
0010
0000
,
0001
0010
0001
0000
1000
0100
1000
0000
,
0000
0000
0001
0000
1000
0000
0000
0010
,
0000
0001
0000
0100
0000
1000
0001
0100
,
1000
0000
0001
0000
0100
0000
0000
1000
,
0000
0001
0000
0010
0000
1000
0100
0010
,
0001
0000
1000
0000
0010
0000
0000
0100
,
0000
0001
0000
1000
0000
0100
0001
1000
,
0010
0001
0010
1000
,
0100
0001
1000
0010
,
1000
0001
0100
0010
,
0002
0000
0000
0000
,
0000
0000
0000
0000
,
0000
2000
0000
0000
,
0000
0000
0000
0000
,
0000
0000
3003
0000
,
0000
0000
0000
0000
,
0001
1000
0010
0100
,
1000
0010
1000
0000
0001
0000
0010
0000
,
0001
0010
0001
0000
1000
0000
0100
0000
,
1000
0000
0001
1000
0001
0000
0010
0000
,
1000
0010
1000
0000
0010
0000
0100
0000
,
1000
0000
0001
0000
1000
0001
1000
0000
,
0001
0100
1000
0001
,
0010
0000
1000
0000
0001
0000
0000
0100
,
0000
1000
0010
0100
,
0001
0000
0000
1000
0000
0100
0010
0000
,
0001
0000
1000
0000
0010
0000
0000
1000
,
0000
0100
0001
0000
1000
0000
0010
0000
,
1000
0010
1000
0100
0001
0010
0001
0010
,
2000
0000
0000
3000
0001
0000
1000
0000
,
0001
0100
0001
0000
1000
0000
0010
0000
,
1000
0010
1000
0000
0010
0100
0010
0000
,
0001
0010
0001
0000
1000
0000
0001
0000
,
0100
0000
0000
0000
1000
0000
0000
0000
0001
0000
0000
1000
0000
0000
0100
0000
,
0000
0000
0001
0000
1000
0000
0100
0000
0010
0000
0000
0001
0000
0000
0100
0000
,
0000
1000
0001
0100
1000
0000
0001
0000
,
0100
0010
1000
2002
,
0000
3003
0001
1000
,
0001
0000
1000
0000
0010
0001
1000
0100
,
0001
0010
0001
0000
1000
0000
0100
0000
,
1000
0000
0001
0000
0001
1000
0010
1000
,
0001
0000
0100
0000
0010
0000
1000
0000
0001
0000
0000
1000
0000
0000
0001
0000
,
0000
0000
0010
0000
0100
0000
0010
0000
1000
0000
0000
0010
0000
0000
0100
0000
,
0000
1000
0001
0001
1000
0000
0001
1000
,
0001
0000
0010
1000
0010
0000
0001
0000
,
0010
1000
2002
0000
,
0000
0000
0000
0000
3003
0000
0000
0000
0010
0000
0000
0100
0000
0000
0001
0000
,
1000
0000
0000
0010
0000
0000
1000
0000
0001
0000
0000
0000
1000
0000
0000
0000
,
0001
0000
1000
0010
1000
0000
0001
0000
,
0010
0000
0100
0000
1000
0000
0001
1000
,
0001
1000
0010
0001
,
0010
0000
0001
0010
0001
0000
1000
0000
,
0100
1000
0001
0010
,
1000
0000
0001
0000
0001
0000
1000
0010
,
1000
0000
0010
0000
0100
0010
0100
0000
,
0001
0000
0001
0010
0001
0000
1000
0000
,
0001
1000
0001
0000
0010
0000
1000
0010
,
1000
0000
0001
0000
0100
0010
0100
0000
,
0010
0000
1000
0000
0001
0000
1000
0001
,
1000
0010
2002
0000
,
0000
0000
0000
0000
,
0000
0000
0000
0000
0000
0000
0000
0000
0000
3003
0000
0000
0202
0000
0000
0000
0000
0000
0000
0000
0000
0000
0000
0000
,
0000
0000
0000
0000
,
0000
0000
0000
0000
,
0000
0303
0000
0000
0000
0000
0000
0000
0000
0000
0220
0000
0000
0000
0000
0000
,
0000
0000
0000
0000
,
0000
0000
0000
0000
,
0000
0000
0000
0000
0000
0000
0000
0000
0000
0330
0000
0000
0000
0000
0000
0000
;

//--------------- dance-single - KONAMI [DDR A20]-DSP ----------------
#NOTES:
     dance-single:
     KONAMI [DDR A20]:
     Medium:
     15:
     0,0,0,0,0:
0000
0000
0000
0000
,
0000
0000
0000
0000
,
0000
0000
0000
0000
,
0000
0000
0000
0000
,
0000
0000
0000
0000
,
0000
0000
0000
0000
,
0000
0000
0000
0000
,
0000
0000
0000
0000
0001
0010
0100
0000
,
1000
0000
0010
1000
0001
0000
0100
0000
,
0020
0000
0000
1030
0100
1000
0200
0000
,
0300
0000
0010
0001
0010
0000
0100
0000
,
1000
0010
0100
0001
,
2000
0000
0000
0200
,
3300
0000
0100
0010
0001
0000
0100
0000
,
0001
0010
0100
1000
,
2002
0000
0000
0000
,
0000
0000
0000
0000
,
0000
0000
0000
0000
,
0000
0000
0000
0000
,
3003
0002
0203
0320
,
2030
3001
1001
0000
,
0001
0000
0100
0020
0000
0030
1000
0100
,
1000
0000
0010
0200
0000
0300
0001
0010
,
0100
1000
0100
0010
0001
0100
0010
0100
,
0002
0000
0000
0000
1000
0000
1003
0000
,
1100
0000
0000
1000
0000
0000
2002
0000
0000
0000
0000
0000
3003
0000
0000
0000
,
0101
0000
0000
0001
0000
0000
2002
0000
0000
0000
0000
0000
3003
0000
0000
0000
,
0010
0000
0000
0000
0100
0000
0000
0000
0001
0000
0000
1000
0000
0000
0001
0000
,
1000
2002
0000
3003
,
1000
0000
0001
0200
0000
0300
0010
1000
,
0010
0000
0100
0002
0000
0003
1000
0100
,
0010
0000
0000
0001
0000
0000
0010
0000
0001
0000
0000
0100
0000
0000
0001
0000
,
1000
0001
1000
0001
1000
0001
1000
0000
,
1010
0000
0000
1000
0000
0000
2002
0000
0000
0000
0000
0000
3003
0000
0000
0000
,
0011
0000
0000
0001
0000
0000
2002
0000
0000
0000
0000
0000
3003
0000
0000
0000
,
1010
1000
1001
0010
,
0110
0100
0101
1000
,
2002
0000
0000
0000
,
0000
0000
0000
3003
,
0010
0001
0010
0100
1000
0010
0100
0001
,
0100
0010
1000
0100
0010
0001
0010
0000
,
0002
0000
0023
0000
,
0230
0000
2300
0000
,
3001
0100
0000
0001
0100
0000
0010
1000
,
0000
0010
1000
0000
1010
0000
1001
0000
,
0001
0100
0001
0100
0010
1000
0010
1000
,
0100
0010
0001
0010
0001
0100
0010
0000
,
0100
0001
0100
0001
0010
0100
0010
0001
,
1000
0100
0010
0100
1000
0010
0100
0000
,
0010
1000
0010
1000
0100
0010
0100
0010
,
0001
0100
0010
1000
0010
0100
0001
0000
,
1000
0100
1000
0100
0010
0001
0100
0010
,
1000
0010
1000
0010
1000
0100
0010
0001
,
0000
0000
0011
0000
0001
0100
0000
0101
,
0000
0100
0010
0100
0000
0100
1000
0100
,
1000
0000
1100
0000
0100
0010
0000
0110
,
0000
0010
0100
0010
0000
1000
0001
1000
,
0001
0000
1001
0000
0001
1000
0000
1100
,
0000
1000
0100
1000
0000
0100
0010
0100
,
0020
0001
0100
0032
,
1000
0100
2003
0100
,
0001
3200
0010
1000
,
0320
0000
0001
0000
,
1000
0000
0001
0000
,
1000
0200
0000
0000
,
0000
0000
0000
0000
,
0000
0000
0000
0330
0000
0000
0000
0000
,
0000
0000
0000
0000
,
1000
0000
0010
0100
0000
0010
1000
0000
,
1010
0000
1010
0000
0002
0000
0003
0001
,
0010
0100
2000
0000
0000
0000
3010
0100
,
0001
0010
0011
0001
,
0100
0000
0010
1000
0010
0000
1000
0000
,
0100
0000
0002
0000
0203
0000
1300
0100
,
0010
0001
1001
0010
,
0100
0110
1001
0100
,
1000
0100
1000
0100
,
1001
0100
0001
0100
,
0001
0100
1001
0010
,
1000
0000
0010
0000
1000
0000
0010
1000
,
0100
0010
0100
0010
0001
0010
0001
0000
,
1001
0000
0100
0001
0100
0000
0001
0010
,
0000
0001
0100
0001
0100
0000
0010
1000
,
0000
0100
1000
0100
1000
0010
1000
0000
,
0001
0100
0001
0000
2002
0000
3003
0000
,
0010
0000
0100
0000
0010
0000
0100
0000
0010
0000
0000
0100
0000
0000
0220
0000
,
0000
0000
0000
0000
0330
0000
0000
0000
1000
0000
0000
0001
0000
0000
2002
0000
,
0000
0000
0000
0000
0000
0000
3003
0000
0000
0000
0000
0000
0001
0000
0000
0000
0000
0000
1001
0000
0000
0000
0000
0000
,
0001
0000
0000
0000
0000
0000
0000
0000
0000
1000
0000
0000
0000
0000
0000
0000
0000
0000
0001
0000
0000
0000
0000
0000
0010
0000
0000
0000
0000
0000
0000
0000
0010
0000
0000
0000
0100
0000
0000
0000
0000
0000
0000
0000
0100
0000
0000
0000
,
1000
0000
1000
0001
0000
0000
0011
0000
0000
0110
0000
0000
,
1010
0000
0110
0000
0001
0010
0001
1000
,
0001
0000
0100
0000
0001
0000
0000
0000
0010
0000
0000
0001
0000
0000
0100
0000
,
0010
0000
0000
1000
0000
0000
0100
0000
1000
0000
0001
0000
1000
0000
0001
0000
,
1000
0000
0001
0000
1000
0000
0000
0000
0001
0000
0000
1000
0000
0000
0220
0000
,
0000
0000
0000
0000
0330
0000
0000
0000
1000
0000
0000
0001
0000
0000
0220
0000
,
0000
0000
0330
0000
1001
0000
0010
1000
,
0010
1000
0100
0010
0100
0010
0001
0010
,
0001
0100
0010
1000
0002
0000
0000
0000
,
0000
0000
0000
0000
0003
0000
0000
0000
1000
0000
0000
1000
0000
0000
1000
0000
,
0000
1000
0000
0000
1000
0000
0000
0000
0001
0000
0010
0000
0001
0000
0100
0000
,
0010
1000
0100
0010
0001
0010
0100
1000
,
0001
0100
0010
1000
0100
0010
0001
0100
,
0010
0100
0001
1000
0010
0100
0001
1000
,
0100
0010
0001
0010
1000
0001
0100
1000
,
0001
0101
1001
1000
,
1100
0000
1001
0000
1000
0100
1000
0010
,
0100
0001
0010
0100
1000
0001
0100
0010
,
1000
0001
0100
0010
0100
0001
0010
0100
,
0010
0001
1000
0100
0010
0001
0100
0010
,
1000
0001
1000
0010
0001
1000
0100
0001
,
1000
1010
1001
0001
,
0011
0110
2002
0000
,
0000
0000
0000
0000
,
0000
0000
0000
0000
3003
0000
0000
0000
0001
0000
0100
0000
0001
0000
0010
0000
,
0100
0000
0000
0000
0010
0000
0000
0000
0100
0000
0000
0000
1000
0000
0000
0000
0000
0100
0000
0000
0000
1000
0000
0000
0000
0010
0000
0000
0000
1000
0000
0000
,
0000
0010
0000
0000
0000
0100
0000
0000
0000
0001
0000
0000
0000
1000
0000
0000
0000
0000
0000
0010
0000
0000
0000
0000
0000
0001
0000
0000
0000
0000
0000
0100
,
0000
0000
0000
0000
,
0000
0000
0000
0000
,
0000
0000
0000
0000
,
0000
0000
0000
0000
0000
0330
0000
0000
;

//--------------- dance-single - KONAMI [DDR A20]-ESP ----------------
#NOTES:
     dance-single:
     KONAMI [DDR A20]:
     Hard:
     18:
     0,0,0,0,0:
0000
0000
0000
0000
,
0000
0000
0000
0000
,
0000
0000
0000
0000
,
0000
0000
0000
0000
,
0000
0000
0000
0000
,
0000
0000
0000
0000
,
0000
0000
0000
0000
,
0000
0000
0000
0000
1000
0100
0010
0001
,
0100
0010
0001
0010
0100
1000
0001
0010
,
0100
0001
0010
0100
1000
0010
0100
1000
,
0001
0010
0100
1000
0001
0010
0100
0001
,
0010
0100
1000
0001
0010
0100
1000
0100
,
0010
0001
1000
0100
0010
0000
0001
0010
,
0100
1000
0001
0000
1000
0100
0010
0001
,
0010
0100
1000
0001
0010
0100
1000
0100
,
0010
0001
0100
0010
1000
0100
1100
0000
,
1001
0000
1100
0000
1000
0010
0100
0001
,
0010
0100
1100
0000
1001
0000
1100
0000
,
0100
1000
0010
0100
0001
0010
0100
1000
,
0001
0000
0000
0100
0000
0000
0001
0000
0010
0000
0001
0000
1000
0000
0010
0000
0100
0000
0001
0000
1000
0000
0001
0000
,
0010
0000
0000
0000
0100
0000
0000
0000
1000
0000
0000
0000
0001
0000
0000
0000
0000
0000
0000
0000
0000
0000
0000
0000
1001
0000
0000
0000
0000
0000
0000
0000
0000
0000
0000
0000
0001
0000
0000
0010
0000
0000
0100
0000
0000
1000
0000
0000
,
0001
0000
0000
0000
0100
0000
0220
0000
0000
0000
0330
0000
1000
0100
0010
0001
,
1000
0000
0000
0000
0100
0000
0220
0000
0000
0000
0330
0000
0001
0010
0100
1000
,
0010
1000
0100
1000
0010
0100
0010
2000
,
0002
0000
0000
0000
3003
0000
0000
0000
0001
1000
0001
1000
0001
0000
1000
0100
,
0010
0000
0000
0011
0000
0000
1001
0000
0000
0000
0001
0000
0100
0000
1000
0000
,
0100
0000
0000
0110
0000
0000
2020
0000
0000
0000
0000
0000
3030
0000
0001
0100
,
0001
0000
0000
0000
1001
0000
0000
0000
0010
0000
0000
0100
0000
0000
0010
0000
,
0100
0000
0000
0000
2002
0000
0000
0000
3003
0000
0000
0000
0100
1000
0100
1000
,
0001
0000
0000
0000
1000
0000
1010
0000
0000
0000
0000
0000
0100
0001
0100
0001
,
1000
0000
0000
0000
0001
0000
0011
0000
0000
0000
0000
0000
0010
0100
0010
0100
,
1000
0000
0000
0010
0000
0000
0100
0000
0001
0000
0000
1000
0000
0000
0100
0000
,
1000
0001
1000
0001
1000
0001
1000
0001
1000
0001
1000
0001
1000
0000
0000
0000
,
0001
0000
0000
0100
0000
0000
0110
0000
0000
0000
1000
0000
0010
0000
0100
0000
,
0010
0000
0000
1000
0000
0000
1100
0000
0000
0000
0010
0000
0001
0000
1000
0000
,
0100
0000
0000
0000
1000
0000
0010
0100
0010
0000
0000
0000
1000
0000
0001
0010
,
0001
0000
0000
0000
0100
0000
0001
1000
0001
0000
0010
0000
0100
0000
0010
0000
,
2002
0000
0000
0000
,
0000
0000
0000
3003
,
0011
0001
1000
1100
0001
0100
0110
0010
,
1000
1010
0100
0001
1000
0100
0001
0100
,
2000
0000
3200
0000
,
0320
0000
0032
0000
,
1003
1100
0000
0001
0011
0000
0001
0101
,
0000
1000
1010
0000
0001
1000
0001
0000
,
1000
0100
1000
0000
0001
0000
0010
0000
0100
1000
0100
0000
0010
0000
0001
0000
,
0100
0001
0100
0000
0010
0000
1000
0000
0001
0100
0001
0000
1000
0100
1000
0000
,
0001
1000
0001
0000
0100
0000
0010
0000
1000
0100
1000
0000
0100
0000
0010
0000
,
0001
0100
0001
0000
1000
0000
0010
0000
0100
0010
0100
0000
0001
0100
0001
0000
,
1000
0100
0010
0000
0001
0000
0100
0000
0010
1000
0001
0000
0010
0000
0100
0000
,
1000
0001
0100
0000
0001
0000
0010
0000
0100
1000
0001
0000
0010
0100
1000
0000
,
0010
1000
0100
0000
0010
0000
0001
0000
0100
0010
1000
0000
0001
0000
0010
0000
,
0100
1000
0010
0000
0100
0000
0001
0000
1000
0100
1000
0100
0010
0001
0010
0001
,
0000
0000
1001
0000
1000
0100
0000
0110
,
0000
0010
0001
0100
0000
0010
1000
0010
,
1000
0000
1001
0000
0001
0100
0000
0110
,
0000
0010
1000
0010
0100
1000
0100
0001
,
0100
0000
0110
0000
0010
1000
0000
1001
,
0000
0001
0010
1000
0001
0100
1000
0001
,
1000
0001
1000
0001
1001
0000
0010
0100
,
0010
0100
0110
0000
0001
1000
0001
1000
,
1001
0000
0100
0010
0100
0010
0110
0000
,
1000
0001
1000
0001
1000
0001
1000
0001
1000
0001
1000
0001
1000
0001
1000
0001
,
1000
0001
1000
0001
1000
0001
1000
0001
1000
0001
1000
0001
1000
0001
1000
0001
,
1000
0001
1000
0001
1000
0001
1000
0001
1000
0001
1000
0001
1000
0001
1000
0001
,
1000
0001
1000
0001
1000
0001
1000
0001
1000
0001
1000
0001
1000
0001
1000
0001
,
1000
0001
1000
0001
1000
0001
1000
0001
1000
0000
0000
0000
0000
0000
0000
0000
,
0000
0000
0000
0000
,
1000
0010
1000
0100
0010
0001
0101
0000
,
1100
0000
1001
0000
0020
0000
1030
0010
,
0001
0010
2000
0000
3000
0000
0001
0010
,
0100
1100
1010
0100
,
0011
0000
0001
0010
0100
0000
0110
0000
,
1001
0000
0000
0000
0000
0000
0100
0000
0010
0000
0001
0000
1000
0000
0000
0000
0000
0000
0100
0000
0000
0001
0000
0000
,
0100
1000
0010
0100
0010
0000
1000
0001
,
0010
0100
1000
0000
0001
0100
0010
0100
,
0001
0100
1000
0100
0001
0100
0010
0000
,
1000
0100
0010
0100
1000
0100
0001
0100
,
1000
0100
0010
0000
0001
0100
0010
0100
,
0001
0000
0000
0100
0000
0000
1000
0000
0000
0100
0000
0000
0001
0000
0000
0100
0000
0000
0001
0000
0010
0000
0001
0000
,
0010
0100
0010
0100
1000
0100
1000
0001
1000
0001
0000
0000
,
1001
0000
0000
0000
0000
0000
0000
0000
0000
0000
0000
0000
0000
0000
0000
0000
0001
0000
0000
0000
0010
0000
0000
0000
0100
0000
0000
0000
1000
0000
0000
0000
0002
0003
0000
0000
0000
0000
0000
0000
0000
0000
0000
0000
0000
0000
0000
0000
1001
0000
0000
0000
0000
0000
0000
0000
1000
0000
0000
0000
0000
0000
0000
0000
,
0010
0000
0100
0000
0001
0010
0100
0010
0001
0000
1000
0000
0010
0000
0100
0000
,
0010
0000
1000
0000
0100
0010
0100
0010
0001
0000
0100
0000
1000
0000
0100
0000
,
0010
1000
0100
0010
0200
0000
0310
0000
,
1000
0001
1000
0001
1000
0000
1000
0100
0010
0000
0000
0011
0000
0000
0101
0000
,
0000
0000
0010
0000
0001
0000
0010
0000
1000
0000
0000
1100
0000
0000
2002
0000
,
0000
0000
0000
0000
3003
0000
0001
0100
0001
0000
0000
0000
1001
0000
0000
0000
,
0010
0000
0000
0000
0000
0000
0000
0000
0000
0001
0000
0000
0000
0000
0000
0000
0000
0000
1000
0000
0000
0000
0000
0000
0100
0000
0000
0000
1000
0000
0000
0000
0100
0000
0000
0000
1000
0000
0000
0000
0010
0000
0000
0000
1000
0000
0000
0000
,
0010
0100
0010
1000
0000
0000
0101
0000
0000
1010
0000
0000
,
1100
0000
0000
0000
0011
0000
0000
0000
1000
0100
0010
0000
0001
0100
0010
0000
,
1000
0001
1000
0001
1000
0000
0000
0000
0010
0000
0000
1000
0000
0000
1100
0000
,
0010
0000
0000
0001
0000
0000
0101
0000
0001
1000
0001
1000
0001
1000
0001
1000
,
0001
1000
0001
1000
0001
0000
0000
0000
1000
0000
0000
0100
0000
0000
0110
0000
,
0000
0000
1000
0000
0001
0000
1000
0000
0001
0000
0000
0100
0000
0000
0110
0000
,
0000
0000
0000
0001
0000
0000
0010
0000
0000
0100
0000
0000
1000
0000
0000
0000
0000
0000
0010
0000
0100
0000
1000
0000
,
0001
0010
0100
0001
0010
0100
0001
1000
0010
0001
1000
0010
,
0001
1000
0100
0010
1000
0100
0020
0000
0000
0000
0000
0000
,
0000
0000
0000
0000
0030
0000
0000
0000
0001
0000
0000
0001
0000
0000
1000
0000
,
0000
0000
0000
1000
0000
0000
0000
0000
0000
0000
0000
0000
0001
0000
0000
0000
0000
0000
1000
0000
0000
0000
0000
0000
0001
0000
0000
0000
0010
0000
0000
0000
0100
0000
0000
0000
1000
0000
0000
0000
0010
0000
0000
0000
0100
0000
0000
0000
,
0001
1000
0100
1000
0010
0100
0001
0010
0100
1000
0000
0000
,
0100
0010
0001
1000
0010
0100
0001
1000
0100
0010
0001
0100
,
0010
1000
0100
0010
0000
0000
1000
0010
0001
1000
0010
0100
,
1000
0100
0010
1000
0100
0010
0001
0100
1000
0100
0000
0000
,
0010
0100
1000
0100
0010
1000
0100
0010
0001
0010
0000
0000
,
0101
0000
0000
1100
0000
0000
1000
0100
0010
0001
0010
0100
,
1000
0010
0100
0001
1000
0100
0001
0100
1000
0010
0100
0001
,
0010
1000
0010
0001
0100
0010
1000
0001
0100
1000
0100
0010
,
1000
0100
0010
1000
0010
0100
1000
0001
0010
0100
0001
0100
,
0010
0001
1000
0010
0100
0001
0010
0100
1000
0010
0100
0001
,
0010
0011
1001
0100
,
1100
1010
2002
0000
,
0000
0000
0000
0000
,
0000
0000
0000
0000
3003
0000
0000
0000
1010
0000
1000
0000
0001
0000
0101
0000
,
1000
0000
0000
0000
0100
0000
0000
0000
0110
0000
0000
0000
0010
0000
0000
0000
0000
0001
0000
0000
0000
0011
0000
0000
0000
0100
0000
0000
0000
1000
0000
0000
,
0000
0001
0000
0000
0000
0100
0000
0000
0000
1000
0000
0000
0000
0010
0000
0000
0000
0000
0000
0001
0000
0000
0000
0000
0000
0100
0000
0000
0000
0000
0000
1000
,
0000
0000
0000
0000
0000
0000
0000
0000
0000
0000
0001
1000
0001
1000
0001
1000
,
0001
1000
0001
1000
0001
1000
0001
1000
0001
1000
0001
1000
0001
1000
0001
1000
,
0001
1000
0001
1000
0001
1000
0001
1000
0001
1000
0001
1000
0001
1000
0001
1000
,
0001
1000
0001
1000
0001
1000
0001
1000
0001
1000
0001
0000
0000
0000
0000
0000
;

//--------------- dance-single - KONAMI [DDR A20 PLUS]-CSP ----------------
#NOTES:
     dance-single:
     KONAMI [DDR A20 PLUS]:
     Challenge:
     19:
     0,0,0,0,0:
0000
0000
0000
0000
,
0000
0000
0000
0000
,
0000
0000
0000
0000
,
0000
0000
0000
0000
,
0000
0000
0000
0000
,
0000
0000
0000
0000
,
0000
0000
0000
0000
,
0000
0000
0000
0000
0000
0000
0001
0010
0100
1000
0001
0010
,
0100
1000
0100
0010
0001
1000
0100
0010
0001
1000
0001
0100
,
0010
1000
0001
0100
0010
1000
0001
0100
0010
0100
0001
1000
,
0010
0100
0001
1000
0010
0100
0001
0010
0100
1000
0010
0100
,
0001
1000
0100
0010
0001
1000
0001
0100
0010
1000
0100
0010
,
0001
0010
0100
0010
0100
1000
0001
0000
0000
1000
0010
0100
,
0010
0100
0001
1000
0000
0000
0010
0100
0001
1000
0100
0010
,
0001
0100
0010
1000
0100
1000
0010
0100
0001
1000
0001
1000
,
2002
0000
0000
0000
,
0000
0000
0000
0000
,
0000
0000
0000
0000
,
0000
0000
0000
0000
,
3003
0000
0000
0000
0000
0000
0001
0000
0010
0000
0100
0000
0001
0000
0100
0000
1000
0000
0010
0000
0100
0000
1000
0000
,
0100
0000
0000
0000
0001
0000
0000
0000
1000
0000
0000
0000
0010
0000
0000
0000
0000
0000
0000
0000
0000
0000
0000
0000
1001
0000
0000
0000
0000
0000
0000
0000
0000
0000
0000
0000
0001
0000
0000
0010
0000
0000
0001
0000
0000
0010
0000
0000
,
0100
0000
1000
0000
0010
0000
0100
0000
0001
0000
1000
0000
0100
0010
0100
0010
,
0001
0000
0100
0000
1000
0000
0100
0000
0010
0000
1000
0000
0010
1000
0010
1000
,
0100
0010
0011
0001
1001
1000
1010
0010
,
0100
0000
1000
0000
0100
0000
0001
0000
0010
0100
0010
0100
1000
0001
1000
0001
,
1000
0000
0000
0010
0000
0000
0110
0000
0001
0100
0001
0100
0010
1000
0010
1000
,
0010
0000
0000
1000
0000
0000
1001
0000
0001
0010
0001
0010
0100
1000
0100
0010
,
0001
0000
1000
0000
0100
0000
1000
0000
0010
0000
0000
0100
0000
0000
0010
0000
,
0100
0000
0000
0000
2002
0000
0000
0000
3003
0000
0000
0000
0100
1000
0100
1000
,
0001
0000
0100
0000
0010
0000
1000
0000
0100
0000
0010
0000
0001
0100
0001
0100
,
0010
0000
1000
0000
0010
0000
0100
0000
0010
0000
1000
0000
0100
0010
0100
0010
,
0001
0000
0000
0101
0000
0000
1010
0000
1000
0000
0000
1100
0000
0000
0011
0000
,
0001
0010
0100
1000
0001
0010
0100
1000
0001
0010
0100
1000
0001
0000
1000
0100
,
0010
0000
0000
0011
0000
0000
0101
0000
0000
0000
0010
1000
0100
0000
0001
0100
,
1000
0000
0000
1100
0000
0000
1010
0000
0000
0000
0010
1000
0100
0000
0010
0001
,
0100
0000
0000
0000
0001
0010
0100
1000
0010
0000
0000
0000
1000
0010
0100
0001
,
0010
0000
0000
0000
0001
0010
0100
1000
0010
0000
0100
0000
0010
0000
1000
0002
,
2000
0000
0000
0000
,
0000
0000
0000
3003
,
0011
0100
1000
0110
1000
0001
1100
0010
,
0001
1010
0100
0001
0110
1000
0001
0010
,
2002
0000
0000
0000
,
0000
0000
0000
3003
,
0010
0101
0000
0010
1100
0000
0010
0101
,
0000
0010
1100
0000
0001
1000
1001
0000
,
0001
0010
0100
1000
0001
0010
0100
1000
0001
0000
0100
0000
0010
0000
1000
0000
,
0010
1000
0001
0100
0010
1000
0001
0100
0010
0000
1000
0000
0100
0000
0010
0000
,
0001
1000
0010
0100
0001
1000
0010
0100
0001
0000
0010
0000
0100
0000
1000
0000
,
0100
0010
0001
1000
0100
0010
0001
1000
0100
0000
1000
0000
0001
0000
0000
0000
,
1000
0010
0100
0001
1000
0010
0100
0010
1000
0000
0100
0000
0010
0000
0001
0000
,
0010
0001
1000
0100
0010
0001
0010
0100
0010
0000
0001
0000
0100
0000
0010
0000
,
1000
0001
0010
0100
1000
0001
0010
0001
1000
0000
0010
0000
0100
0000
0001
0000
,
0100
0010
1000
0001
0100
0001
1000
0001
1000
0100
0010
0001
1000
0001
0010
0100
,
0000
0000
1001
0000
0010
0100
0000
0110
,
0000
0000
0010
1000
0100
0000
0010
0000
0001
0010
0100
1000
0100
0000
0010
0000
,
0001
0000
1001
0000
0010
0100
0000
0110
,
0000
0000
0010
1000
0100
0000
0001
0000
0100
1000
0100
0010
0100
0000
1000
0000
,
0001
0000
1001
0000
0010
0100
0000
0110
,
0000
0000
0010
1000
0001
0000
0100
0000
0010
1000
0010
0100
0001
0000
1000
0000
,
1100
1000
1010
1000
1001
0000
0101
0001
,
0011
0001
1001
0000
1001
1000
1100
1000
,
1010
0000
1001
0001
0101
0001
0011
0000
,
0001
0010
0100
1000
0001
0010
0100
1000
0001
0010
0100
1000
0001
0010
0100
1000
,
0001
0010
0100
1000
0001
0010
0100
1000
0001
0010
0100
1000
0001
0010
0100
1000
,
0001
0100
0010
1000
0001
0100
0010
1000
0001
0100
0010
1000
0001
0100
0010
1000
,
0001
0100
0010
1000
0001
0100
0010
1000
0001
0100
0010
1000
0001
0100
0010
1000
,
0001
0100
0010
1000
0001
0100
0010
0000
0000
0000
0000
0000
0000
0000
0000
0000
,
0000
0000
0000
0000
,
0001
0000
1000
0100
1000
0100
0020
0000
,
0000
0000
0031
0000
0101
0000
1001
0000
,
1000
0010
1000
0010
0200
0000
0000
0000
0300
0000
0000
0000
0001
0100
0001
0100
,
0010
0000
0000
0000
1010
0000
0000
0000
1000
0100
1000
0100
0010
0000
0000
0000
,
0011
0000
0000
0000
0001
0100
0001
0100
0010
0000
0000
0000
1010
0000
0000
0000
,
1001
0000
0000
0010
0001
0100
0010
0000
0000
0110
0000
0000
,
1000
0011
1001
0010
,
1010
0110
2002
0000
,
0000
0000
0000
0000
,
0000
0000
0000
0000
,
0000
0000
0000
3003
0000
0000
,
0000
0000
0000
0000
0000
0000
0000
0000
0000
0001
0010
1000
,
0001
0100
1000
0010
0001
1000
0100
0001
1000
0001
0000
0000
,
1001
0000
0000
0000
0000
0000
0000
0000
0000
0000
0000
0000
0000
0000
0000
0000
0001
0000
0000
0000
0010
0000
0000
0000
0100
0000
0000
0000
1000
0000
0000
0000
0002
0003
0000
0000
0000
0000
0000
0000
0100
0000
0000
0000
0000
0000
0000
0000
0010
0000
0000
0000
1000
0000
0000
0000
0001
0000
0000
0000
0000
0000
0000
0000
,
0010
0100
1000
0000
0001
0010
0100
0010
0001
0000
1000
0000
0010
0100
0001
0000
,
1000
0001
1000
0000
0100
1000
0001
1000
0100
0000
0010
0000
0011
0000
0001
0000
,
0101
0000
0100
0000
0110
0000
0010
0000
1010
0000
1000
0000
0001
0010
0100
0000
,
0110
0000
0100
0000
0001
0100
1000
0000
1100
0000
0000
1010
0000
0000
1001
0000
,
0100
0001
0100
0001
1000
0100
1000
0100
0010
0000
0000
0011
0000
0000
0101
0000
,
0010
1000
0010
1000
0001
0010
0001
0010
0200
0000
0000
0000
1000
0000
0000
0000
,
0320
0000
0000
0000
0000
0000
0000
0000
0000
0001
0000
0000
0000
0000
0000
0000
0000
0000
0031
0000
0000
0000
0000
0000
1000
0000
0000
0000
0010
0000
0000
0000
0100
0000
0000
0000
1000
0000
0000
0000
0001
0000
0000
0000
0010
0000
0000
0000
,
0100
0001
0010
0001
0000
0000
0101
0000
0000
1010
0000
0000
,
1100
0000
0000
0000
0011
0000
0000
0000
1000
0001
1000
0001
1000
0001
1000
0001
,
1000
0001
1000
0001
1000
0000
0100
0010
0001
0000
0000
0101
0000
0000
1010
0000
,
1000
0000
0000
1100
0000
0000
0011
0000
0001
0010
0001
0100
0001
0010
0001
0100
,
0001
0010
0001
0100
0001
0000
0100
0010
1000
0000
0000
0110
0000
0000
1001
0000
,
0000
0000
0100
0001
0010
0000
0100
1000
0010
0000
0000
1001
0000
0000
0110
0000
,
0000
0000
0000
0000
0000
0000
1000
0000
0000
0010
0000
0000
0100
0000
0000
0000
0000
0000
0001
0000
0000
0010
0000
0000
0100
0000
0000
0000
0000
0000
0000
0000
0000
0000
0000
0000
0100
0000
0000
0000
1000
0000
0000
0000
0010
0000
0000
0000
,
0100
0001
0010
0100
1000
0001
1000
0100
0010
0001
0100
1000
,
0100
0001
0010
0100
1000
0001
2002
0000
0000
0000
0000
0000
,
0000
0000
0000
0000
3003
0000
0000
0000
0110
0000
0000
1001
0000
0000
0011
0000
,
0000
0000
0000
1010
0000
0000
0000
0000
0000
0000
0000
0000
0101
0000
0000
0000
0000
0000
1100
0000
0000
0000
0000
0000
0011
0000
0000
0000
0010
0000
0000
0000
0100
0000
0000
0000
0010
0000
0000
0000
0001
0000
0000
0000
1000
0000
0000
0000
,
0010
0100
0001
0010
0100
1000
0010
0100
0010
1000
0001
0100
,
0110
0010
1000
0100
0010
0001
1000
0010
0100
0001
1000
0010
,
0100
0010
1000
0100
0010
0001
1001
1000
0001
0010
0100
1000
,
0001
1000
0100
1000
0010
0100
0001
0100
0010
1000
0100
0010
,
0011
0001
0010
0001
0100
0010
1000
0010
0100
0001
0100
1000
,
0100
0001
1000
1001
0000
0000
0110
0010
0001
0100
0010
0001
,
1000
0100
0001
0010
0100
0001
1000
0010
0100
1000
0001
0100
,
1100
1000
0001
0010
0100
0001
0010
1000
0001
0100
1000
0100
,
0001
1000
0010
0100
1000
0010
0110
0100
1000
0001
0010
0100
,
0001
0010
0100
0001
1000
0010
0001
1000
0100
0010
0001
1000
,
0001
0010
1000
0001
0100
1000
0001
0010
1000
1001
1000
0010
,
0001
1000
0100
0001
1000
0010
2002
0000
0000
0000
0000
0000
,
0000
0000
0000
0000
,
0000
0000
0000
0000
3003
0000
0000
0000
1001
0000
0101
0000
1010
0000
0011
0000
,
0110
0000
0000
0000
1001
0000
0000
0000
0101
0000
0000
0000
0011
0000
0000
0000
0000
1100
0000
0000
0000
0000
0000
0101
0000
0000
0000
0000
0000
0110
0000
0000
,
0000
0000
0000
1010
0000
0000
0000
0000
0000
0101
0000
0000
0000
0000
0000
0011
0000
0000
0000
0000
1100
0000
0000
0000
0000
0011
0000
0000
0000
0000
0000
0110
,
0000
0000
0000
0000
0000
0000
0000
0000
0000
0000
0010
0100
0001
0010
0100
1000
,
0001
1000
0100
0010
0001
0010
0100
1000
0001
1000
0100
0010
0001
0010
0100
1000
,
0001
1000
0100
0010
0001
0010
0100
1000
0001
1000
0100
0010
0001
0010
0100
1000
,
0001
1000
0100
0010
0001
0010
0100
1000
0001
1000
0100
0010
0001
0000
0000
0000
;
