#TITLE:LIGHTNING THUNDERBOLT-Try to Sing Ver.-;
#SUBTITLE:;
#ARTIST:TAG rejected by DJ TOTTO;
#TITLETRANSLIT:;
#SUBTITLETRANSLIT:;
#ARTISTTRANSLIT:;
#GENRE:;
#CREDIT:;
#MUSIC:LIGHTNING THUNDERBOLT-Try to Sing Ver.-.ogg;
#BANNER:LIGHTNING THUNDERBOLT-Try to Sing Ver.-.png;
#BACKGROUND:LIGHTNING THUNDERBOLT-Try to Sing Ver.--bg.png;
#CDTITLE:./CDTitles/RB groovin'!!.png;
#SAMPLESTART:88.815;
#SAMPLELENGTH:15.000;
#SELECTABLE:YES;
#OFFSET:-0.170;
#BPMS:0.000=155.000;
#STOPS:;
#BGSTAGE:31;
#BGCHANGES:;
#FGCHANGES:;

//--------------- dance-single - XLev450X-bSP ----------------
#NOTES:
     dance-single:
     XLev450X:
     Beginner:
     5:
     0.173668,0.245651,0.075456,0.259904,0,145,136,9,31,0,0,0.173668,0.245651,0.075456,0.259904,0,145,136,9,31,0,0:
0000
0000
0000
0000
,
0000
0000
0000
0000
,
0000
0000
0000
0000
,
0000
0000
0000
0000
,
0000
0000
0000
0000
,
0000
0000
0000
0000
,
0000
0000
0000
0000
,
0000
0000
0000
0000
,
0000
0010
0000
0100
,
0000
0010
0000
0000
,
0000
0001
0000
1000
,
0000
0001
0000
0000
,
0000
0010
0000
1000
,
0000
0010
0000
0000
,
0000
0100
0000
0001
,
0000
0100
0000
0000
,
0000
0010
0010
0010
,
0000
1000
1000
1000
,
0000
0001
0001
0001
,
0000
0100
0100
0100
,
0000
0010
0000
1000
,
0000
0001
0000
0100
,
0000
0010
0000
1000
,
0000
0000
0000
0001
0000
0000
0100
0000
,
0000
0010
0000
0010
,
0000
0010
0000
0010
,
0000
0010
0000
0010
,
0000
0010
0000
0000
,
0000
0001
0000
1000
,
0000
0001
0000
0000
,
0000
0100
0001
0100
,
0000
0010
0000
0000
,
0000
0001
1000
0010
,
0100
0001
0000
1000
,
0000
0010
0100
1000
,
0001
0100
0000
0010
,
0000
1000
1000
1000
,
0000
0001
0001
0001
,
0000
0010
0100
0001
,
1000
0010
0000
0000
,
0000
1001
0000
0000
,
0000
0110
0000
0000
,
0000
1100
0000
0000
,
0000
0011
0000
0000
,
0000
1010
0000
0000
,
0000
0101
0000
0000
,
0000
0110
0000
0000
,
0000
1001
0000
1010
,
0000
0101
0000
2002
,
0000
3003
0010
0000
0010
0000
0010
0000
,
0000
1000
0001
0100
,
0000
0010
0100
0001
,
1000
0010
0000
0100
,
0000
0001
0000
1000
,
0000
0001
0000
1000
,
0000
0010
0100
0001
,
1000
0000
0220
0000
0000
0000
0000
0330
,
1001
0001
0010
0100
,
1000
0010
0000
0001
,
0000
1000
0010
0100
,
0001
1000
0000
0010
,
0000
0001
1000
0010
,
0100
0001
1000
0010
,
0100
0001
0000
1000
,
0000
0010
0000
0100
,
0000
1000
0010
0100
,
0001
1000
0100
0001
,
1000
0010
0100
0001
,
1000
0010
0000
0100
,
0000
0001
0000
1000
,
0000
0010
0100
0001
,
0000
1000
0010
0100
,
0001
2000
0000
0000
,
3000
1001
0000
0000
;

//--------------- dance-single - XLev450X-BSP ----------------
#NOTES:
     dance-single:
     XLev450X:
     Easy:
     6:
     0.323382,0.491302,0.335359,0.444351,0,270,230,40,53,0,0,0.323382,0.491302,0.335359,0.444351,0,270,230,40,53,0,0:
0000
0000
0000
0000
,
0000
0000
0000
0000
,
0000
0000
0000
0000
,
0000
0000
0000
0000
,
0000
0001
1000
0010
,
0000
0100
0001
1000
,
0000
0010
0000
0100
,
0000
1001
0000
0000
,
0000
0010
1000
0001
,
0100
0010
0000
1000
,
0000
0001
0100
0010
,
1000
0001
0000
0010
,
0000
1000
0010
0100
,
0001
1000
0000
0010
,
0000
0100
0001
1000
,
0100
0020
0000
0000
,
0000
0030
0002
0000
0000
0003
2000
0000
,
0000
3000
0020
0000
0000
0000
0000
0000
,
0030
0000
0200
0000
0000
0300
0002
0000
,
0000
0003
2000
0000
0000
0000
0000
0000
,
0000
3000
0020
0000
0000
0030
2000
0000
,
0000
3000
0002
0000
0000
0000
0000
0000
,
0000
0003
0200
0000
0000
0300
0020
0000
,
0000
0030
0000
2000
0000
3000
0002
0000
,
0003
0100
0001
1000
,
0000
0010
0100
0001
,
0000
1000
0010
0100
,
0000
0001
1000
0010
,
0000
0100
0001
1000
,
0010
0100
0001
1000
,
0000
0010
0100
0001
,
1000
2002
0000
0000
,
0003
3000
0010
0000
1000
0000
0001
0000
,
0100
0010
0000
1000
,
0000
0001
1000
0010
,
0100
0001
0000
1000
,
0000
0010
0000
1000
,
0000
0001
0000
0100
,
0000
0010
1000
0001
,
0100
2002
0000
0000
,
3003
2020
0000
0000
,
3030
0202
0000
0000
,
0303
2002
0000
0000
,
3003
0220
0000
0000
,
0330
0022
0000
0000
,
0033
2200
0000
0000
,
3300
2020
0000
0000
,
3030
0202
0303
2020
,
3030
0220
0330
2002
,
0000
3003
0010
0000
1000
0000
0001
0000
,
0100
0000
0020
0000
0000
0030
2000
0000
,
0000
3000
0001
0000
0100
0000
0010
0000
,
1000
0000
0002
0000
0000
0003
2000
0000
,
0000
3000
0020
0000
0000
0030
0200
0000
,
0000
0300
0002
0000
0000
0003
2000
0000
,
0000
3000
0010
0000
0100
0000
0001
0000
,
1000
0000
0220
0000
0000
0000
0000
0330
,
1001
0001
1000
0010
,
0100
0001
1000
0010
,
0100
0001
1000
0010
,
0100
0001
0000
1000
,
0000
0010
0100
0001
,
1000
0010
0100
0001
,
0000
1000
0000
0001
,
0000
0100
0000
0010
,
0000
1000
0001
0100
,
0010
1000
0001
0100
,
0000
0010
1000
0001
,
0100
0010
0001
1000
,
0000
0000
2002
0000
0000
3003
2020
0000
,
0000
3030
0202
0000
0000
0303
2002
0000
,
0000
3003
0010
0000
0100
0000
0001
0000
,
1000
0220
0000
0000
,
0000
0330
1001
0000
0000
0000
0000
0000
;

//--------------- dance-single - SoundFX09-DSP ----------------
#NOTES:
     dance-single:
     SoundFX09:
     Medium:
     10:
     0.467108,0.522008,0.268288,0.150912,0.289248,390,358,32,18,0,0,0.467108,0.522008,0.268288,0.150912,0.289248,390,358,32,18,0,0:
0000
0000
0000
0000
,
0000
0000
0000
0000
,
0000
0000
0000
0000
,
0000
0000
0000
0000
,
0000
1000
0010
0100
,
0001
0001
0100
0010
,
1000
0002
0023
0230
,
2300
3002
0100
0010
,
1003
0000
0110
0000
1000
0000
0001
0001
,
0100
0000
0010
0000
1000
0000
0100
0100
,
0010
0000
0001
0000
0100
0000
0010
0010
,
1000
0000
0100
0000
0001
0000
1000
1000
,
0001
0000
0010
0000
1000
0000
0100
0010
,
0001
0000
0100
0000
1000
0000
0010
0100
,
0001
0000
0010
0000
0100
0000
1000
0010
,
0100
0000
0000
0000
0000
0000
0001
0000
0000
0100
0000
0000
1000
0000
0000
0100
,
0000
0001
1001
0000
0100
0000
0010
1000
,
0001
0000
0010
0000
0010
0000
0100
1000
,
0001
0000
0110
0000
1000
0000
0100
0010
,
0001
0000
1000
0000
0001
0000
0010
0100
,
1000
0001
1001
0000
0100
0000
0010
0010
,
1000
0000
0100
0000
1000
0000
0010
0010
,
1000
0000
0110
0000
0010
0000
0100
0100
,
0001
0000
0000
0000
0010
0000
0000
0000
1000
0000
0010
0000
0100
0000
0000
0100
,
0000
0000
0100
0000
0001
0000
0000
0001
0000
0000
0001
0000
0000
1000
0000
0000
,
1001
0000
0000
0000
1000
0000
0000
1000
0000
0000
1000
0000
0000
0001
0000
0000
,
0110
0000
0000
0000
0010
0000
0000
0010
0000
0000
0010
0000
0000
0100
0000
0000
,
0110
0000
0000
0000
0100
0000
0000
0100
0000
0000
0100
0000
0000
0010
0000
0000
,
1001
0000
0000
0000
0100
0000
0000
0010
0000
0000
0100
0000
0000
0010
0000
0000
,
1001
0000
0000
0000
1000
0000
0000
0001
0000
0000
1000
0000
0000
0001
0000
0000
,
0110
0000
0000
0000
0010
0000
0000
0100
0000
0000
0010
0000
0000
0100
0000
0000
,
1001
0000
0000
0000
0001
0000
0000
1000
0000
0000
0001
0000
0000
1000
0000
0000
,
1001
0000
0000
0000
0100
0000
0000
0001
0000
0000
0100
0000
0000
1000
0000
0000
,
0100
0000
0010
0000
0001
0000
0000
0010
0000
0000
1000
0000
0000
0010
0000
0000
,
0001
0000
0100
0000
0010
0000
0000
1000
0000
0000
0010
0000
0000
0001
0000
0000
,
0010
0000
0100
0000
1000
0000
0000
0100
0000
0000
0001
0000
0000
0100
0000
0000
,
1000
0000
0010
0000
0100
0000
0000
0100
0000
0000
0100
0000
0000
0100
0000
0000
,
0100
0000
0001
0000
1000
0000
0000
1000
0000
0000
1000
0000
0000
1000
0000
0000
,
1000
0000
0001
0000
0010
0000
0000
0010
0000
0000
0010
0000
0000
0010
0000
0000
,
0010
0100
0220
0000
0000
0000
0000
0000
,
0330
1000
1000
0100
,
0010
0010
0000
0001
0001
0000
1001
0000
,
0110
0001
0001
0010
,
0100
0100
0000
1000
1000
0000
1001
0000
,
0110
1000
0100
0001
,
0100
0100
0000
0010
0010
0000
0101
0000
,
1010
0001
0010
1000
,
0010
0010
0000
0100
0100
0000
0001
0010
,
0100
0010
0220
0000
0330
0000
2002
0000
,
3003
0000
0000
0000
0010
0000
0000
0010
0000
0000
0010
0000
0000
0100
0000
0000
,
0110
0000
0000
0000
0100
0000
0000
0100
0000
0000
0100
0000
0000
0010
0000
0000
,
1001
0000
0000
0000
1000
0000
0000
1000
0000
0000
1000
0000
0000
0001
0000
0000
,
1001
0000
0000
0000
0001
0000
0000
0001
0000
0000
0001
0000
0000
1000
0000
0000
,
0110
0000
0000
0000
1000
0000
0000
0001
0000
0000
1000
0000
0010
0000
0000
0100
,
0000
0000
0010
0000
0100
0000
0000
0010
0000
0000
0100
0000
0001
0000
0000
1000
,
0000
0001
0100
0001
1000
0010
1000
0001
,
0010
0100
2000
0000
0000
0000
0002
0000
,
3003
0000
0000
0000
0001
0000
0000
0010
0000
0000
0001
0000
0000
0100
0000
0000
,
1000
0000
0001
0000
0010
0000
0000
1000
0000
0000
0100
0000
0000
1000
0000
0000
,
0010
0000
0001
0000
1000
0000
0000
0100
0000
0000
1000
0000
0000
0010
0000
0000
,
0001
0000
1000
0000
0100
0000
0000
0001
0000
0000
0010
0000
0000
0001
0000
0000
,
0100
0000
1000
0000
0001
0000
0000
0001
0000
0000
0001
0000
0000
0001
0000
0000
,
0001
0000
0010
0000
0100
0000
0000
0100
0000
0000
0100
0000
0000
0100
0000
0000
,
0100
0000
0001
0000
1000
0000
0000
1000
0000
0000
1000
0000
0000
1000
0000
0000
,
1000
0000
0100
0000
0010
0000
0000
0010
0000
0000
0010
0000
0110
0000
0000
0110
,
0000
0110
1002
0000
0100
0000
0010
0000
,
1000
2003
0000
0010
0000
0100
0000
0001
,
3001
0200
1000
0001
,
0010
0320
0000
0001
0000
1000
0000
0100
,
0130
0000
0000
0000
1001
0000
0000
0001
0000
0000
0001
0000
0000
0100
0000
0000
,
0100
0000
0010
1000
0010
0000
0000
0010
0000
0000
1000
0000
0000
1000
0000
0000
,
1000
0000
0100
0010
0100
0000
0010
0000
0001
0000
0100
0000
0010
0000
1000
0000
,
0100
0000
0010
0000
0002
0000
0000
0010
0000
0000
1000
0000
0000
0100
0000
0000
,
0013
0100
1001
0000
0000
0000
0000
0000
;

//--------------- dance-single - SoundFX09-ESP ----------------
#NOTES:
     dance-single:
     SoundFX09:
     Hard:
     15:
     0.628799,0.859778,0.16768,0.150912,0.704255,525,505,20,18,0,0,0.628799,0.859778,0.16768,0.150912,0.704255,525,505,20,18,0,0:
0000
0000
0000
0000
,
0000
0000
0000
0000
,
0000
0000
0000
0000
,
0000
0000
0000
0000
,
0000
0000
0000
0000
0001
0000
0000
0100
0000
0000
0001
0000
0000
0010
0000
0000
,
0100
0000
1000
0001
1000
0000
0000
0100
0000
0000
1000
0000
0000
0010
0000
0000
,
0100
0000
0001
1000
0001
0000
0100
0000
0010
0000
1000
0100
1000
0000
0100
0000
,
0010
0001
2002
0000
0000
0000
0000
0000
,
3003
0000
0000
0000
0001
0000
0000
1000
0000
1000
0000
0100
0010
0000
0001
0000
,
1000
0001
1000
0000
0000
0000
0010
0000
0000
0100
0000
0100
0010
0000
1000
0000
,
0100
0000
0010
0000
0001
0000
0000
0010
0000
0010
0000
0100
1000
0000
0001
0000
,
0100
0010
0100
0000
0000
0000
0010
0000
0000
1000
0000
1000
0100
0000
0010
0000
,
0001
0000
0100
0000
0010
0000
0000
0100
0000
0010
0000
1000
0100
0000
0010
0000
,
0001
1000
0001
0000
0000
0000
1000
0000
0000
0100
0000
0010
0001
0000
0010
0000
,
0100
0000
1000
0000
0100
0000
0000
1000
0000
0001
0000
0100
0010
0000
1000
0000
,
0010
0100
0010
0000
0000
0000
1010
0000
0000
0100
0000
0000
0011
0000
0000
0100
,
0000
0000
0010
0000
1001
0000
1000
0000
0100
0000
0010
0000
0001
0100
0001
0000
,
0100
0000
0010
0000
1000
0100
1000
0000
0100
0000
0010
0000
0001
0010
0001
0000
,
0100
0000
0010
0000
0010
0000
1000
0000
0010
0000
0100
0000
0001
1000
0001
0000
,
0010
0000
0100
0000
0010
0100
0010
0000
0001
0000
0100
0000
0010
1000
0010
0000
,
0100
0000
0001
0000
0001
0000
0100
0000
1000
0000
0100
0000
0001
0010
0100
0000
,
1000
0000
0010
0000
0100
0001
0010
0000
0100
0000
1000
0000
0010
0100
0001
0000
,
0100
0000
1000
0000
1000
0000
0100
0000
0001
0000
0100
0000
0010
1000
0100
0000
,
0010
0000
0001
0000
0000
0000
0010
0100
0010
0100
0010
0000
0001
0000
0000
0100
,
0000
0000
0010
0000
1001
0000
0000
0100
0000
0000
0010
0000
0000
1000
0000
0100
,
0010
0000
0001
0000
0001
0000
0000
1000
0000
0000
0001
0000
0000
0100
0000
0010
,
1000
0000
0100
0000
0100
0000
0000
0001
0000
0000
0100
0000
0000
1000
0000
0100
,
0010
0000
0010
0000
0001
0000
0000
0010
0000
0000
1000
0000
0000
0010
0000
0001
,
1000
0000
1000
0000
0200
0000
0000
0001
0000
0000
1000
0000
0000
0001
0000
0000
,
0310
0000
0001
1000
0002
0000
0000
0100
0000
0000
0010
0000
0000
0100
0000
0000
,
1003
0000
0010
0100
0020
0000
0000
1000
0000
0000
0001
0000
0000
1000
0000
0000
,
0130
0000
1000
0001
2000
0000
0000
0010
0000
0000
0100
0000
0000
0010
0000
0000
,
3001
0000
0100
0000
0110
0000
0000
0010
0000
0000
1000
0000
0000
0100
0000
0000
,
0010
0000
0001
1000
0001
0000
0000
0010
0000
0000
0100
0000
0000
1000
0000
0000
,
0001
0000
0010
0100
0010
0000
0000
0100
0000
0000
1000
0000
0000
0100
0000
0000
,
0001
0000
0100
0010
0100
0000
0000
0010
0000
0000
1000
0000
0000
0010
0000
0000
,
0001
0000
1000
0001
1000
0000
0000
1000
0000
0000
1000
0000
0000
1000
0000
0000
,
1000
0000
0100
0010
0001
0000
0000
0001
0000
0000
0001
0000
0000
0001
0000
0000
,
0001
0000
0100
0010
0100
0000
0000
0100
0000
0000
0100
0000
0000
0100
0000
0000
,
0100
0010
2002
0000
0000
0000
0000
0000
,
3003
0000
0100
0100
0010
0000
1000
0000
,
0100
0100
0010
0010
0001
0000
0011
0000
,
1100
0000
1000
1000
0001
0000
0100
0000
,
0010
0010
1000
1000
0100
0000
1100
0000
,
0011
0000
0001
0001
0010
0000
1000
0000
,
0100
0100
0001
0001
0010
0000
1000
0100
,
0001
0000
0010
0010
1000
0000
0100
0000
,
0001
0001
1000
1000
0010
0000
0001
0100
,
1000
0010
0220
0000
0330
0000
2002
0000
,
3003
0000
0000
0000
0110
0000
0000
0001
0000
0000
0100
0000
0000
0001
0000
0000
,
0010
0000
0001
1000
0100
0000
0000
1000
0000
0000
0010
0000
0000
1000
0000
0000
,
0100
0000
0010
0001
1000
0000
0000
0100
0000
0000
0001
0000
0000
0010
0000
0000
,
0001
0000
0100
0010
1000
0000
0000
0100
0000
0000
1000
0000
0000
0010
0000
0000
,
1000
0000
0100
0010
0200
0000
0000
0001
0000
0000
1300
0000
0020
0000
0000
0001
,
0000
0000
1030
0000
0002
0000
0000
0100
0000
0000
0013
0000
2000
0000
0000
0010
,
0000
0000
3100
0000
0010
0000
0000
0001
0100
0000
0000
0010
1000
0000
0000
0100
,
0010
0000
0000
0220
0000
0000
0000
0000
0000
0000
0000
0000
0000
0000
0000
0000
,
0330
0000
0000
0000
1001
0000
0000
1000
0000
0000
0100
0000
0000
0001
0000
0000
,
1000
0000
0010
0100
0010
0000
0000
0001
0000
0000
1000
0000
0000
0100
0000
0000
,
0001
0000
1000
0001
1000
0000
0000
0010
0000
0000
0001
0000
0000
1000
0000
0000
,
0100
0000
0001
1000
0001
0000
0000
0100
0000
0000
1000
0000
0000
0001
0000
0000
,
0010
0000
0100
0010
0100
0000
0000
0100
0000
0000
0100
0000
0000
0100
0000
0000
,
0100
0000
1000
0001
0010
0000
0000
0010
0000
0000
0010
0000
0000
0010
0000
0000
,
0010
0000
0100
1000
0001
0000
0000
0001
0000
0000
0001
0000
0000
0001
0000
0000
,
0001
0000
0010
0100
1000
0000
0000
1000
0000
0000
1000
0000
1001
0000
0000
1001
,
0000
0000
1001
0000
0001
0000
0010
0100
0000
0100
0010
0000
1000
0001
0000
0001
,
1000
0000
0010
0000
0100
0000
0010
1000
0000
1000
0010
0000
0100
0001
0000
0001
,
0100
0000
0010
0000
1000
0000
1000
0100
0000
0100
1000
0000
0001
0010
0000
0010
,
0001
0000
1000
0000
0001
0000
0100
0010
0000
0010
0100
0000
0001
1000
0000
1000
,
0001
0000
0100
0000
0010
0000
1000
0100
0000
0010
0001
0000
0010
0100
0000
1000
,
0001
0000
0100
0010
0100
0000
0001
0010
0000
0100
1000
0000
0001
1000
0000
0100
,
0010
0000
0001
0010
0001
0010
0100
1000
0100
1000
0100
0010
0001
0100
0010
1000
,
0100
0010
0001
1000
0001
0000
0010
0100
0000
0100
0010
0000
0001
1000
0000
1000
,
0001
1000
1001
0000
0000
0000
0000
0000
;

//--------------- dance-single - XLev450X-CSP ----------------
#NOTES:
     dance-single:
     XLev450X:
     Challenge:
     17:
     0.935413,0.890484,0.368895,0.050304,1.211486,781,737,44,6,0,0,0.935413,0.890484,0.368895,0.050304,1.211486,781,737,44,6,0,0:
0000
0000
0000
0000
,
0000
0000
0000
0000
,
0000
0000
0000
0000
,
0000
0000
0000
0000
,
0000
0000
0000
0000
1000
0000
0001
0010
0000
0010
0001
0000
1000
0100
0000
0100
,
1000
0000
0100
0010
0100
0000
0100
1000
0000
1000
0100
0000
0010
0001
0000
0001
,
0100
0000
0010
1000
0100
1000
0100
0010
0001
0010
0001
0100
0010
1000
0100
0010
,
0001
0100
0010
1000
0100
0000
0010
0001
0000
0001
0100
0000
0010
1000
0000
1000
,
0100
0000
0010
0000
0010
0000
1000
0100
0000
1000
0010
0000
1000
0001
0000
0100
,
0001
1000
0001
0010
0001
0000
1000
0010
0000
0100
0010
0000
0100
0001
0000
0100
,
0010
1000
0100
0010
0001
0000
0100
0010
0000
0100
0001
0000
1000
0100
0000
0010
,
0001
1000
0010
0100
0001
0000
0100
0010
0000
0100
1000
0100
0010
0000
1000
0100
,
0000
0010
0001
1000
0101
0000
0000
0000
1000
0000
0010
0100
0010
0000
1000
0001
,
0010
0000
0100
1000
0001
0000
0010
0001
0100
0000
0000
0000
1000
0000
0100
0000
,
0011
0000
0000
0000
1010
0000
0000
0000
0100
0000
0010
0100
0001
0000
0010
0100
,
1000
0000
0010
0100
0001
0000
0010
0001
1000
0000
0000
0000
0010
0000
0100
0000
,
1001
0000
0000
0000
0001
1000
0001
1000
0001
0000
0100
0010
0100
0010
0100
0000
,
0010
1000
0010
1000
0010
0000
0100
0001
0100
0001
0100
0000
0001
0010
0001
0000
,
1000
0100
1000
0000
0010
1000
0010
0100
0010
0000
1000
0001
1000
0010
1000
0000
,
0001
0100
0001
1000
0001
0000
0100
0010
0100
0001
0100
0000
0010
0100
0001
0000
,
0100
0010
1000
0000
0001
1000
0100
0010
0001
0000
0010
0100
1000
0001
0100
0000
,
0010
1000
0001
0100
0001
0000
1000
0001
0100
0010
1000
0000
0100
0010
0001
0000
,
0100
0010
1000
0000
0010
1000
0100
0010
0001
0000
0100
0001
0010
0100
1000
0000
,
0010
0100
0001
0010
0001
0000
0000
1001
0000
0000
1100
0000
1010
0000
0000
1001
,
0000
0000
0110
0000
1001
0000
1000
0100
0000
0100
0010
0000
0010
0001
0000
0001
,
0100
0000
0100
0000
0110
0000
0010
1000
0000
1000
0100
0000
0100
0010
0000
0010
,
0001
0000
0001
0000
0011
0000
0001
0100
0000
0100
0010
0000
0010
1000
0000
1000
,
0100
0000
0100
0000
1100
0000
1000
0100
0000
0010
0001
0000
0100
0010
0000
1000
,
0001
0000
1000
0000
1001
0000
0000
1010
0000
0000
1100
0000
0000
0101
0000
0000
,
0011
0000
0001
0100
0010
0000
0000
0110
0000
0000
1010
0000
0000
0011
0000
0000
,
0101
0000
0100
0010
1000
0100
0010
0001
0100
0010
1000
0100
0010
0001
0010
0100
,
1000
0010
0100
0001
1000
0000
0100
0010
0000
0010
0001
0000
0001
1000
0000
1000
,
0001
0000
1001
0000
0001
0010
0100
1000
0001
0010
0100
1000
0100
0010
0001
1000
,
0100
0010
0001
1000
0001
0100
0010
1000
0001
0100
0010
1000
0010
0100
0001
1000
,
0010
0100
0001
1000
0100
0010
0001
1000
0100
1000
0001
0010
0100
1000
0001
0010
,
0100
1000
0001
0100
0001
0000
0001
0000
1001
0000
0000
0000
1000
0100
2000
0000
,
0010
0000
3010
0000
1001
0000
1000
0100
1000
0000
0001
0100
0001
0000
0100
0010
,
0100
0000
0001
0000
2000
0000
0000
0000
3001
0000
0010
0000
0100
0000
1000
0001
,
2000
0000
0000
0000
3000
0000
0001
0010
0100
0000
0010
0100
1000
0000
0001
0100
,
0010
0000
1000
0000
0001
0000
0100
0000
1000
0000
0100
0000
0001
1000
0001
1000
,
0002
0000
0000
0003
0100
0000
0010
0000
0010
0000
1000
0000
0100
0000
0001
0000
,
0100
0100
0010
1000
1000
0100
0001
0001
,
0010
0010
0100
0100
1000
0001
0001
0100
,
1000
1000
0010
0001
0001
0100
1000
1000
,
0010
0010
0100
0100
0001
0010
0010
1000
,
0100
0100
0001
1000
1000
0010
0001
0001
,
0100
0100
1000
1000
0010
0001
0001
0100
,
0010
0010
1000
0100
0100
0010
0001
0001
,
0100
1000
0220
0000
0330
0000
2002
0000
,
3003
0000
1100
0000
0100
1000
0001
0000
,
0100
0101
0011
2002
,
3003
0000
0001
0010
1000
0010
0001
0000
,
1000
0100
0020
0000
0000
0000
0130
0000
,
1001
0000
0000
0000
1100
0000
0100
0010
0000
0010
0100
0000
0110
0000
0010
0001
,
0000
0001
0010
0000
0011
0000
1000
0100
0000
0100
1000
0000
1100
0000
1000
0001
,
0000
0001
1000
0000
1001
0000
0000
0001
0010
0000
0000
1000
0100
0000
0000
0100
,
0010
0000
0000
1001
0000
0000
0001
0010
0001
0010
0100
1000
0100
1000
0001
0010
,
0100
1000
0001
0100
1000
0100
0010
0100
1000
0000
0001
0100
0010
1000
0010
1000
,
0100
0010
0100
0010
0001
0010
0100
0010
0001
0000
1000
0010
0100
0001
0100
0001
,
1000
0010
1000
0010
0100
0001
1000
0100
0010
0000
0001
0100
0010
1000
0001
1000
,
0010
0100
0001
0100
0010
1000
0001
0000
0010
0001
1000
0001
0010
0100
1000
0000
,
1100
0000
1001
0000
0200
0000
0302
0000
2003
0000
3010
0100
0002
0000
2003
0000
,
3020
0000
0031
0100
2000
0000
3002
0000
0023
0000
1030
0100
0020
0000
2030
0000
,
3002
0000
0103
1000
0020
0000
0230
0000
2300
0000
3001
0010
2000
0000
3200
0000
,
0302
0000
1003
0010
0200
0000
0302
0000
2003
0000
3010
0001
0100
0001
0100
0001
,
1000
0100
1000
0000
0010
0000
1000
0100
0000
1000
0010
0000
1000
0001
0000
0100
,
0001
1000
0001
0010
0001
0000
1000
0010
0000
0100
0010
0000
0100
0001
0000
0100
,
0010
1000
0100
0010
0001
0000
0100
0010
0000
0100
0001
0000
1000
0100
0000
0010
,
0001
1000
0010
0100
0001
0000
0100
0010
0000
0100
1000
0100
0010
0000
1000
0100
,
0000
0010
0001
0000
1000
0000
0010
0100
0000
0100
0001
0000
0001
0010
0000
0010
,
0100
0000
1000
0000
0001
0000
0100
0010
0000
0010
1000
0000
1000
0100
0000
0100
,
0010
0000
0001
0000
0100
0010
1000
0100
0010
0001
0010
0100
1000
0100
0010
0001
,
0100
0010
1000
0100
0010
0000
0001
0100
0000
0100
0010
0000
0010
1000
0000
1000
,
0001
1000
1001
0000
0000
0000
0000
0000
;
