#TITLE:ここからよろしく大作戦143 (RGR-Special);
#SUBTITLE:;
#ARTIST:BEMANI Sound Team "あさき隊";
#TITLETRANSLIT:Koko kara yoroshiku daisakusen 143 (RGR-Special);
#SUBTITLETRANSLIT:;
#ARTISTTRANSLIT:BEMANI Sound Team "Asaki-tai";
#GENRE:ROCK;
#CREDIT:;
#MUSIC:Koko kara yoroshiku daisakusen 143 (RGR-Special).ogg;
#BANNER:Koko kara yoroshiku daisakusen 143 (RGR-Special).png;
#BACKGROUND:Koko kara yoroshiku daisakusen 143 (RGR-Special)-bg.png;
#CDTITLE:./CDTitles/DDR A20 PLUS.png;
#SAMPLESTART:94.565;
#SAMPLELENGTH:15.000;
#SELECTABLE:YES;
#OFFSET:0.000;
#BPMS:0.000=184.000;
#STOPS:;
#BGSTAGE:1;
#BGCHANGES:;
#FGCHANGES:;

//--------------- dance-single - XLev450X ----------------
#NOTES:
     dance-single:
     XLev450X:
     Challenge:
     16:
     0,0,0,0,0:
0000
0000
0000
0000
,
0000
0000
0000
0000
,
0000
0000
0000
0000
,
0100
0010
0100
0010
0001
0100
0001
0010
,
0001
0000
0010
0000
0100
0000
1000
0000
0010
0100
0001
0010
0100
1000
0001
0100
,
0010
1000
0001
0100
0010
0100
0001
0010
,
0100
0000
0010
0000
0001
0000
0010
0000
0100
1000
0010
0100
0001
1000
0010
0100
,
0001
1000
0001
0010
0100
1000
0010
0100
,
0001
0000
0100
0000
0010
0000
1000
0000
0001
0000
0010
0100
0001
1000
0020
0000
,
0030
0000
1000
0000
0010
0000
0100
0000
0001
0000
1000
0100
0010
0000
0001
0010
,
0100
0010
0100
1000
0010
1000
0202
0303
,
0100
0010
0001
1000
0100
1000
0010
0100
,
0010
1000
0001
0010
1100
0000
0011
0000
,
0001
0100
0001
1000
0001
1000
0100
0010
,
0001
0000
0100
0000
0010
0000
0100
0000
0010
0100
0001
0100
0010
1000
0010
1000
,
0001
1000
0100
0010
0100
1000
0010
1000
,
0001
0100
0010
1000
0100
0010
0001
0000
,
0100
0010
0001
1000
0010
0100
0010
1000
,
0001
0000
0010
0000
0100
0000
1000
0000
0100
1000
0001
0100
0010
0000
1000
0000
,
0010
1000
0010
0100
0001
0010
0001
0000
,
0001
0010
0100
0010
0001
1000
0001
0000
,
0100
0010
0100
1000
0010
0100
0010
0000
,
0100
0010
0100
0010
0001
0100
0010
1000
,
0220
0000
0000
0000
0000
0330
0000
0000
0010
0000
1000
0000
0001
0000
0010
0000
,
0100
1000
0100
0010
0100
1000
0010
0100
,
0001
1000
0010
0100
0001
1000
0100
0010
,
0001
0000
1000
0000
0100
0000
0010
0000
0100
0010
0001
1000
0010
0100
0001
1000
,
0000
1000
0010
0001
1000
0000
0001
0000
,
0010
0000
1000
0010
0000
0000
0001
0100
,
1000
0000
0010
0001
0100
0000
0001
1000
,
0010
0000
0000
0000
0001
0000
0100
0000
1000
0001
0010
0100
0001
1000
0001
0000
,
2200
0000
3300
0000
0000
0000
0022
0000
0033
0000
0000
0000
0220
0000
0000
0330
,
0000
0000
0202
0000
0000
0303
0000
0000
2002
3003
0000
0010
0000
0000
0010
0000
,
0100
0010
0001
1010
,
0100
1000
0001
0220
0330
0001
1000
0010
,
0001
0100
0001
0100
0010
1000
0000
0100
,
0010
1000
0001
0100
0010
1000
0000
0010
,
0100
0010
0001
0100
0010
1000
0010
1000
,
0010
0000
0100
0000
0010
0000
0002
0000
0000
0003
1000
0000
0001
0000
0010
0000
,
0001
1000
0100
0010
0001
0100
0000
1000
,
0100
0010
0001
1000
0010
0100
0000
0100
,
0010
1000
0100
0010
0100
0011
0000
1100
,
0000
0000
0100
0000
0001
0000
0100
0000
0010
0000
1000
0000
0001
0100
0000
0000
,
0100
1000
0001
0100
0010
1000
0001
0010
,
0100
1000
0001
0010
0100
1000
0001
0100
,
0001
1000
0100
0010
0001
1000
0100
0010
,
0001
1000
0010
0100
0010
1000
0001
0010
,
0001
0000
0000
0000
0100
0010
0001
1000
,
0010
1000
0001
1000
0100
0010
0001
0010
,
0001
0000
0010
0000
0100
0000
1000
0000
0001
1000
0001
0010
0100
1000
0010
1000
,
0010
1000
0010
0100
0010
1000
0100
1000
,
0000
0010
0001
0010
1000
0100
0000
0100
,
0010
0100
0001
0100
0000
0010
1000
0010
,
1000
0100
0000
0010
1000
0010
0001
1000
,
0000
0000
0010
0100
0001
0010
0100
1000
0001
0010
0001
1000
0100
0010
0001
1000
,
0100
0100
0000
0001
1000
1000
0000
0110
,
0000
0101
0000
0011
1001
0000
0100
0100
,
0010
0010
0000
0001
0100
0100
0000
0110
,
0000
0000
0001
0000
0010
0000
0001
0000
0100
0010
1000
0001
0100
1000
0001
0010
,
0100
0010
0001
1000
0100
0010
0001
1000
,
0010
0100
0010
1000
0010
1000
0100
0010
,
0100
1000
0001
0100
0010
1000
0001
0100
,
0001
0010
0001
1000
0100
1000
0100
1000
,
0001
0100
0001
0100
0010
0100
0001
1000
,
0100
0010
0001
1000
0010
1000
0100
0010
,
0100
1000
0010
0100
0001
0100
0001
1000
,
0001
0010
0100
1000
0010
0100
0010
1000
,
0010
0000
0000
0000
0000
0000
0000
1000
,
0100
0000
0000
0000
0000
0000
0000
0001
,
0100
0000
0000
0000
0000
0000
0000
0010
,
0100
0000
0000
0100
1000
0010
1000
0001
0100
0001
0100
0010
,
2000
0000
0000
0000
3020
0000
0000
1030
,
0000
0001
0100
0000
0001
1000
0010
0001
,
0100
0001
0100
0010
1000
0010
0000
0010
,
1000
0001
0100
0010
1000
0001
0000
0100
,
0010
0001
0100
0010
1000
0010
1000
0010
,
0100
0000
0000
0010
0000
0000
0200
0000
0000
0000
0000
0000
0000
0000
0300
0001
0000
0000
0010
0000
0000
0001
0000
0000
,
1000
0100
0010
0001
0100
0001
0000
0100
,
0010
0001
1000
0010
0100
0001
0000
0010
,
1000
0100
0010
0100
0010
0011
0000
1100
,
0000
0000
0001
0000
0100
0000
0010
0000
1000
0000
0001
0100
0000
0000
0100
0000
,
1000
0001
0100
0010
1000
0001
0010
0100
,
1000
0001
0010
0100
1000
0001
0100
0001
,
1000
0100
0010
0001
1000
0100
0010
0001
,
1000
0010
0100
0010
1000
0001
0010
0001
,
0010
0000
0000
0000
0010
0001
1000
0010
,
1000
0001
1000
0100
0010
0001
0010
0001
,
0010
0000
0100
0000
1000
0000
0010
0001
1000
0001
0010
0100
1000
0010
1000
0010
,
0100
0001
1000
0000
0000
0000
0010
0000
0100
0000
0010
0000
0001
0100
0001
0100
,
1000
0010
0100
0010
0001
0100
0001
0010
,
0001
0000
0010
0000
0100
0000
1000
0000
0010
0100
0001
0010
0100
1000
0001
0100
,
0010
1000
0001
0100
0010
0100
0001
0010
,
0100
0000
0010
0000
0001
0000
0010
0000
0100
1000
0010
0100
0001
1000
0010
0100
,
0001
1000
0001
0010
0100
1000
0010
0100
,
0001
0000
0100
0000
0010
0000
1000
0000
0001
0000
0010
0100
0001
1000
0020
0000
,
0030
0000
1000
0000
0010
0000
0100
0000
0001
0000
1000
0100
0010
0000
0001
0010
,
0100
0010
0100
1000
0010
1000
0101
0000
;
