#TITLE:Keys to the World;
#ARTIST:Planetboom;
#GENRE:PLANETCORE;
#MUSIC:Keys to the World.ogg;
#BANNER:Keys to the World.png;
#BACKGROUND:Keys to the World-bg.png;
#SAMPLESTART:56.615;
#SAMPLELENGTH:15;
#OFFSET:-0.178;
#BPMS:0=160;
#BGSTAGE:14;

//--------------- dance-single - XLev450X-bSP ----------------
#NOTES:
     dance-single:
     XLev450X:
     Beginner:
     3:
     0,0,0,0,0:
0000
0000
0000
0000
,
0000
0000
0000
0000
,
0000
0000
0000
0000
,
0000
0000
0000
0000
,
0000
0000
0000
0000
,
0000
0000
0000
0000
,
0000
0000
0001
0000
,
0001
0000
0001
0000
,
0000
0000
1000
0000
,
1000
0000
1000
0000
,
0000
0000
0000
0010
,
0000
0100
0000
0010
,
0000
0000
0000
0001
,
0000
1000
0000
0001
,
0000
0000
0000
0010
,
0000
1000
0000
0010
,
0000
0000
0000
0100
,
0000
0010
0000
0100
,
0000
0000
0000
0000
,
0000
0000
0000
0001
,
0000
0001
0000
0001
,
0000
0000
0000
0010
,
0000
0010
0000
0010
,
0000
0000
0000
1000
,
0000
1000
0000
1000
,
0000
0000
0000
0100
,
0000
0100
0000
0100
,
0000
0000
0000
0001
,
0000
1000
0000
0001
,
0000
0000
0000
0010
,
0000
1000
0000
0010
,
0000
0000
0000
0100
,
0000
0010
0000
0100
,
0000
0000
0000
0001
,
0000
0001
0000
1000
,
0000
0000
1001
0000
,
0000
0000
0000
0000
,
0000
0000
0000
0010
,
0000
0100
0000
0010
,
0000
0001
0000
0010
,
0000
0001
0000
1000
,
0000
0000
0000
0100
,
0000
0010
0000
1000
,
0000
0010
0000
0100
,
0000
0001
0000
1000
,
0000
0000
0001
0000
,
0000
0000
0001
0000
,
0000
0000
1000
0000
,
0000
0000
0000
0000
,
0000
0000
0100
0000
,
0000
0000
0100
0000
,
0000
0000
0010
0000
,
0000
0000
0000
0000
,
0000
0000
1001
0000
,
0000
0000
0000
0000
,
0000
0000
0000
0000
,
0000
0000
1001
0000
,
0000
0000
0000
0000
,
0000
0000
0010
0000
,
0000
0000
0010
0000
,
0000
0000
0010
0000
,
0000
0000
0000
0000
,
0000
0000
0110
0000
,
0000
0000
0000
0000
,
0000
0000
0101
0000
,
0000
0000
0000
0000
,
0000
0000
1010
0000
,
0000
0000
0000
0000
,
0000
0000
1001
0000
,
0000
0000
0000
0000
,
0000
0000
0001
0000
,
0000
1000
0000
0001
,
0000
0000
0000
0010
,
0000
1000
0000
0010
,
0000
0000
0000
0100
,
0000
0010
0000
0100
,
0000
0000
0000
0001
,
0000
0001
0000
1000
,
0000
0000
0000
1001
;

//--------------- dance-single - XLev450X-BSP ----------------
#NOTES:
     dance-single:
     XLev450X:
     Easy:
     7:
     0,0,0,0,0:
0000
0000
0000
0000
,
0000
0000
0000
0000
,
0000
0000
0000
0000
,
0000
0000
0000
0000
,
0000
0000
0000
0000
,
0000
0000
0000
0000
,
0000
0000
0001
0001
,
1000
0010
0100
0001
,
0001
1000
0001
0100
,
0010
0100
0010
0100
,
0000
2002
0000
0000
3003
0000
0001
0000
,
1000
0001
0100
0010
,
1000
0010
0000
0001
,
0010
0001
0000
0010
,
0100
0010
0000
1000
,
0100
0001
1000
0010
,
0100
0001
1000
0001
,
1000
0000
2002
0000
,
0000
0000
0000
3003
0000
2002
0000
0000
,
0000
3003
0001
1000
,
0001
0000
0010
1000
,
0100
0010
0001
1000
,
0000
0010
1000
0010
,
0000
0010
0100
0001
,
1000
0001
0100
0001
,
0000
1000
0001
1000
,
0010
0100
0010
0100
,
0000
0001
1000
0001
,
0000
0010
1000
0010
,
0000
0001
0100
1000
,
0001
0100
0001
0100
,
0010
0000
0010
0001
,
0010
1000
0001
0000
,
0010
1000
0100
0000
,
0001
1000
0001
0000
,
0100
0000
2002
0000
,
0000
0000
0000
0000
,
0000
3003
0001
0001
,
1000
0001
1000
0000
0010
0000
0100
0000
,
0010
0100
0010
0000
0001
0000
0010
0000
,
0001
1000
0100
1000
,
0000
0000
0001
0000
1000
0000
0001
1000
,
0001
0000
0010
0000
0100
0000
0010
0100
,
0010
0000
0001
0000
0010
0001
0010
0000
,
0001
0000
1000
0000
0100
1000
0100
0000
,
0001
0000
1000
1000
,
0100
0010
0001
0100
,
1000
0000
0001
0000
1000
0001
1000
0000
,
0010
1000
0010
0000
0001
0000
0000
0000
,
0100
0000
1000
0001
,
0100
0010
0000
0010
,
1000
0100
0001
0010
,
0100
1000
1001
0000
,
0001
1000
1001
0000
,
0000
0000
0001
0000
,
1000
0000
0001
0001
,
0100
0000
0010
0000
,
1000
0000
0010
0010
,
0100
0000
0001
1000
,
0001
0000
0100
0100
,
0001
0000
0010
0000
,
1000
0010
1000
0000
,
0010
0100
1001
0000
,
0000
0000
0001
0000
,
0001
0000
1001
0000
,
0000
0000
1000
0000
,
1000
0000
0001
0000
,
1000
0001
1000
0000
,
0010
0000
1000
0000
,
0100
0000
0001
0000
,
0000
0000
0001
0001
,
1000
0001
0100
0010
,
1000
0000
0010
0010
,
0100
0001
1000
0000
,
0001
0000
1000
0001
,
1000
0000
0010
1000
,
0010
0000
0001
0010
,
0100
1000
0001
0000
,
0000
0000
0001
0000
,
1000
0000
0000
0001
0000
0000
0100
0000
,
0000
0010
0000
2002
0000
0000
0000
0000
,
3003
0000
0000
0000
;

//--------------- dance-single - XLev450X-DSP ----------------
#NOTES:
     dance-single:
     XLev450X:
     Medium:
     11:
     0,0,0,0,0:
0000
0000
0000
0000
,
0000
0000
0000
0000
,
0000
0000
0000
0000
,
0000
0000
0000
0000
,
0000
0000
0000
0000
,
0000
0000
0000
0000
,
0000
0000
0001
1000
,
0010
1000
0100
0010
0001
0000
1000
0000
,
0001
1000
0001
0000
0010
0000
0100
0000
,
1000
0010
0100
0000
0010
0001
0010
0100
,
1000
0001
0000
0000
0000
1000
0010
0000
,
0100
0001
0010
0000
0100
1000
0001
0000
,
1000
0010
1000
0000
0010
0001
0010
0100
,
1000
0001
1000
0001
0000
1000
0010
1000
,
0000
0010
0001
0010
0100
1000
0001
0000
,
0001
0000
1000
0000
0100
0010
0100
0000
,
0010
0000
1000
0000
0100
1000
0100
0000
,
0001
1000
0001
0000
1000
0001
0000
0100
,
0010
0000
1000
0001
0000
0100
0010
0000
,
1000
0010
0000
0001
0000
1000
0001
0000
,
0100
1000
0001
0000
0010
0000
1000
0000
,
0100
0010
0001
0000
0010
0000
0100
0000
,
1000
0001
1000
0000
0010
1000
0010
0000
,
0010
0100
0010
0001
0000
0100
1000
0000
,
0001
1000
0001
0000
1000
0000
0001
0000
,
1000
0010
1000
0000
0010
0000
0100
0000
,
0001
0100
0001
0000
0010
0000
0100
0000
,
0010
1000
0010
1000
0001
0000
1000
0000
,
0001
1000
0001
0000
0010
0000
1000
0000
,
0100
0010
0010
0000
0001
0000
0100
0000
,
1000
0001
1000
0001
0000
1000
0000
0010
,
0000
0100
0000
0001
0100
0001
0100
0000
,
0001
0000
1000
0000
0001
1000
0001
0000
,
1000
0010
0010
0100
,
0001
0000
1000
0000
0001
1000
0001
0000
,
0010
1000
0010
0100
0002
0000
1000
0000
,
1000
0000
2000
3003
0020
0000
0100
0000
,
0100
0100
0100
0000
0200
0330
0001
0000
,
1000
0001
1000
0000
0010
0000
0100
0000
,
0010
0100
0010
0000
0001
0000
0010
0000
,
0100
0000
1000
0000
0010
0010
0100
0000
,
0001
0001
0100
0000
0001
1000
0001
0000
,
0010
1000
0100
0010
,
0001
0000
0010
0000
0010
1000
0010
0000
,
0010
0000
0001
0000
0100
0001
0100
0000
,
0001
0000
1000
0000
0001
1000
0001
1000
,
0010
1000
0010
0000
0010
0100
0010
0000
,
0001
0010
0001
0000
0001
1000
0100
0001
,
1000
0010
1000
0000
0010
0100
0000
0001
,
1000
0000
0010
0100
0000
1000
0100
0000
,
0001
0000
0010
0000
0100
1000
0100
0000
,
0010
0000
0001
0000
0001
1000
0001
0000
,
1000
0010
1000
0100
,
0010
0000
0001
0000
0001
0100
0000
1000
,
0010
0000
0010
0100
2001
0000
0000
0000
,
0001
0000
0000
0001
0001
0000
0001
0000
,
0002
3003
1002
0000
,
1000
0000
0000
1000
1000
0000
1000
0000
,
2000
0000
0000
3003
0001
0000
1000
0000
,
0001
1000
0001
0000
0010
0000
1000
0000
,
0100
0000
0010
0000
0010
0100
0010
0000
,
0001
0010
0001
0000
0100
0000
1000
0000
,
0001
0000
1000
0000
0010
0010
0000
0100
,
0100
0000
0001
0001
0000
1000
1000
0000
,
0101
0000
1010
0000
0010
0010
0000
0100
,
0100
0000
1000
1000
0000
0001
0001
0000
,
1010
0000
0101
0000
0001
0001
1000
0001
,
0000
1000
0010
1000
0000
0010
0100
0010
,
0000
0001
0010
0001
1000
0000
0001
0000
,
0100
1000
0001
0100
,
0001
0000
1000
0000
0001
0100
1000
0000
,
0001
1000
0001
0000
0010
0001
1000
0000
,
0010
1000
0010
0000
0100
1000
0001
0000
,
0100
0001
0010
1000
0100
0001
0100
0001
,
0010
0000
1000
0000
0001
1000
0001
0000
,
1000
0000
0100
0000
0010
0100
0010
0000
,
1000
0000
0100
0000
0010
0000
0000
0100
,
0000
0001
1000
0001
,
0100
0000
1000
0000
0000
0001
0100
0000
,
1000
0001
0000
0100
0000
0001
0100
0000
,
1000
0100
0000
2002
0000
0000
0000
0000
,
3003
0000
0000
0000
;

//--------------- dance-single - XLev450X-ESP ----------------
#NOTES:
     dance-single:
     XLev450X:
     Hard:
     14:
     0,0,0,0,0:
0000
0000
0000
0000
,
0000
0000
0000
0000
,
0000
0000
0000
0000
0001
1000
0010
1000
,
0010
0100
0001
0010
0100
1000
0001
1000
,
0010
0100
0010
0001
0010
0100
1000
0010
,
0100
0001
0010
1000
0000
0001
0000
1000
,
0010
0000
0100
1000
0010
0000
0001
0000
0010
0000
0100
0000
0010
0000
0100
0000
,
0001
0010
1000
0001
0100
1000
0001
1000
,
0001
1000
0010
0100
0010
1000
0010
0001
,
0010
0100
1000
0001
0010
0100
0010
0100
,
0001
0000
2002
0000
0000
0000
0000
0000
3003
0000
0001
0100
1000
0000
0100
0000
,
0010
0001
0100
1000
0000
0001
1000
0010
,
0000
0100
0010
0001
0000
0100
1000
0001
,
1000
0010
1000
0100
0010
0001
0010
0100
,
1000
0001
0010
0000
0001
1000
0001
0000
,
0010
1000
0100
0010
0001
0000
0010
0000
,
0100
1000
0001
0000
0010
1000
0010
0100
,
0001
0010
0100
1000
0000
0001
0100
0000
,
1000
0100
0000
1001
0000
0100
0100
0000
,
0001
1000
0000
0110
0000
0000
0001
1000
,
0001
0000
0010
1000
0100
0000
0010
0001
,
0010
0100
1000
0001
0000
1000
0001
0100
,
0000
0010
1000
0100
0010
0001
0010
0100
,
1000
0001
0000
1000
0001
1000
0100
0000
,
0010
0100
0010
0000
0001
0010
0001
1000
,
0100
0001
1000
0000
0001
1000
0010
0000
,
0010
1000
0100
0000
0010
0001
0010
0100
,
1000
0001
1000
0001
1000
0000
0001
0000
,
0010
1000
0100
0000
0001
0010
0100
1000
,
0010
0100
0010
0000
0001
0000
0010
0100
,
1000
0001
0100
0001
0000
1000
0000
0010
,
1000
0100
0010
0001
0100
0000
0010
0000
,
1000
0010
1000
0000
0010
0000
0001
0000
,
0100
0001
0100
0000
0001
1000
0001
1000
,
0010
0100
0001
0010
0000
0100
0001
1000
,
0001
1000
0010
1000
0002
0000
1000
0000
,
1000
0000
2000
3003
0001
1000
0010
1000
,
0001
1000
0100
0001
0010
1000
0100
0001
0010
0000
0000
0000
0001
0000
1000
0000
,
0010
1000
0100
0000
0010
0001
0010
0100
,
1000
0001
1000
0000
0010
1000
0100
0010
,
0001
0010
0100
1000
0001
1000
0001
1000
,
0010
1000
0000
0010
1000
0100
0001
0000
,
0010
0001
0010
0000
0100
1000
0001
0100
,
0010
1000
0001
0000
0010
0010
1000
0100
,
0010
0001
0010
0000
0001
0100
1000
0001
,
1000
0010
1000
0000
1001
0000
0010
0000
,
0100
0000
0001
1000
0001
0000
0010
0000
,
1000
0100
0010
0000
0001
0010
0100
1000
,
0001
1000
0001
0000
1000
0010
0100
0010
,
0001
0010
0100
1000
0001
0000
1000
0000
,
0010
1000
0010
0000
0001
0010
0100
0000
,
0010
0000
1000
0000
0010
0000
0000
0000
0001
0000
1000
0001
1000
0000
0100
0000
,
0001
0000
1000
0100
0001
0000
0010
0000
1000
0000
0001
0000
0100
0000
0001
0000
,
1000
0000
0010
0000
0100
0000
0010
0000
0100
0000
0001
0100
1000
0000
0010
0000
,
1000
0001
0100
1000
0010
0100
0001
1000
0010
0000
0000
0000
0001
0000
0000
0000
,
1000
0000
0010
0100
0010
0000
0001
0000
,
1000
0000
0001
0001
,
1000
0000
0100
0000
0010
0100
0010
1000
,
0001
0000
0001
0000
0001
1000
0001
0000
,
0010
1000
0010
0000
0010
0100
0010
0000
,
0001
0000
0010
0000
0001
0010
0001
0000
,
0001
1000
0001
0000
0010
1000
0010
0000
,
0001
0000
1000
0000
0001
0001
0000
0010
,
0010
0000
1000
1000
0000
0100
0100
0000
,
0001
1000
0001
0000
0010
0010
0000
1000
,
1000
0000
0100
0100
0000
0001
0001
0000
,
0001
0100
0001
0000
0001
0000
1000
0000
,
0010
1000
0010
0000
0001
0000
0010
0000
,
0010
1000
0010
0000
0001
0000
0010
0000
,
0100
0000
1000
0000
0001
1000
0100
0010
,
0001
0010
0100
1000
0001
1000
0001
0000
,
1000
0010
1000
0000
0010
0100
0010
0000
,
0001
0010
0001
0000
0001
0000
1000
0000
,
0001
0000
0100
0000
0010
1000
0100
0010
,
0001
0010
0100
0000
1000
0000
0001
0000
,
1000
0001
1000
0000
0010
0000
1000
0000
,
0100
0010
0100
0000
0001
0000
1000
0000
,
0001
0100
0010
0100
,
1000
0000
0001
0000
1000
0001
0000
0010
,
1000
0000
0100
0010
0000
0001
0010
0000
,
0100
1000
0000
2002
0000
0000
0000
0000
,
3003
0000
0000
0000
;

//--------------- dance-single - XLev450X-CSP ----------------
#NOTES:
     dance-single:
     XLev450X:
     Challenge:
     16:
     0,0,0,0,0:
0000
0000
0000
0000
,
0000
0000
0000
0000
,
0000
0000
0000
0000
1000
0001
0100
0010
,
1000
0001
0100
0010
1000
0010
1000
0100
,
0010
0001
0010
0100
1000
0001
1000
0001
,
1000
0010
1000
0100
0010
0001
0010
0100
,
1000
0001
1000
0001
1000
0100
0010
0001
,
0010
0100
1000
0001
1000
0010
1000
0100
,
0010
0001
0010
0100
1000
0001
0100
0010
,
1000
0001
0100
0010
1000
0001
1000
0001
,
1000
0000
2002
0000
0000
0000
0000
0000
3003
0000
0001
1000
0001
0000
0010
0000
,
1000
0010
0000
0001
0010
0100
1000
0001
,
1000
0010
1000
0100
0000
0010
0001
0010
,
0100
1000
0001
1000
0000
1001
0000
0001
,
1000
0000
0001
0000
1000
0001
0010
0100
1000
0000
0010
0000
1000
0000
0001
0000
,
1000
0010
0100
0001
0000
1000
0010
1000
,
0100
0010
0001
0010
1000
0100
0001
0000
,
0010
0000
1000
0000
0001
0000
1000
0000
0001
1000
0010
0100
1000
0001
0010
0100
,
1000
0010
0100
0001
1000
0001
0100
0010
1000
0001
0010
0100
1000
0001
1000
0100
,
0001
1000
0100
0010
0001
1000
0200
0000
0000
0000
0300
0000
0001
0000
1000
0000
,
0010
1000
0100
0010
0001
0010
1000
0100
,
0010
1000
0001
0000
0010
1000
0100
0000
,
0010
0001
0010
0000
0100
1000
0010
0100
,
0010
1000
0000
0001
1000
0100
0001
1000
,
0001
1000
0010
0000
0010
1000
0100
0010
,
0001
0010
0100
1000
0001
1000
0010
0000
,
0010
0001
0010
0000
0100
1000
0100
0001
,
1000
0001
1000
0000
0001
0001
1000
0100
,
0010
0001
0100
1000
0010
0100
0010
1000
,
0001
0010
1000
0100
0010
0001
0010
1000
,
0100
0010
1000
0001
0010
1000
0001
0100
,
1000
0001
0010
1000
0010
1000
0010
0000
,
0001
0010
0001
0000
0100
1000
0100
0000
,
0001
0100
0010
0000
0010
1000
0100
0001
,
0010
0100
1000
0001
1000
0000
0001
0000
,
1000
0001
1000
0001
1000
0000
0010
0000
,
0100
0000
0001
0010
0001
0000
0100
0000
,
1000
0001
0100
0010
1000
0001
1000
0100
0002
0000
1000
0000
1003
0000
0000
0000
,
0010
1000
0010
0001
0010
0100
1000
0000
,
0001
0010
1000
0100
0010
0001
0010
0000
,
0010
0100
1000
0000
0001
1000
0001
0100
,
1000
0001
1000
0010
1000
0100
0010
0000
,
0001
0010
0100
0000
0010
1000
0010
0000
,
0001
0010
0100
1000
0001
1000
0001
0000
,
0001
1000
0100
0000
0010
0100
1000
0001
,
1000
0000
0010
0000
1000
0000
0001
0100
0001
0010
0100
0010
0100
0001
1000
0100
,
1000
0001
0010
0001
1000
0010
1000
0010
0100
0010
1000
0100
0010
0001
1000
0010
,
1000
0100
0010
0100
0010
0001
1000
0100
0001
0000
1000
0000
0010
0000
0100
0000
,
0010
0000
1000
0000
0001
0000
0010
0000
0001
0000
0100
0000
1000
0100
0001
0000
,
1000
0001
0010
0000
1000
0100
0001
0000
0010
0001
0010
0001
0100
0001
1000
0100
,
1000
0100
0010
0001
0100
0010
1000
0100
1000
0010
0100
0010
0100
0001
1000
0100
,
0010
0001
0100
0010
1000
0001
1000
0000
0001
0000
1000
0000
0010
0000
0000
0000
,
0001
0000
1000
0000
0001
1000
0001
0000
,
0010
0000
1000
0000
0010
0000
0000
0000
0001
0100
0010
0100
0010
1000
0001
0100
,
0010
0100
0001
1000
0010
1000
0001
0100
0001
0000
0000
0000
0001
0000
0000
0000
,
1000
0000
0010
1000
0010
0000
0001
0000
,
0010
0000
0100
0010
0100
0000
0001
0000
,
0010
1000
0001
1000
,
0001
0000
0000
0000
0001
1000
0010
0100
,
0010
0001
0010
0000
0001
0010
0001
0100
,
1000
0001
1000
0000
0010
1000
0100
0010
,
0001
0000
0010
0000
0100
0000
0010
0000
0100
1000
0100
0010
0001
1000
0001
1000
,
0010
1000
0001
0010
0001
0010
0100
0010
1000
0100
1000
0000
0000
0000
0010
0001
,
0010
0000
0000
0000
0100
0010
0100
0000
0000
0000
1000
0001
1000
0000
0000
0000
,
0001
0010
0100
1000
0001
0010
0100
1000
0001
0010
0001
0000
0000
0000
0100
1000
,
0100
0000
0000
0000
0010
0100
0010
0000
0000
0000
1000
0001
1000
0000
0000
0000
,
1000
0100
0010
0001
1000
0100
0010
0001
1000
0000
0010
0000
1000
0000
0010
0000
,
0100
0001
1000
0001
1000
0001
0100
0001
,
1000
0000
0010
0000
0010
1000
0001
0010
,
0100
1000
0001
1000
0001
1000
0010
1000
,
0100
0001
0010
0000
0001
0001
1000
0100
,
0010
0001
1000
0100
0010
1000
0010
1000
,
0001
0010
0100
1000
0001
1000
0010
0100
,
0001
0010
0100
1000
0010
0000
1001
0000
,
0010
0000
1010
0000
0001
0010
0001
0100
,
1000
0001
0100
0000
0001
1000
0100
0010
,
0001
0010
0100
0000
0001
0000
1000
0000
,
0001
0000
0100
0000
0010
1000
0001
0100
,
0010
0000
1000
0000
0001
0100
1000
0000
0000
0000
0010
1000
0001
0100
0010
1000
,
0001
1000
0001
0010
0100
0010
0001
0010
0100
0000
0010
0100
0001
0010
0001
0010
,
0100
1000
0010
0100
0010
0100
0020
0000
0000
0000
0000
0000
0000
0000
0000
0000
,
0030
0000
0000
0000
;
