#TITLE:Keep On Liftin' (RGR-Special);
#ARTIST:dj nagureo;
#GENRE:JAZZ HIPHOP;
#MUSIC:Keep On Liftin' (RGR-Special).ogg;
#BANNER:Keep On Liftin' (RGR-Special).png;
#BACKGROUND:Keep On Liftin' (RGR-Special)-bg.png;
#CDTITLE:./cdtitles/beatmania III.png;
#SAMPLESTART:55.22;
#SAMPLELENGTH:15;
#BPMS:0=100;
#BGSTAGE:4;

//--------------- dance-single - XLev450X† ----------------
#NOTES:
     dance-single:
     XLev450X†:
     Challenge:
     13:
     0,0,0,0,0:
0000
0000
0000
0000
,
0000
0000
0000
0000
,
0000
0000
0000
0000
0000
0000
0000
0000
0000
0000
0000
0000
0000
0000
1000
0100
,
0010
0001
0010
0000
0100
0000
0010
0000
0001
0000
0000
0010
0000
0000
0100
0000
0000
0000
0000
0000
1000
0000
0000
0000
0001
0000
0000
0000
0100
0000
0010
0000
,
2000
0000
3000
0000
0001
0000
0100
0000
0010
0000
0000
0000
1000
0000
0001
0000
0100
0000
0000
0010
0000
0000
2002
0000
3003
0000
0000
0000
0001
0000
0010
0000
,
0001
0000
1000
0010
1000
0000
0001
0100
0010
0000
1000
0000
0001
0000
0100
0010
,
1000
0000
0001
0000
0100
0010
0000
0000
1000
0000
0001
0100
0000
0010
1000
0000
,
0001
0000
0000
0000
0000
0000
0000
0000
0000
0000
0000
0000
0200
0000
0000
0000
0000
0000
0000
0000
0000
0000
0000
0000
0000
0000
0000
0000
0000
0000
0000
0000
0300
0000
0000
0000
0000
0000
0000
0001
0000
0000
0000
0000
0000
0000
0000
0000
1000
0000
0000
0000
0000
0000
0000
0000
0000
0010
0000
0000
0000
0000
0000
0000
0000
0000
0100
0000
0000
0000
0000
0000
0000
0000
0000
0000
0000
0000
0000
0000
0000
0000
0000
0000
0001
0000
0000
0000
0000
0000
1000
0000
0000
0000
0000
0000
,
0001
0010
0100
1000
0100
0000
0001
0100
0010
0000
1000
0100
0001
0000
0100
0000
,
0010
0000
1000
0001
0000
0200
0000
0000
0300
0000
0001
0100
1000
0000
0010
0000
,
1000
0000
0000
0000
0002
0000
0000
0000
0013
0000
0000
0000
0010
0000
0000
0000
0001
0000
0010
0000
0001
0000
0000
0000
1000
0000
0000
0100
0000
0000
0010
0000
,
0001
0000
1000
0000
0010
0000
0000
0100
0000
0000
0001
0000
1000
0000
0000
0010
,
0001
0000
1000
0000
0010
0000
0000
0100
0000
0001
1000
0000
0010
1000
0010
0100
,
0010
0000
1000
0000
0001
0000
0100
0010
0000
0000
0020
0000
0000
0130
0000
0001
,
2000
0000
0000
3000
0001
0000
0000
0000
0010
0000
0000
0000
0001
0000
1000
0000
0000
0000
0010
0000
1000
0000
0000
0000
0010
0000
0000
0100
0000
0000
0001
0000
,
1000
0000
0010
0000
0001
0000
1000
0020
0000
0000
0130
0000
0000
0001
0000
1000
,
0010
0000
0100
0000
0001
0000
0000
1000
0000
0000
0010
0000
1000
0010
1000
0000
,
0001
0000
0100
0000
0001
0000
1000
0001
0000
0100
0020
0000
0000
1030
0000
0001
,
1000
0001
0100
0010
0001
0100
0000
0010
0100
1000
0001
0010
0100
2000
0000
3000
,
0100
0000
0000
0000
0010
0000
0000
0000
0001
0000
0000
0010
0000
0000
0100
0000
0000
0000
1000
0000
0000
0000
0100
0000
0000
0000
0000
0000
0010
0000
0000
0000
,
1000
0000
0000
0000
0001
0000
1000
0000
0001
0000
0000
0010
0000
0000
0100
0000
1000
0000
0001
0000
0000
0000
0100
0000
0000
0000
0010
0000
1000
0000
0000
0000
,
0001
0000
0000
0000
0010
0000
0000
0000
1000
0000
0000
0100
0000
0000
0010
0000
0000
0000
0001
0000
1000
0000
0000
0000
0010
0000
0000
0000
0001
0000
0010
0000
,
0001
0000
0000
0000
1000
0000
0010
0000
1000
0000
0000
0000
0001
0000
0000
0000
0100
0000
0000
0000
0010
0000
0000
0000
1000
0000
0000
0001
0000
0000
0100
0000
,
0010
0000
0000
0000
0001
0000
0000
0000
1000
0000
0000
0100
0000
0000
0001
0000
0000
0000
0001
0000
0010
0000
0100
0000
1000
0000
0010
0000
1000
0000
0000
0000
,
0100
0000
0000
0000
0001
0000
0000
0000
0100
0000
0000
0001
1000
0000
0010
0000
0000
0000
1000
0000
0001
0000
0000
0000
0001
0000
0000
1000
0000
0000
0001
0000
,
0010
0000
0000
0000
1000
0000
0000
0001
0010
0000
0100
0000
1000
0000
0010
0000
0000
0000
0100
0000
0000
0000
0001
0000
1000
0000
0000
0000
0010
0000
0000
0000
,
0100
0000
0000
0000
0010
0000
0000
0000
1000
0000
0000
0000
0001
0000
0000
0000
0010
0000
0001
0000
0010
0000
0000
0000
2002
0000
0000
0000
0000
3003
0000
0000
,
0010
0000
0000
1000
0000
0000
0001
0000
0100
0000
0000
0000
0010
0000
1000
0000
0000
0000
0001
0000
0000
0000
0100
0000
0000
0000
0000
0000
0010
0000
1000
0100
,
0001
0000
0010
0000
0100
0000
1000
0000
0010
0000
0000
0001
1000
0000
0100
0000
0001
0000
0000
0100
0000
0000
0010
0000
0000
0000
0000
0000
0001
0000
1000
0000
,
0010
0000
0000
0000
0100
0000
0010
0000
1000
0000
0000
0000
0001
0000
0100
0000
0010
0000
0000
0100
0000
0000
0002
0000
0010
0000
0003
0000
0000
0000
0010
0000
,
0100
0000
0000
0000
1000
0000
0100
0000
0000
0001
0010
0100
1000
0000
0100
0000
0000
0000
0001
0000
0100
0000
0000
0000
0010
0000
0000
0000
0001
0000
0100
0000
,
1000
0000
0000
0000
0010
0000
0100
0000
0001
0000
0000
0100
0000
0000
1000
0000
0001
0000
0000
0000
0100
0000
0010
0000
0000
0000
1000
0000
0000
0000
1000
0100
,
0001
0000
0010
0000
1000
0000
0000
0000
0010
0000
0100
0000
0001
0000
1000
0000
0000
0000
0010
0000
0100
0000
0010
0100
0010
0000
0000
0000
0001
0000
1000
0000
,
0100
0000
0000
0000
0010
0000
0000
0100
0000
0000
0000
1000
0001
0000
0010
0000
1000
0000
0000
0000
0001
0000
1000
0000
0100
0000
0000
0000
0010
0000
0000
0000
,
1000
0000
0000
0001
0000
0000
0100
0000
0000
0000
0000
0010
0000
0000
1000
0000
0001
0000
0000
0100
0000
0000
0010
0000
2000
0000
0000
0100
0000
3000
0100
0000
,
0001
0000
0000
0000
1000
0000
0000
0000
0010
0000
0000
0000
1000
0000
0001
0000
0000
0000
0100
0000
0010
0000
0000
0000
1000
0000
0000
0100
0000
0000
0001
0000
,
0010
0000
1000
0000
0001
0000
0100
0010
0000
1000
0001
0000
0010
0000
1000
0000
,
0001
0000
0000
0000
0100
0000
0000
0000
0010
0000
0000
0000
1000
0000
0001
0000
0000
0000
0100
0000
0010
0000
0000
0000
1000
0000
0000
0100
0000
0000
0001
0000
,
0010
0000
0000
0000
1000
0000
0000
0000
0001
0000
0000
0000
0100
0000
0010
0000
0000
0000
1000
0000
0001
0000
0000
0000
0100
0000
0000
0010
0000
0000
1000
0000
,
0002
0000
0003
0000
;
