#TITLE:Kagami (T2Kazuya Remix);
#ARTIST:KaW;
#GENRE:HARDCORE;
#MUSIC:Kagami (T2Kazuya Remix).ogg;
#BANNER:Kagami (T2Kazuya Remix).png;
#BACKGROUND:Kagami (T2Kazuya Remix)-bg.png;
#CDTITLE:./CDTitles/StepManiaX.png;
#SAMPLESTART:45.261;
#SAMPLELENGTH:15;
#OFFSET:-0.092;
#BPMS:0=170.029;
#DISPLAYBPM:170;
#BGSTAGE:27;

//--------------- dance-single - XLev450X-bSP ----------------
#NOTES:
     dance-single:
     XLev450X:
     Beginner:
     3:
     0,0,0,0,0:
0000
0000
0000
0000
,
0000
0000
0000
0000
,
0000
0000
0000
0000
,
0000
0000
0000
0000
,
0001
0000
0001
0000
,
0001
0000
0000
0000
,
1000
0000
0001
0000
,
1000
0000
0000
0000
,
0010
0000
0000
0000
,
0000
0000
0000
0000
,
0100
0000
0000
0000
,
0000
0000
0000
0000
,
0001
0000
0000
0000
,
1000
0000
0000
0000
,
0001
0000
0000
0000
,
0000
0000
0000
0000
,
0010
0000
0100
0000
,
0010
0000
0000
0000
,
1000
0000
0010
0000
,
1000
0000
0000
0000
,
0001
0000
0010
0000
,
0001
0000
0000
0000
,
1000
0000
0001
0000
,
0100
0000
0000
0000
,
0010
0000
0000
0000
,
1000
0000
0000
0000
,
0001
0000
0000
0000
,
0100
0000
0000
0000
,
1000
0010
1000
0000
,
0001
0010
0001
0000
,
0100
0000
0010
0000
,
2002
0000
0000
3003
,
0000
0001
0001
0001
,
0000
1000
0000
0010
,
0000
1000
1000
1000
,
0000
0001
0000
0100
,
0000
0010
0010
0010
,
0000
0100
0000
1000
,
0000
0100
0100
0100
,
0220
0000
0000
0330
,
0000
0010
0100
1000
,
0001
1000
0010
0000
,
0100
1000
0001
0000
,
0010
0000
1000
0000
,
0001
0100
0001
0000
,
1000
0000
0001
0000
,
2000
0000
0000
3000
,
0002
0000
0000
1003
,
0000
0001
0000
1000
,
0000
0010
0000
0100
,
0000
0001
1000
0001
,
0000
0010
1000
0010
,
0001
0000
1000
0000
,
0001
0000
0000
0000
,
0100
0000
0010
0000
,
0100
0000
0000
0000
,
1000
0000
0001
0000
,
1000
0000
0000
0000
,
0010
0000
0100
0000
,
0010
0000
0000
0000
,
1000
0001
0010
0000
,
0100
0001
0100
0000
,
2000
0000
0000
0000
,
0002
0000
0000
3003
,
0100
0100
0001
0000
,
1000
1000
0010
0000
,
0100
0100
0010
0000
,
0002
0000
0000
0003
,
2002
0000
0000
3003
;

//--------------- dance-single - XLev450X-BSP ----------------
#NOTES:
     dance-single:
     XLev450X:
     Easy:
     6:
     0,0,0,0,0:
0000
0000
0000
0000
,
0000
0000
0000
0000
,
0000
0000
0000
0000
,
0000
0000
0000
0000
,
0001
1000
0001
0000
,
0010
1000
0010
0000
,
0100
0010
0100
0010
,
2002
0000
0000
3003
,
1000
0000
0000
0001
0000
0000
0200
0000
,
0000
0300
0010
1000
,
0001
0000
0000
0100
0000
0000
0002
0000
,
0000
0003
1000
1000
,
0010
0000
1000
0100
,
0001
0000
0010
1000
,
0001
0100
0010
1000
,
2002
0000
0000
0000
,
3003
0001
1000
0010
,
1000
0000
0010
0000
0001
0010
0001
0000
,
1001
1000
0010
1000
,
0200
0000
0000
0300
,
0001
0000
1000
0000
0010
0000
0001
0010
,
0001
1000
0100
1000
,
0001
0100
0100
1000
,
1001
0000
0000
0000
,
0010
0000
1000
0000
,
0001
0100
0001
0000
,
1000
0000
0001
0000
,
1000
0010
1000
0000
,
0100
0100
0001
0000
,
1000
1000
0001
0000
,
0001
1000
0001
1000
,
0002
0000
0000
0000
0000
0000
0000
0003
,
0001
0100
0100
0100
,
0010
1000
0001
0010
,
0100
1000
0100
0000
0001
0000
0001
0000
,
1000
0001
1000
0010
,
0100
0001
0010
0000
0010
0000
1000
0000
,
0010
0000
0001
0010
,
1000
0010
0100
0000
0100
0000
0001
0000
,
2000
0000
0000
0000
0000
0000
0000
3000
,
0001
0010
0100
1000
,
0001
1000
0010
0100
,
1000
0001
0001
1000
,
0010
1000
0010
0000
0001
0000
0100
0000
,
0010
1000
0001
1000
,
0010
0000
0100
0000
1000
0000
0010
1000
,
0020
0000
0000
0000
,
0200
0000
0000
0330
,
0002
1003
0010
0001
,
0010
0001
0010
0000
1000
0000
0100
0000
,
1000
0001
1000
0010
,
1000
0010
1000
0000
0001
0000
0000
0000
,
1000
0100
1000
0001
,
0100
1000
0010
0000
,
1000
0100
1000
0001
,
0100
0000
1000
0000
2002
0000
0000
3003
,
0001
0010
0001
0000
1000
0000
0100
0000
,
1000
0010
1000
0000
0001
0000
0100
0000
,
0010
0100
0010
0000
0001
0000
1000
0000
,
0001
1000
0001
0000
0001
0000
0100
0000
,
2000
0010
0010
3010
,
0002
0100
0100
0103
,
0001
0010
0001
0000
1000
0100
1000
0000
,
2002
0000
0000
0000
0000
0000
0000
3003
,
0010
0010
0010
1000
,
0001
0100
1000
0001
,
0010
0001
0010
0000
1000
0100
1000
0000
,
2002
0000
0000
3003
,
2020
0000
0000
3030
;

//--------------- dance-single - XLev450X-DSP ----------------
#NOTES:
     dance-single:
     XLev450X:
     Medium:
     10:
     0,0,0,0,0:
0000
0000
0000
0000
,
0000
0000
0000
0000
,
0000
0000
0000
0000
,
0000
0000
0000
0000
,
0001
1000
0010
0010
,
0100
1000
0001
0010
,
0001
0010
0001
0000
1000
0100
1000
0000
,
2002
0000
0000
3003
,
0010
0000
0000
0001
0000
0000
2000
0000
,
0000
0000
0000
3001
0010
1000
0100
0000
,
0001
0000
0000
0100
0000
0000
2000
0000
,
0000
0000
0000
3100
0001
0100
1000
0001
,
0010
0000
0000
0100
0000
0000
0002
0000
,
0000
0000
0000
0013
1000
0100
0001
0010
,
1000
0000
0000
0010
0000
0000
0100
0000
,
0002
0000
0000
0003
,
1000
0001
0001
1000
,
0010
0001
0010
0000
1000
0010
1000
0000
,
0100
1000
0001
0010
,
1000
0001
1000
0000
0010
0000
0000
0000
,
0100
0100
1000
0001
,
0010
1000
0001
0100
,
1000
0001
1000
0000
0010
1000
0010
0000
,
0202
0000
0000
0000
0000
0000
0000
0303
,
0001
0000
1000
0010
,
0100
0000
0001
1000
,
0010
1000
0100
1000
,
0000
0001
0010
1000
,
0010
0001
1000
0001
,
0010
0100
1000
0001
,
1000
0010
1000
0000
0001
0010
0001
0000
,
0220
0000
0000
0000
0000
0000
0000
0330
,
1000
0001
0001
1000
,
0010
0000
0100
0000
0001
1000
0010
1000
,
0010
0001
1000
0010
,
0100
0001
0100
0001
1000
0010
1000
0000
,
0001
1000
0010
0001
,
0010
0000
1000
0000
0010
1000
0010
0100
,
0001
1000
0010
0000
0001
0000
0001
0000
,
2000
0000
0000
0000
0000
0001
3001
0000
,
0010
0001
0010
0000
0100
1000
0100
0000
,
0001
1000
0001
1000
0010
1000
0001
0000
,
0010
0001
0010
0000
0100
1000
0100
0000
,
0001
1000
0010
0000
,
0001
0010
0001
0000
0010
0100
0010
0000
,
1000
0000
0001
0000
1000
0000
0010
0001
,
2000
0000
0100
0000
0100
0000
3100
0020
,
0000
0100
0000
0100
0000
0100
0130
0000
,
0001
0000
1000
0010
0000
0100
1000
0000
,
0001
0000
0010
0000
0001
0010
0001
0000
,
1000
0000
0010
1000
0000
0100
0001
0000
,
1000
0000
0001
0000
1000
0010
1000
0000
,
0001
0010
0001
0000
1000
0000
0001
0000
0010
0000
0000
0000
1000
0000
0000
0000
,
0010
1000
0010
0000
0001
0000
0100
0000
0001
0000
1000
0000
0001
0000
0100
0000
,
0001
0100
0001
0000
1000
0000
0010
0000
1000
0000
0001
0000
0010
0000
0000
0000
,
1000
0001
1000
0000
0001
0000
1000
0000
0010
0000
0100
0000
1000
0000
0000
0000
,
0001
0000
1000
0010
0000
1000
0001
0000
,
0100
0000
0000
0000
1000
0000
0001
0010
0001
0000
1000
0000
0010
0000
1000
0000
,
0001
1000
0010
0100
0000
1000
0001
0000
,
0010
0000
0000
0000
1000
0000
0001
1000
0100
0000
0001
0000
0010
0000
1000
0000
,
0001
1000
0001
0010
,
0001
0010
0001
0100
1000
0010
1000
0001
,
0010
0100
0010
0000
1000
0100
1000
0000
0001
0010
0001
0000
0010
0100
0010
0100
,
0020
0000
2030
3020
0000
0032
1003
0000
,
0001
0000
1000
0000
0001
0010
0001
0000
,
1000
0000
0100
0000
0001
0000
1000
0010
,
1000
0000
0001
0000
1000
0010
1000
0000
,
0001
0000
0000
0000
0000
0000
1000
0000
0000
0000
0000
0000
0010
0000
0000
0000
0000
0000
1000
0000
0000
0000
0000
0000
0001
0000
0000
0000
0000
0000
1000
0000
0000
0000
0000
0000
0020
0000
0000
0000
0000
0000
0030
0000
0000
0000
0000
0000
,
2002
0000
0000
0000
0000
0000
0000
0000
0000
0000
0000
0000
0000
0000
0000
0000
0000
0000
0000
0000
0000
0000
0000
0000
0000
0000
0000
0000
0000
0000
0000
0000
0000
0000
0000
0000
3003
0000
0000
0000
0000
0000
0000
0000
0000
0000
0000
0000
;

//--------------- dance-single - XLev450X-ESP ----------------
#NOTES:
     dance-single:
     XLev450X:
     Hard:
     15:
     0,0,0,0,0:
0000
0000
0000
0000
,
0000
0000
0000
0000
,
0000
0000
0000
0000
,
0000
0000
0000
0000
,
1000
0100
0010
0001
,
1000
0010
0100
0001
,
1000
0010
1000
0010
0100
0001
0100
0001
,
0010
0100
0010
0100
0010
0100
0010
0100
0010
0100
0010
0100
2000
0000
0000
0000
,
3001
0000
0100
0001
0000
0010
0002
0000
,
0000
0000
0000
0103
0010
1000
0010
0001
,
0010
0000
1000
0010
0000
0100
0020
0000
,
0000
0000
0000
1030
0001
0010
0100
0001
,
0100
1000
0100
1000
0001
0100
0001
0100
,
0010
1000
0010
1000
0001
0010
0100
0001
,
0100
1000
0100
1000
0001
0100
0010
1000
,
0001
0010
0100
1000
0001
0100
0001
0000
1000
0000
0100
1000
0100
0000
0000
0000
,
0101
0000
0000
0000
1100
0000
0000
1000
0010
0000
1000
0000
0001
0000
0000
1000
,
0010
0000
1000
0000
0100
0000
1000
0010
1000
0000
0001
0000
2000
0000
0000
0000
,
3100
0000
0000
0000
0101
0000
0000
0001
0010
0000
0001
0000
1000
0000
0000
0001
,
0010
0001
0100
0001
0100
1000
0100
0010
,
0110
0000
0000
0000
1001
0000
0000
0001
0100
0000
0001
0000
0101
0000
0000
0000
,
0100
0001
1010
1000
0001
0010
0210
0000
,
1300
0000
0000
0000
1001
0000
0000
0001
0100
0000
0001
0000
0101
0000
0000
0000
,
0200
0000
0301
2000
0000
3010
0200
0000
,
0301
0000
0100
0001
0000
0100
0002
0000
,
0000
0000
0000
0013
0100
0001
0100
1000
,
0100
0000
0001
0100
0000
0010
0200
0000
,
0000
0000
0000
1300
0001
0100
0010
0001
,
0010
1000
0010
1000
0001
0100
0001
0010
,
0100
1000
0100
1000
0001
0100
0010
0001
,
0010
1000
0100
1000
0001
0010
0100
1000
,
0001
0010
0001
0010
0100
1000
0001
0000
0100
0000
0010
0000
1000
0000
0001
0000
,
0010
0100
1000
0000
1000
0000
1000
0010
,
0100
0001
1000
0100
0010
0100
2000
0000
,
3100
0010
0001
0000
0001
0000
0001
0100
,
0010
0000
1000
0000
0001
0000
0100
0000
0001
0100
0001
0100
0001
0000
1000
0000
,
0100
0100
0001
0000
0001
0000
0001
0100
,
0010
1000
0001
0010
0100
0010
0002
0000
,
0103
0100
1000
0000
1000
0000
1000
0001
,
0100
0010
1000
0010
0001
0010
0110
0100
,
1001
0001
0100
0000
0100
0000
0100
0001
,
0010
0100
1000
0010
1000
0001
0100
0000
,
0100
1000
0100
0000
0100
0000
0100
1000
,
0100
0010
0001
0100
0001
1000
0010
0000
,
0100
0001
0100
0000
0100
0000
0010
0001
,
0100
0010
1000
0100
1000
0001
0100
0000
,
0100
0001
1000
0000
1000
0000
1000
0010
,
0100
0000
0001
0000
0100
0001
0100
0001
1000
0000
0100
0000
0120
0000
0000
0000
,
0031
0000
1001
1000
0010
1000
0001
0010
,
0100
0000
1000
0000
0100
0000
1000
0000
0001
0100
0001
0000
1000
0100
1000
0100
,
1000
0100
0010
1000
0010
0001
1000
0010
,
0100
0000
0001
0000
1000
0000
0010
0000
1000
0100
1000
0000
0001
0000
0000
0000
,
1000
0001
0100
1000
0100
0010
1000
0100
,
1000
0000
0010
0000
0100
0000
0001
0000
1000
0100
1000
0000
0001
0010
0001
0010
,
0001
0010
0100
0001
0100
1000
0001
0100
,
0010
1000
0001
0100
0002
0000
0103
0000
,
0001
1000
0001
0000
1000
0000
0100
1000
0100
0000
0000
0000
0010
0000
0001
0000
,
0100
0000
0001
0000
0100
0000
0100
0000
0010
0000
0010
0000
1000
0001
1000
0000
,
0001
0000
0100
0001
0100
0000
0001
0000
0010
0001
0010
0000
0100
0000
1000
0000
,
0100
1000
0010
0010
0100
0100
0001
0000
,
1000
0001
0010
0100
0001
0100
1000
0001
,
1000
0000
0001
0000
0010
0000
0010
0000
0100
0000
0100
0000
1000
0100
1000
0100
,
0010
0001
0100
0001
1000
0100
1000
0100
0010
0001
1000
0001
1000
0001
0010
1000
,
0200
0000
0310
0002
0000
0013
2000
0000
,
3001
0000
0100
0000
0010
0000
0100
0000
0001
0000
1000
0100
0000
0100
1000
0000
,
0001
0000
0100
0000
1000
0000
0100
0000
0001
0000
1000
0010
0000
0010
1000
0000
,
0001
0000
0010
0000
1000
0000
0010
0000
0001
0000
1000
0100
0000
0100
1000
0000
,
0001
0100
0001
1000
0100
0000
1000
0000
0010
0100
0001
0100
0020
0000
0000
0000
,
2030
0000
3000
0000
;
