#TITLE:Justify My Love;
#SUBTITLE:;
#ARTIST:Tess;
#TITLETRANSLIT:;
#SUBTITLETRANSLIT:;
#ARTISTTRANSLIT:;
#GENRE:TRANCE;
#CREDIT:;
#MUSIC:Justify My Love.ogg;
#BANNER:Justify My Love.png;
#BACKGROUND:Justify My Love-bg.png;
#CDTITLE:;
#SAMPLESTART:47.080;
#SAMPLELENGTH:15.000;
#SELECTABLE:YES;
#OFFSET:-0.211;
#BPMS:0.000=140.022;
#STOPS:;
#BGSTAGE:17;
#DISPLAYBPM:140;
#BGCHANGES:;
#FGCHANGES:;

//--------------- dance-single - 幸福一家王小龙-bSP ----------------
#NOTES:
     dance-single:
     幸福一家王小龙:
     Beginner:
     2:
     0,0,0,0,0:
0000
0000
0000
0000
,
0000
0000
0000
0000
,
0000
0000
0000
0000
,
0000
0000
0000
0000
,
0001
0000
0000
0000
,
1000
0000
0000
0000
,
0100
0000
0000
0000
,
0010
0000
0000
0000
,
0001
0000
0000
0000
,
1000
0000
0000
0000
,
0100
0000
0000
0000
,
0010
0000
0000
0000
,
0001
0000
0000
0000
,
0100
0000
0000
0000
,
1000
0000
0000
0000
,
0010
0000
0000
0000
,
1000
0000
0000
0000
,
0100
0000
0000
0000
,
0010
0000
0000
0000
,
0001
0000
0000
0000
,
1000
0000
1000
0000
,
0001
0000
0001
0000
,
0100
0000
0100
0000
,
0010
0000
0010
0000
,
1000
0000
1000
0000
,
0001
0000
0001
0000
,
0100
0000
0100
0000
,
0010
0000
0010
0000
,
1000
0000
0000
0000
,
0001
0000
0000
0000
,
0100
0000
0000
0000
,
0010
0000
0010
0000
,
1000
0000
0000
0000
,
0001
0000
0000
0000
,
0010
0000
0000
0000
,
0100
0000
0000
0000
,
1000
0000
0000
0000
,
0001
0000
0000
0000
,
0100
0000
0000
0000
,
0010
0000
0010
0000
,
0001
0000
1000
0000
,
1001
0000
0000
0000
,
0100
0000
0000
0000
,
0010
0000
0000
0000
,
0001
0000
0000
0000
,
1000
0000
1000
0000
,
0100
0000
0000
0000
,
1000
0000
0000
0000
,
1000
0000
0000
0000
,
0001
0000
0001
0000
,
0010
0000
0000
0000
,
1001
0000
0000
0000
;

//--------------- dance-single - KONAMI-BSP ----------------
#NOTES:
     dance-single:
     KONAMI [DDRMAX]:
     Easy:
     5:
     0,0,0,0,0:
0000
0000
0000
0000
,
0000
0000
0000
0000
,
0000
0000
0000
0000
,
0000
0000
0000
0000
,
1000
0000
0001
0000
,
1000
0000
0001
0000
,
0100
0000
0001
0000
,
0100
0000
0001
0000
,
1000
0000
0001
0000
,
1000
0000
0001
0000
,
0100
0000
0001
0000
,
0100
0000
0001
0000
,
2000
0000
0000
3000
,
0200
0000
0000
0300
,
2000
0000
0000
3000
,
0002
0000
0000
0003
,
2000
0000
0000
3000
,
0200
0000
0000
0300
,
2000
0000
0000
3000
,
0002
0000
0000
0003
,
1000
0010
1000
0001
,
1000
0010
1000
0001
,
0100
0010
0100
0001
,
0100
0010
0100
0001
,
1000
0010
1000
0001
,
1000
0010
1000
0001
,
0100
0010
0100
0001
,
0100
0010
0100
0001
,
1000
0000
0000
0000
,
0001
0000
0000
0000
,
1000
0000
0000
0000
,
0010
0000
1000
0001
,
0100
0000
0000
0000
,
0010
0000
0000
0000
,
0100
0000
0000
0000
,
0001
0000
1000
0100
,
1000
0000
0000
0000
,
0001
0000
0000
0000
,
1000
0000
0000
0000
,
0010
0000
1000
0001
,
1000
0000
0000
0000
,
1001
0000
0100
0010
,
1000
0000
0000
0000
,
0100
0000
0010
0001
,
1000
0000
0000
0000
,
0010
0000
0100
1000
,
0100
0000
0000
0000
,
0001
0000
0000
0000
,
1000
0100
0010
0000
,
0001
0000
0100
0010
,
1000
0000
0000
0000
,
1001
0000
0000
0000
;

//--------------- dance-single - KONAMI-DSP ----------------
#NOTES:
     dance-single:
     KONAMI [DDRMAX]:
     Medium:
     7:
     0,0,0,0,0:
0000
0000
0000
0000
,
0000
0000
0000
0000
,
0000
0000
0000
0000
,
0000
0000
0000
0000
,
0010
1000
0100
0000
0010
0001
0100
0000
,
0010
1000
0100
0000
0010
0001
0100
0000
,
0010
0010
1000
0000
0100
0010
0001
0000
,
1000
1000
0100
0000
0010
0001
1000
0000
,
0010
1000
0100
0000
0010
0001
0100
0000
,
0010
1000
0100
0000
0010
0001
0100
0000
,
0010
0010
1000
0000
0100
0010
0001
0000
,
1000
1000
0100
0000
0010
0001
1000
0000
,
0002
0000
0000
0000
,
0000
0000
0000
0000
0000
0103
0010
1000
,
0200
0000
0000
0000
,
0000
0000
0000
0000
0000
0310
0001
1000
,
0020
0000
0000
0000
,
0000
0000
0000
0000
0000
1030
0100
0001
,
0200
0000
0000
0000
,
0000
0000
0000
0000
0000
1300
0001
0100
,
0000
0010
0000
0010
0000
1000
0000
1000
,
0000
0010
0000
0010
0000
0100
0000
0001
,
0000
1000
0000
1000
0000
0100
0000
0100
,
0000
0010
0000
0010
0000
0001
0000
1000
,
0000
0010
0000
0010
0000
1000
0000
1000
,
0000
0010
0000
0010
0000
0100
0000
0001
,
0000
1000
0000
1000
0000
0100
0000
0100
,
0000
0010
0000
0010
0000
0001
0000
1000
,
0010
1000
0001
1000
,
0001
0010
0100
1000
,
0001
1000
0001
0100
,
0001
0010
0100
1000
,
0001
0100
0001
1000
,
0100
1000
0100
0010
,
0001
0100
0001
1000
,
0100
0010
0100
0001
,
0010
1000
0001
1000
,
0001
0010
0100
1000
,
0001
1000
0001
0100
,
0001
0010
0100
1000
,
0100
0000
1000
0001
0000
0000
1000
0000
,
1001
0100
0100
0010
,
1000
0100
1000
0000
0001
0000
1000
0000
,
0010
1000
0010
0000
0100
0000
0001
0000
,
1000
0100
1000
0000
0001
0000
0100
0000
,
0010
1000
0010
0000
0100
0000
0001
0000
,
1000
0100
0010
0000
0001
0000
1000
0000
,
0010
0100
1000
0000
0100
0000
0010
0000
,
1000
0100
0010
0000
0001
0000
1000
0000
,
0010
0100
0001
0000
1000
0000
0100
0000
,
2002
0000
0000
3003
,
1001
0000
0000
0000
;

//--------------- dance-single - KONAMI-ESP ----------------
#NOTES:
     dance-single:
     KONAMI [DDRMAX]:
     Hard:
     13:
     0,0,0,0,0:
0000
0000
0000
0000
,
0000
0000
0000
0000
,
0000
0000
0000
0000
,
0000
0000
0000
0000
,
1000
0000
2000
0000
3001
0100
0001
1000
,
0001
0000
0002
0000
0013
0100
0010
0001
,
1000
0000
2000
0000
3001
0010
0100
1000
,
0001
0000
0002
0000
1003
0100
0010
0001
,
1000
0000
2000
0000
3001
0100
0001
1000
,
0001
0000
0002
0000
0013
0100
0010
0001
,
1000
0000
2000
0000
3001
0010
0100
1000
,
0001
0000
0002
0000
1003
0100
0010
0001
,
1000
0000
1000
0000
0100
0010
0200
0000
,
1000
0000
1300
0000
0001
0100
0002
0000
,
0010
0000
0013
0000
0100
1000
0200
0000
,
1000
0000
1300
0000
0010
0100
0010
0000
,
1000
0000
0100
0000
1000
0001
0200
0000
,
0310
0000
1000
0000
0010
0100
0002
0000
,
0013
0000
0100
0000
1000
0100
0020
0000
,
0031
0000
1000
0000
0010
1000
0200
0000
,
0010
0010
0010
0310
,
0001
1000
0100
0000
0010
0001
2000
0000
,
0010
0010
0010
3010
,
0100
1000
0100
0000
0001
0010
0200
0000
,
0010
0010
0010
0310
,
0001
1000
0100
0000
0010
0001
2000
0000
,
0010
0010
0010
3010
,
0100
1000
0100
0000
0001
0010
0100
0000
,
1000
0010
0000
2000
0000
0000
3000
0000
0001
0010
0000
0002
0000
0000
0003
0000
,
1000
0010
0000
2000
0000
0000
3000
0000
0001
0010
0000
0002
0000
0000
0003
0000
,
1000
0001
0000
0200
0000
0000
0300
0000
0001
1000
0000
0200
0000
0000
0300
0000
,
1000
0001
0000
0200
0000
0000
0300
0000
0001
1000
0000
0200
0000
0000
0300
0000
,
1000
0010
0000
1000
0000
0001
1000
0001
1000
0010
0000
1000
0000
0001
1000
0001
,
0100
0001
0000
0100
0000
0010
0100
0010
0100
0001
0000
0100
0000
0010
0100
0010
,
1000
0010
0000
1000
0000
0001
0100
0001
1000
0010
0000
1000
0000
0001
0100
0001
,
1000
0100
0000
1000
0000
0001
0010
0001
1000
0100
0000
1000
0000
0001
0010
0001
,
2000
3000
0002
0003
,
2000
3000
0002
0003
,
2000
3000
0002
0003
,
2000
3000
0002
0003
,
2000
3000
0002
0003
,
1001
2002
0000
3003
,
0010
0000
1000
0001
0200
0000
0310
1000
,
0200
0000
0310
0001
2000
0000
3010
0100
,
0002
0000
1003
0100
0020
0000
0031
0100
,
2000
0000
3100
0001
2000
0000
3100
0001
,
0200
0000
1300
0001
0200
0000
0310
1000
,
0200
0000
0310
0001
2000
0000
3010
0100
,
0002
0000
1003
0100
0020
0000
0031
0100
,
2000
0000
3100
0001
2000
0000
3100
0000
,
0010
1000
0001
0010
0100
0000
1000
0001
,
0200
0000
0300
0000
;

//--------------- dance-single - XLev450X-CSP ----------------
#NOTES:
     dance-single:
     XLev450X:
     Challenge:
     16:
     0,0,0,0,0:
0000
0000
0000
0000
,
0000
0000
0000
0000
,
0000
0000
0000
0000
,
0000
0000
0000
0000
,
1000
0000
0010
0100
0010
0000
1000
0000
0100
0010
0001
1000
0001
0000
0000
0000
,
1010
0000
1000
0000
1001
0000
0001
0000
0101
0000
1000
0001
1000
0000
0000
0000
,
1000
0000
0100
0010
0100
0000
1000
0000
0001
0100
0010
1000
0010
0000
0000
0000
,
1010
1000
0011
0001
2002
3003
0110
0000
,
0010
0000
0000
0010
0000
0000
0010
0000
1000
0000
0001
0000
1000
0000
0000
0000
,
0001
0100
0001
0100
0001
0000
0000
0000
1000
0000
0010
0000
0001
0000
0010
0000
,
1000
0000
0000
1000
0000
0000
0100
0000
0010
0000
0100
0000
0010
0000
0000
0000
,
0001
0000
1000
0010
0000
1000
0010
0000
0100
0000
0001
0000
1000
0000
0000
0000
,
1001
0000
0000
0000
0010
0100
0010
0000
1000
0000
0001
0000
0010
0100
0010
0000
,
0001
0000
1000
0000
0010
0100
0010
0000
1000
0001
1000
0000
0220
0000
0330
0000
,
1001
0000
0000
0000
0010
0100
0010
0000
0001
0000
1000
0000
0010
0100
0010
0000
,
1000
0000
0001
0000
0010
0100
0010
0000
0001
0000
0000
0000
0001
0000
0000
0000
,
1000
0000
0001
0000
1000
0000
0100
0000
1000
0000
0100
1000
0000
0001
0000
0000
,
0010
0000
0001
0000
0010
0001
1000
0100
0010
0000
0000
0000
0110
0000
0000
0000
,
0001
0000
1000
0000
0100
1000
0100
0000
1000
0000
0001
0000
0010
0001
0010
0000
,
0022
0033
0000
0220
0330
0000
2200
3300
0000
2002
3003
0000
0220
0000
0330
0000
,
0001
0010
0100
1000
0000
1000
0010
1000
,
0100
0010
0001
0100
0001
0000
0000
0000
,
1000
0010
0100
0001
0000
0001
0010
0001
,
0100
0010
1000
0100
0000
0101
0000
1000
,
1000
0001
0000
1000
0000
0000
0100
0000
0010
0001
0000
1000
0000
0000
0100
0000
,
1000
0001
0000
1000
0000
0000
0010
0000
0100
0001
0000
1000
0000
0000
0100
0000
,
0210
1000
0010
0001
,
0010
0000
0300
0000
0000
0000
0000
0000
0010
1000
0001
1000
0100
0000
1000
0000
,
0001
0000
1000
0000
0010
0000
0100
0000
0001
0000
1000
0000
0100
0000
1000
0001
1000
0000
0010
0000
0100
0000
0001
0000
1000
0000
0100
0000
0010
0000
0001
1000
,
0001
0000
0100
0000
0010
0000
1000
0000
0001
0000
0010
0000
0100
0000
1000
0001
1000
0000
0010
0000
0100
0000
0001
0000
1000
0000
0100
0000
1000
0000
0001
0000
,
0100
0000
0010
0000
1000
0000
0001
0000
1000
0000
0100
0000
0010
0000
0001
1000
0001
0000
0100
0000
0010
0000
0100
0000
0001
0000
0010
0000
0100
0000
1000
0000
,
0001
0100
0001
0010
0100
1000
0010
0100
0001
0010
0100
0000
1001
0000
0000
0000
,
1000
0100
0001
0100
1000
0010
0001
0010
1000
0100
0001
0100
1000
0010
0001
0010
,
1000
0100
0001
1000
0010
0001
1000
0010
0001
0010
1000
0001
0010
1000
0001
0100
,
1000
0000
0000
0001
0000
0000
1000
0000
0000
0010
0000
0000
0100
0000
0100
0000
,
0010
0000
0000
1000
0000
0000
0001
0000
0000
0010
0000
0000
0001
0000
1000
0000
,
1000
0000
0000
0100
0000
0000
0010
0000
0000
0000
0001
0000
0001
0000
0100
0000
,
0001
0000
0000
0010
0000
0000
0100
0000
0000
0000
1000
0000
1000
0000
0010
0000
,
1000
0000
0000
0100
0000
0000
0010
0000
0000
0000
0001
0000
0001
0000
0100
0000
,
0001
0000
0000
0010
0000
0000
0100
0000
0000
0000
1000
0000
1000
0000
0010
0000
,
1000
0000
0000
0001
0000
0000
1000
0000
0000
0000
0001
0000
1000
0000
0001
0000
,
0220
0000
0000
0000
0000
0000
0000
0000
0000
0000
0000
0000
0000
0330
0000
0000
,
1000
0000
0000
0000
1010
0000
0000
0001
1000
0100
0001
0100
1000
0010
1000
0010
,
0100
0000
0001
0000
0011
0000
0000
1000
0020
0000
0230
0000
0301
0010
1000
0010
,
0001
0000
0000
0000
0101
0000
0000
1000
0010
0000
1010
0000
1000
0100
0010
0001
,
0100
0000
0001
0000
0010
0100
0000
1000
0001
0100
0001
0100
0002
0203
2300
3000
,
0001
0000
0100
0000
1000
0000
0001
0000
0010
0000
0000
0010
1000
0000
0001
0000
,
1000
0000
0100
0000
0001
0000
1000
0000
0010
0000
0000
0010
0001
0000
1000
0000
,
0001
0000
0100
0000
1000
0000
0001
0000
0010
0000
0000
0010
1000
0000
0001
1000
,
0001
0010
0100
1000
0010
0100
0001
1000
0100
0010
0100
1000
0001
0100
0010
1000
,
0100
0010
0001
0010
0100
0010
1000
0100
0010
0001
0100
0010
1000
0100
0010
0001
,
2000
0000
3000
0000
;
