#TITLE:Insanity;
#ARTIST:BEMANI Sound Team "SYUNN & Yvya";
#ARTISTTRANSLIT:SYUNN & Yvya;
#MUSIC:Insanity.ogg;
#BANNER:Insanity.png;
#BACKGROUND:Insanity-bg.png;
#CDTITLE:./CDTitles/jb Ave.png;
#SAMPLESTART:81.142;
#SAMPLELENGTH:15;
#SELECTABLE:YES;
#OFFSET:-0.571;
#BPMS:0.000=210;
#BGSTAGE:14;

//--------------- dance-single - XLev450X-bSP ----------------
#NOTES:
     dance-single:
     XLev450X:
     Beginner:
     4:
     0,0,0,0,0:
0000
0000
0000
0000
,
0000
0000
0000
0000
,
0000
0000
0000
0000
,
0000
0000
0000
0000
,
0000
0000
0000
0000
,
0000
0000
0000
0000
,
0000
0000
0000
0000
,
0000
0000
0000
0000
,
0000
0000
1000
0001
,
0100
0000
0010
0000
,
1000
0000
0010
0001
,
1000
0000
0010
0000
,
0100
0000
1000
0001
,
0100
0000
0010
0000
,
1000
0000
0010
0001
,
1000
0000
0010
0000
,
0100
0000
2002
0000
,
0000
0000
0000
0000
,
0000
0000
0000
0000
,
0000
0000
0000
0000
,
0000
3003
0010
0000
,
1000
0000
0001
0000
,
0000
0000
0100
0000
,
0010
0000
1000
0000
,
0000
0000
0100
0001
,
1000
0000
0010
0000
,
0100
0000
1000
0000
,
0010
0000
0100
0000
,
0001
0000
1000
0000
,
0000
0000
0001
0000
,
0000
0000
0100
0000
,
0000
0000
0010
0000
,
0000
0000
1000
0000
,
0000
0000
0001
0000
,
0000
0000
0100
0000
,
0000
0000
0010
0000
,
0000
0000
1000
0000
,
0000
0000
0010
0000
,
0000
0000
0001
0000
,
0000
0000
1000
0000
,
0000
0000
0100
0000
,
0000
0000
0001
0000
,
0000
0000
0010
0000
,
0000
0000
0100
0000
,
0000
0000
1000
0000
,
0001
0000
0100
0000
,
0000
0000
1000
0000
,
0001
0000
0010
0000
,
0000
0000
1000
0000
,
0010
0000
0100
0000
,
0001
0000
2000
0000
,
0000
0000
0000
0000
,
0000
3000
0020
0000
,
0000
0000
0000
0000
,
0000
0030
0100
0000
,
0001
0000
1000
0000
,
0100
0000
0010
0000
,
1000
0000
0001
0000
,
0100
0000
0020
0000
,
0000
0030
2000
0000
,
0000
3000
0001
0000
,
0100
0000
0010
0000
,
0000
0000
1000
0000
,
0000
0000
0001
0000
,
0000
0000
0100
0000
,
0000
0000
0010
0000
,
0000
0000
1000
0000
,
0001
0000
0100
0000
,
0010
0000
1000
0000
,
0000
0000
0001
0000
,
0000
0000
0100
0000
,
0010
0000
1000
0000
,
0001
0000
0010
0000
,
1000
0000
0100
0000
,
0010
0000
1000
0000
,
0100
0000
0001
0000
,
1000
0000
1010
0000
,
0101
0000
1001
0000
,
0110
0000
0001
0000
,
0100
0000
0010
0000
,
1000
0000
0001
0000
,
0100
0000
0010
0000
,
1000
0000
1010
0000
,
0101
0000
1001
0000
,
0110
0000
1100
0000
,
0011
0000
0110
0000
,
1001
0000
0110
0000
,
0000
0000
0001
0000
,
0000
0000
1000
0000
,
0000
0000
0100
0000
,
0000
0000
0010
0000
,
0000
0000
0100
0000
,
0000
0000
0001
0000
,
1000
0000
0010
0000
,
0100
0000
0002
0000
,
0003
0000
0000
0000
;

//--------------- dance-single - XLev450X-BSP ----------------
#NOTES:
     dance-single:
     XLev450X:
     Easy:
     8:
     0,0,0,0,0:
0000
0000
0000
0000
,
0000
0000
0000
0000
,
0000
0000
0000
0000
,
0000
0000
0000
0000
,
0000
0000
0000
0000
,
0000
0000
0000
0000
,
0000
0000
0000
0000
,
0000
0000
0000
0000
,
0000
0000
0001
1000
,
0010
0100
0001
0000
,
1000
0000
0100
0010
,
0001
0000
1000
0010
,
0100
0000
1000
0010
,
0100
0001
1000
0000
,
0010
0000
0100
0001
,
1000
0000
0010
0100
,
0001
1000
2002
0000
,
0000
0000
0000
0000
,
0000
0000
0000
0000
,
0000
0000
3003
0000
,
0000
0000
0001
1000
,
0010
0000
0100
0000
,
0001
0000
1000
0010
,
0100
0000
1000
0000
,
0100
0000
0010
0001
,
1000
0000
0010
0000
,
0100
0000
1000
0010
,
0100
0000
0001
0000
,
1000
0000
0022
0033
,
2200
3300
0220
0330
,
2002
3003
0202
0303
,
2020
3030
0220
0330
,
2002
3003
2020
3030
,
0202
0303
2020
3030
,
0202
0303
2020
3030
,
0220
0330
2002
3003
,
0220
0330
2002
0000
,
3003
0000
0002
0000
,
0003
0000
2000
3000
,
0020
0030
0200
0000
,
0300
0000
0002
0003
,
2000
3000
0200
0000
,
0300
0000
0020
0030
,
0002
0003
0020
0000
,
0030
0000
2000
3000
,
0020
0030
0200
0300
,
0002
0003
2000
3000
,
0020
0030
0200
0300
,
0002
0003
2000
3000
,
0020
0030
0200
0300
,
0002
0003
2000
3000
,
0020
0030
0200
0300
,
0002
0003
2002
0000
,
0000
0000
0000
0000
,
3003
0000
0001
0000
,
1000
0000
0010
0100
,
0001
0000
1000
0000
,
0010
0000
0001
1000
,
0010
0100
0002
0000
,
0003
0000
1000
0000
,
0010
0000
1000
0001
,
0100
0000
0000
0000
0010
0001
0010
0000
,
1000
0000
0100
0000
,
1000
0000
0000
0000
0010
0100
0010
0000
,
1000
0000
0100
0000
,
1000
0000
0000
0000
0010
1000
0001
0000
,
1000
0000
0001
0000
,
0100
0000
0000
0000
0100
0010
0001
0000
,
1000
0000
0000
0000
0100
1000
0010
0000
,
1000
0001
0010
0000
1010
0000
0000
0000
,
0101
0000
0000
0000
0010
0001
0010
0000
,
0100
1000
0100
0000
0010
0000
0000
0000
,
0100
0000
0000
0000
0001
1000
0010
0000
,
0100
0001
1000
0000
0010
0000
0000
0000
,
0100
0000
0000
0000
1000
0001
1000
0000
,
0001
0100
0001
0000
0010
0001
0010
0000
,
0100
1000
0100
0000
0010
0000
0000
0000
,
0100
0000
1000
0000
,
0010
0000
1000
0100
,
0010
0000
0001
0000
,
1000
0000
0010
0100
,
1000
0000
0001
0000
,
0100
0000
0000
0000
1000
0001
0100
0000
,
0010
1000
0001
0000
0010
0000
0000
0000
,
1000
0000
0000
0000
0100
1000
0100
0000
,
0010
0100
1000
0000
0010
1000
0010
0000
,
0100
0001
0000
0000
0010
0000
0000
0000
,
1000
0000
0001
0000
,
0010
0001
1000
0000
0100
0000
0000
0000
,
1000
0000
0000
0000
1000
0010
1000
0000
,
0100
0000
0001
0000
,
0100
0000
0000
0000
0010
1000
0010
0000
,
0100
0000
0001
0000
,
1000
0000
0000
0000
0010
0100
0010
0000
,
1000
0001
0200
0000
,
0300
0000
0000
0000
;

//--------------- dance-single - XLev450X-DSP ----------------
#NOTES:
     dance-single:
     XLev450X:
     Medium:
     11:
     0,0,0,0,0:
0000
0000
0000
0000
,
0000
0000
0000
0000
,
0000
0000
0000
0000
,
0000
0000
0000
0000
,
0000
0000
0000
0000
,
0000
0000
0000
0000
,
0000
0000
0000
0000
,
0000
0000
0000
0000
,
0000
0000
0000
0000
0001
1000
0000
0000
,
0010
0000
0000
0000
0100
0001
0000
0000
,
1000
0000
0010
0000
0100
0001
0000
0000
,
1000
0000
0000
0000
0010
0100
0001
0000
,
1000
0000
0010
0000
0100
0001
1000
0000
,
0010
0000
0100
0000
1000
0100
1000
0000
,
0010
0000
0001
0000
0100
0010
1000
0001
,
0000
0100
0010
1000
,
0001
0100
0010
0100
2002
0000
0000
0000
,
0000
0000
0000
0000
,
0000
0000
3003
0000
,
0000
0000
0000
0000
0000
0000
0001
1000
,
0010
0100
0001
1000
0010
0000
1000
0000
,
0100
0000
0001
1000
,
0010
0100
0001
1000
0010
0000
0100
0000
,
0001
1000
0010
0100
,
0010
0001
0010
0000
1000
0000
0010
0000
,
0100
1000
0100
0010
,
1000
0010
0100
0010
1000
0000
0001
0000
,
0100
0000
0010
0000
0001
1000
0010
0100
,
0001
0000
0000
0000
0010
1000
0001
0100
,
0010
0001
1000
0001
,
0100
0000
0010
0000
1000
0010
0100
0001
,
1000
0010
0100
0001
,
2002
0000
0000
3003
0010
0001
0010
1000
,
0010
0100
0001
1000
,
0100
0000
0010
0000
1000
0010
0100
0001
,
1000
0000
0010
0000
0100
0000
0001
1000
,
0010
0000
0000
0000
0001
0000
0000
1000
,
0000
0000
0010
0000
0000
0100
0000
0000
,
0000
0000
0000
0000
0001
1000
0000
0000
,
0010
0000
0000
0100
0000
0000
0001
0000
,
0000
0000
0000
0000
0001
0000
0000
1000
,
0000
0000
0010
0000
0000
0100
0000
0000
,
0000
0000
0000
0000
0001
1000
0000
0000
,
0010
0000
0000
0100
0000
0000
0001
0000
,
1000
0010
0100
0001
1000
0000
0000
0100
,
0010
0100
0001
1000
,
0010
0000
0000
0000
0100
0001
1000
0000
,
0010
0100
0001
1000
,
0100
0000
0010
0001
,
1000
0010
0100
0001
,
1000
0000
0010
0100
,
0001
0000
1000
0000
0010
0100
0001
1000
,
0010
0100
2002
0000
,
0000
0000
0000
3003
,
0000
0000
1000
0010
,
0100
0000
0001
0000
1000
0010
0100
0000
,
0001
0000
1000
0000
0010
0001
0010
0000
,
0100
1000
0100
0000
0010
0100
0001
1000
,
0010
0100
0001
1000
0000
0000
0010
0000
,
0000
0100
0000
0000
0001
1000
0100
0010
,
0001
0000
0000
0000
0001
1000
0010
0100
,
0001
1000
0010
0001
,
2000
3000
0010
0001
,
0100
0000
0010
0000
1000
0001
0100
0010
,
1000
0000
0001
0000
1000
0100
1000
0000
,
0010
0001
0010
0000
0100
0010
1000
0001
,
0100
0010
1000
0001
,
0100
0010
1000
0001
,
0100
0000
0010
0100
1000
0001
0100
0010
,
1000
0001
0100
0000
0010
0001
0100
0000
,
0010
0001
0010
0001
1000
0000
0000
0001
,
0000
0000
0100
0000
0000
0010
0000
0000
,
1000
0001
0100
0010
1000
0000
0000
0100
,
0000
0000
0010
0000
0000
0001
0000
0000
,
1000
0010
0100
0001
1000
0000
0010
0000
,
0100
0000
0001
0000
1000
0010
0100
0000
,
0001
0000
1000
0000
0010
0100
0001
1000
,
0010
0100
0001
1000
0010
0100
0001
1000
,
0010
0100
0001
1000
0010
0000
0000
0000
,
0100
0000
0001
1000
,
0010
0100
0001
1000
,
0010
0000
0100
0000
0001
1000
0010
0100
,
0001
0000
1000
0000
0010
0001
0010
0100
,
0000
1000
0010
0100
,
0001
0000
1000
0000
0010
0100
0001
1000
,
0010
0000
0100
0000
1000
0100
1000
0000
,
0010
0000
0100
0001
,
1000
0000
0010
0100
,
0001
1000
0010
0100
0001
0000
1000
0000
,
0010
0100
0002
0003
,
2000
3000
0010
0100
,
0001
1000
0010
0000
0100
0000
1000
0000
,
0100
0000
0010
0000
0001
0010
0000
0010
,
1000
0000
0001
1000
0000
0001
0010
1000
,
0010
0000
0000
0001
0000
0100
0000
0000
2002
0000
0000
0000
0000
0000
0000
0000
,
3003
0000
0000
0000
;

//--------------- dance-single - XLev450X-ESP ----------------
#NOTES:
     dance-single:
     XLev450X:
     Hard:
     16:
     0,0,0,0,0:
0000
0000
0000
0000
,
0000
0000
0000
0000
,
0000
0000
0000
0000
,
0000
0000
0000
0000
,
0000
0000
0000
0000
,
0000
0000
0000
0000
,
0000
0000
0000
0000
,
0000
0000
0000
0000
,
0000
0000
0000
0000
1000
0001
0000
0100
,
0000
0000
0010
1000
0000
0100
0000
0000
,
0001
0000
0000
0000
1000
0001
0010
0000
0100
0000
1000
0000
0000
0000
0001
0000
,
0000
0000
1000
0010
0000
0100
0000
0000
,
2002
0000
3003
0000
0001
1000
0000
0010
,
0000
0000
0100
0001
0000
1000
0000
0000
,
0010
0000
0100
0000
0001
0000
1000
0001
0010
0000
0100
0000
0000
0000
0001
0000
,
0000
0000
1000
0100
0000
0001
0000
0000
,
0100
0001
1000
0010
0100
0001
0000
1000
,
0010
0000
0100
0001
0000
1000
0010
0001
,
0100
0001
0000
1000
0010
0000
0100
0001
,
0100
0000
1000
0000
0010
0000
0000
0000
1000
0000
0001
0000
0010
0000
0100
1000
,
0100
0010
0001
1000
0100
0010
0100
0010
0001
0000
0010
0000
1000
0000
0001
0000
,
0010
0000
0100
1000
0000
1000
0010
0100
,
0001
0000
1000
0000
0100
0001
0100
1000
,
0010
0001
0100
1000
0000
0010
0001
0000
,
0100
0000
0010
0000
1000
0100
0001
0000
0100
0000
0010
0000
0000
0000
1000
0000
,
0001
0000
0100
0010
0000
1000
0001
0000
,
0100
0010
0001
1000
0010
0100
0000
0001
,
1000
0000
0010
0100
0000
1000
0100
0000
,
0010
0000
0000
0000
0000
0000
0001
0000
0000
0000
0000
0000
0010
0000
0000
0000
0000
0000
1000
0000
0000
0100
0000
0000
0001
0000
0000
0000
1000
0000
0000
0000
0001
0000
0000
0000
0010
0000
0000
0000
0100
0000
0000
0000
1000
0000
0000
0000
,
0001
0100
0010
0100
0010
1000
0001
0100
0001
0010
0100
0010
,
0100
1000
0001
1000
0010
1000
0100
0010
0001
0010
0001
1000
,
0100
1000
0010
0100
0001
1000
0001
1000
0001
0200
0000
0000
,
0301
0000
0000
0000
0000
0000
0000
0000
0000
1000
0000
0000
0010
0000
0000
0000
0000
0000
1000
0000
0000
0000
0000
0000
0001
0000
0000
0000
0010
0000
0000
0000
0100
0000
0000
0000
0010
0000
0000
0000
0001
0000
0000
0000
0010
0000
0000
0000
,
0001
1000
0010
0100
0001
0010
0100
0010
0001
1000
0100
0010
,
0001
1000
0010
1000
0100
0010
0001
0100
0010
1000
0010
1000
,
0100
0010
0001
0100
0010
0100
0010
1000
0010
0100
0001
0010
,
0001
0100
1000
0001
0010
1000
0100
0010
0001
0000
0000
0000
0000
0000
1000
0000
,
0000
0000
0010
0000
0000
0100
0000
0000
,
0000
0000
0000
0000
0100
0001
1000
0100
0010
0000
0001
0000
0000
0000
0000
0000
,
0100
0000
0000
1000
0000
0000
0010
0000
,
0000
0000
0000
0000
0100
0000
0000
0001
,
0000
0000
1000
0000
0000
0010
0000
0000
,
0000
0000
0000
0000
0000
0000
0000
0000
0100
1000
0010
0000
0001
0000
1000
0000
,
0001
0100
0000
0100
0001
1000
0010
0000
,
0000
0200
0000
0000
0301
0000
1000
0000
,
0010
0000
0100
0000
0001
1000
0010
0000
,
0100
0000
0000
0000
0001
1000
0001
1000
0010
0000
0001
0000
0010
0000
0000
0000
,
0100
1000
0100
0000
0010
0001
0010
0000
,
1000
0000
0010
0000
0100
0001
1000
0010
,
0100
0001
1000
0010
0100
0001
1000
0010
,
0100
0000
1000
0000
0001
0000
0010
0000
0010
0100
0010
0100
0001
0100
0010
1000
,
0100
0010
0100
0010
0100
1000
0001
1000
0010
1000
0100
0010
0001
0100
0010
1000
,
0100
1000
0001
0010
0200
0000
0300
0000
2002
0000
0000
0000
0000
0000
0000
0000
,
0000
0000
0000
0000
,
3003
0000
0000
0000
0000
0000
0000
0000
1001
0000
0000
0000
0010
1000
0100
0000
,
0001
0000
0100
0000
1000
0000
0100
0000
0010
0000
0100
0001
1000
0000
0001
0000
,
0100
0000
1000
0100
0001
0000
0000
0000
1001
0000
0000
0000
1000
0100
1000
0100
,
0001
0000
0000
0000
0001
0100
0001
0100
0010
0000
1000
0000
0010
0000
0100
0000
,
0001
0000
1000
0010
0000
0000
0100
0000
,
0000
0000
0001
0000
0000
0000
1000
0000
0010
0000
0000
0100
0000
0000
0001
0000
,
1000
0000
0000
0000
0001
1000
0010
0100
0011
0000
0000
0000
0000
0000
1100
0000
,
0000
0000
0110
0000
0000
1001
0000
0000
,
0100
0010
0001
0100
0001
0100
0010
1000
0001
0000
0000
0000
0010
1000
0001
0100
,
0010
1000
0010
1000
0100
1000
0100
0010
0100
1000
0001
0010
,
0100
0000
0000
0000
1000
0000
0000
0000
0010
0000
0000
0000
0100
0000
0000
0000
0000
0000
0000
0000
0000
0000
0000
0000
0010
0000
0000
0000
0000
0000
0000
0000
0000
0000
0000
0000
1000
0000
0000
0010
0000
0000
0001
0000
0000
0000
0000
0000
,
0100
0010
0001
0010
0001
1000
0010
0100
0010
0100
0001
0100
,
0010
0000
0000
0000
1000
0000
0000
0000
0100
0000
0000
0000
1000
0000
0000
0000
0100
0000
0000
0000
0000
0000
0000
0000
0010
0000
0000
0000
0000
0000
0000
0000
0000
0100
0000
0000
1000
0000
0000
0100
0000
0000
1000
0000
0000
0000
0000
0000
,
0010
0000
0000
0001
0010
0001
0010
0000
0100
1000
0100
1000
0001
0100
0001
1000
,
0100
0010
0001
1000
0000
0000
0010
0000
,
0000
0100
0000
0000
0001
0000
0000
0100
,
0001
1000
0010
0100
0001
0000
0000
1000
,
0000
0000
0010
0000
0000
0100
0000
0000
,
0010
0001
1000
0010
0100
0001
0000
1000
,
0000
0000
0010
0000
0000
0100
0000
0000
,
0001
1000
0010
0000
0001
0010
1000
0000
,
0001
0100
0010
0000
1000
0001
0100
0000
,
0010
1000
0001
0000
0100
0010
0001
1000
,
0001
0100
0010
1000
0001
0100
0010
1000
,
0001
0010
1000
0010
2200
0000
3300
0000
,
0010
1000
0001
0100
0010
0000
1000
0001
,
0000
0100
0000
0010
1000
0001
0100
0010
,
1000
0001
0100
0010
0001
0010
1000
0100
,
0010
0001
1000
0000
0110
0000
0000
1001
,
0000
0000
0110
0000
0000
0001
0000
0000
,
1000
0000
0001
0000
0010
0100
0001
1000
,
0010
0100
0001
1000
0010
0100
0001
1000
,
0020
0030
1001
0000
,
0010
0000
1000
0000
0100
0000
0010
0000
0001
0000
0100
0000
0001
0000
0000
1100
0000
0000
0000
0000
0000
0000
0000
0000
,
0011
0000
0000
0000
0000
0000
0000
0000
0100
0010
0100
0010
0001
0100
0010
0100
,
0001
0000
0000
1000
0000
0000
0010
0000
0000
0000
0000
0000
0000
0000
0100
0010
,
0100
0000
0001
1000
0001
0000
0010
0000
0000
0000
0001
0000
1000
0000
0000
0000
,
0010
0000
0000
0100
0000
0000
0000
0000
0100
0000
0000
0000
0001
0000
0000
0000
,
1000
0001
0100
0000
0010
0001
0000
1000
,
0010
0000
0100
0001
0000
1000
0010
0000
,
0001
0000
0000
1000
0000
0000
0010
0000
1000
0000
0220
0000
0000
0000
0000
0000
,
0330
0000
0000
0000
;
