#TITLE:Infinite;
#ARTIST:PARALLEL FLOATERS;
#BANNER:Infinite.png;
#BACKGROUND:Infinite-bg.png;
#CDTITLE:./CDTitles/GITADORA.png;
#MUSIC:Infinite.ogg;
#SAMPLESTART:28.227;
#SAMPLELENGTH:15;
#BPMS:0=170;
#BGSTAGE:16;

//--------------- dance-single - XLev450X-bSP ----------------
#NOTES:
     dance-single:
     XLev450X:
     Beginner:
     2:
     0,0,0,0,0:
0000
0000
0000
0000
,
0000
0000
0000
0000
,
0000
0000
0000
0000
,
0000
0000
0000
0000
,
0001
0000
0001
0000
,
0001
0000
0000
0000
,
1000
0000
1000
0000
,
1000
0000
0000
0000
,
0010
0000
0010
0000
,
0010
0000
0000
0000
,
0100
0000
0100
0000
,
0100
0000
0000
0000
,
0001
0000
1000
0000
,
0000
0000
0000
0000
,
0010
0000
0100
0000
,
0000
0000
0000
0000
,
1000
0000
0100
0000
,
0000
0000
0000
0000
,
0001
0000
0010
0000
,
0000
0000
0000
0000
,
0010
0000
0010
0000
,
0010
0000
0000
0000
,
0100
0000
0100
0000
,
0100
0000
0000
0000
,
1000
0000
1000
0000
,
1000
0000
0000
0000
,
0001
0000
0001
0000
,
0001
0000
0000
0000
,
0001
0000
0000
0000
,
1001
0000
0000
0000
,
0010
0000
0000
0000
,
0110
0000
0000
0000
,
1000
0000
0000
0000
,
0001
0000
0000
0000
,
0100
0000
0000
0000
,
0010
0000
0000
0000
,
1000
0000
0000
0000
,
0001
0000
0000
0000
,
0100
0000
0000
0000
,
0100
0000
0000
0000
,
0010
0000
0000
0000
,
0010
0000
0000
0000
,
0001
0000
0000
0000
,
0001
0000
0000
0000
,
1000
0000
0000
0000
,
1000
0000
0000
0000
,
0100
0000
0000
0000
,
0010
0000
0000
0000
,
0001
0000
0000
0000
,
1000
0000
0000
0000
,
0100
0000
0000
0000
,
0000
0000
0000
0000
,
0110
0000
0000
0000
,
0000
0000
0000
0000
,
0001
0000
0000
0000
,
0010
0000
0000
0000
,
0100
0000
0000
0000
,
1000
0000
0000
0000
,
0010
0000
0000
0000
,
0000
0000
0000
0000
,
1001
0000
0000
0000
,
0000
0000
0000
0000
,
0110
0000
0000
0000
,
0000
0000
0000
0000
,
0000
0000
0000
0000
,
0000
0000
0000
0000
,
0000
0000
0000
0000
,
0000
0000
0000
0000
,
0010
0000
0000
0000
,
1000
0000
0000
0000
,
0001
0000
0001
0000
,
0100
0000
0000
0000
,
1000
0000
1000
0000
,
0010
0000
0000
0000
,
0100
0000
0010
0000
,
0100
0000
0000
0000
,
0010
0000
0001
0000
,
0010
0000
0000
0000
,
1001
0000
0000
0000
;

//--------------- dance-single - XLev450X-BSP ----------------
#NOTES:
     dance-single:
     XLev450X:
     Easy:
     5:
     0,0,0,0,0:
0000
0000
0000
0000
,
0000
0000
0000
0000
,
0000
0000
0000
0000
,
0000
0000
0000
0000
,
0010
0001
0010
0000
,
1000
0100
1000
0000
,
0010
0100
0010
0000
,
0000
0000
0000
0000
,
0001
0010
0001
0000
,
0010
0100
0010
0000
,
1000
0100
1000
0000
,
0000
0000
0000
0000
,
0001
1000
0001
0000
,
0010
0000
1000
0000
,
0100
1000
0100
0000
,
0010
0000
0100
0000
,
0001
1000
0001
0000
,
1000
0000
0100
0000
,
0010
0100
0010
0000
,
0010
0000
0001
0000
,
1001
0000
0110
0000
,
0010
0010
0010
0000
,
1000
0000
0001
0000
,
0100
1000
0100
0000
,
0101
0000
1010
0000
,
0100
0100
0100
0000
,
0001
0000
1000
0000
,
0001
0000
0000
0000
,
0010
0000
1000
0000
,
0100
0000
0010
0100
,
0010
0000
1000
0000
,
0001
0000
0000
0000
,
1000
0000
0010
0000
,
0100
0000
1000
0010
,
1000
0000
0001
0000
,
0100
0000
0000
0000
,
0001
1000
0001
0000
,
0220
0000
0000
0330
,
0001
1000
0001
0000
,
0010
0000
1000
0100
,
1000
0001
0100
0000
,
0010
1000
0010
0000
,
0001
1000
0001
0010
,
0100
0000
1000
0000
,
0010
1000
0010
0000
,
0010
0100
0001
1000
,
0001
0000
1000
0001
,
1000
0010
1000
0010
,
0001
0000
0100
1000
,
0001
0000
1000
0000
0001
0000
0000
1000
,
0000
0000
1000
0000
0010
0000
0000
0100
,
0000
0001
1000
0001
,
0001
0000
0000
1000
0000
0000
0010
0000
,
0000
0100
0000
0000
0001
0000
0000
0000
,
1000
0001
0010
0000
,
1000
0100
0001
0000
,
0010
1000
0000
0010
0000
0001
0000
0100
,
0020
0000
0000
0000
0030
0000
0000
0001
,
0000
0000
1000
0000
0100
0000
0000
0010
,
0000
0001
1000
0000
,
0001
0000
0000
1000
0000
0000
0010
0000
,
0000
0100
0000
0000
0001
0000
1000
0000
,
0020
0000
0000
0000
,
0000
0000
0000
0030
,
0001
1000
0001
0000
,
0010
0100
0010
0000
,
1000
0001
0010
1000
,
0001
0000
0100
0000
,
0001
1000
0001
0100
,
0202
0000
0000
0303
,
0001
1000
0010
0000
,
1000
0100
0001
0000
,
0010
1000
0010
0000
,
0100
0010
0001
0000
,
1000
0001
1000
0000
,
0010
1000
0010
0000
,
0001
1000
0001
0000
,
0010
0100
0010
0100
,
2000
0000
0000
0000
,
0000
0000
0000
0000
,
0000
0000
0000
3000
0000
0000
0000
0000
;

//--------------- dance-single - XLev450X-DSP ----------------
#NOTES:
     dance-single:
     XLev450X:
     Medium:
     8:
     0,0,0,0,0:
0000
0000
0000
0000
,
0000
0000
0000
0000
,
0000
0000
0000
0000
,
0000
0000
0000
0000
,
0001
0000
1000
0000
0001
0000
0000
0100
,
0000
0000
1000
0000
0010
0000
0001
0010
,
0001
0000
1000
0000
0100
0000
0000
0001
,
0000
1000
0000
0001
0010
0000
0010
0000
,
1000
0000
0001
0000
1000
0000
0000
0010
,
0000
0100
1000
0001
,
0010
0000
1000
0000
0001
0000
0000
0100
,
0000
0000
1000
0000
0001
0000
0010
0001
,
0010
1000
0100
0001
,
1000
0010
1000
0000
,
0100
1000
0001
0100
,
0001
1000
0101
0000
,
0010
1000
0010
0000
,
0100
1000
0001
0000
,
0100
1000
0001
0010
,
0200
0000
0000
0000
0301
0000
0000
0000
,
0001
0000
0000
0000
1000
0000
0000
0010
0000
0000
0001
0000
0000
0000
1000
0000
,
0000
0010
0000
1000
0000
0010
0000
1000
,
0010
0001
0010
0000
1000
0000
0001
0100
,
1000
0000
0010
0100
0000
0001
0010
0001
,
1000
0000
0000
0000
0001
0000
0000
0100
0000
0000
1000
0000
0000
0000
0001
0000
,
0000
0100
0000
1000
0000
0001
0010
0001
,
1000
0000
0100
0000
1000
0010
0000
1000
,
0000
0001
0000
0000
0100
0000
1000
0010
,
1000
0000
0001
0000
0010
0001
0010
0000
,
1000
0000
0010
0000
1000
0001
1000
0000
,
0010
1000
0100
0001
,
1000
0001
0101
0000
,
0010
0000
1000
0000
0010
0000
0001
0010
,
0001
1000
0100
0000
,
1000
0000
0010
0000
1000
0000
0010
1000
,
0010
0000
0010
0100
0010
0000
0001
0000
,
1000
0001
1000
0010
,
2000
0000
0000
0000
0000
0000
0002
3003
,
0001
0000
1000
0010
0000
1000
0000
0001
,
0000
0100
0000
0001
0010
0001
1000
0000
,
0100
0000
1000
0000
0010
1000
0000
0001
,
0000
0100
0000
1000
0000
0000
0000
0000
,
0010
0000
0001
0010
0001
0000
1000
0000
,
0010
0100
1000
0000
,
0001
0010
1000
0001
,
1000
0000
0001
0010
0001
0000
0100
0000
,
1000
0000
0010
1000
,
0001
0000
0100
1000
,
0010
0000
1000
0010
1000
0000
0001
0000
,
0100
1000
0001
0000
,
1000
0001
0101
0000
,
1000
0010
1010
0000
,
0200
0000
0000
0010
0000
0000
0010
0000
,
0000
0010
0000
0000
0310
0000
0000
0000
,
0001
1000
0001
0000
,
0010
1000
0010
0100
,
1000
0001
0000
1000
0000
0010
0000
0100
,
0010
1000
0000
0010
0001
0010
0000
0000
,
1000
0000
0100
0000
0001
0000
1000
0010
,
0000
0000
0100
0000
1000
0000
0010
0100
,
0020
0000
0000
0100
0000
0000
0100
0000
,
0000
0100
0000
0000
0130
0000
0000
0000
,
0001
1000
0001
0000
,
0010
1000
0010
0000
,
0100
1000
0001
0100
,
1000
0001
0010
0000
,
1000
0010
1000
0000
,
0100
0000
1000
0000
0100
0000
0001
0010
,
0001
1000
0001
0100
,
0020
0000
0000
0000
0000
0000
0000
0000
0000
0000
0000
0000
0200
0000
0330
0000
,
1000
0000
0001
0000
1000
0000
0000
0100
,
0000
0000
0001
0000
1000
0000
0001
0010
,
0001
0000
1000
0000
0100
0000
0000
0010
,
0000
0000
1000
0000
0010
0000
0010
1000
,
0001
0000
0100
0000
1000
0000
0000
0001
,
0000
0000
0100
0000
1000
0000
0001
1000
,
0001
0000
0010
0000
1000
0000
0000
0100
,
0000
0010
1000
0001
,
2002
0000
0000
0000
,
0000
0000
0000
0000
,
0000
0000
0000
3003
0000
0000
0000
0000
;

//--------------- dance-single - XLev450X-ESP ----------------
#NOTES:
     dance-single:
     XLev450X:
     Hard:
     13:
     0,0,0,0,0:
0000
0000
0000
0000
,
0000
0000
0000
0000
,
0000
0000
0000
0000
,
0000
0000
0000
0000
,
0010
0000
1000
0000
0001
0000
0010
0000
0100
0000
0000
1000
0000
0000
0100
0000
,
0000
0000
0001
0000
0000
0000
0010
0000
1000
0000
0100
0000
1000
0000
0001
0010
,
0001
0000
0100
0000
1000
0000
0010
0000
1000
0000
0000
0100
0000
0000
0001
0000
,
0000
0000
1000
0000
0010
0000
0000
0000
0010
0000
1000
0000
0010
0000
1000
0100
,
1000
0000
0010
0000
0100
0000
0001
0000
0010
0000
0000
1000
0000
0000
0001
0000
,
0000
0000
0100
0000
0000
0000
1000
0000
0000
0000
1000
0001
1000
0000
0001
0010
,
0001
0000
1000
0000
0010
0000
0100
0000
0001
0000
0000
0010
0000
0000
0100
0000
,
0000
0000
1000
0000
0010
0000
1000
0000
0001
0010
1000
0100
0010
0100
0001
0010
,
1000
0001
1000
0010
1000
0000
0001
0000
,
0010
0001
0010
1000
1000
0100
0001
0000
,
1000
0000
0001
0000
1000
0000
0010
0000
0100
0000
0000
0001
0000
0000
1000
0000
,
0000
0000
0001
0000
1000
0000
0000
0000
0010
0000
0001
0000
0010
0000
1000
0010
,
1000
0001
1000
0010
1000
0001
0000
0100
,
0000
1000
0000
0001
0010
0001
1000
0000
,
0010
0000
1000
0000
0001
0000
0000
0100
0000
0000
1000
0000
0000
0000
0001
0000
,
0000
0000
0010
0000
0001
0000
1000
0000
0010
0000
0000
0000
0001
0000
1000
0001
,
1000
0000
0000
0000
1000
0000
0000
0001
0000
0000
0100
0000
0000
0000
0001
0000
,
0000
1000
0000
0100
0000
0001
0010
0001
,
0010
0000
1000
0100
0000
0101
0000
1010
,
0000
0010
0000
1000
0000
0001
0010
1000
,
0001
0000
0000
0000
0100
0000
0000
1000
0000
0000
0001
0000
0000
0000
1000
0000
,
0000
0010
0000
0100
0000
0001
0010
0100
,
1000
0000
0001
0100
0000
0010
0000
1000
,
0000
0001
0000
0000
0100
0000
0010
1000
,
0010
0000
0001
0000
0010
0001
0010
1000
,
0000
0000
0100
0000
0001
1000
0001
0200
,
0000
0001
0001
0301
,
0020
1000
1000
1030
,
0010
0000
0100
0001
1000
0001
0000
1010
,
0000
0000
1000
0010
1000
0001
0000
0102
,
0000
0100
0100
0103
,
0020
1000
1000
1030
,
0002
0100
0100
0103
,
0020
0000
0000
0000
0000
0000
0200
0330
,
0001
0000
1000
0010
1000
0001
0000
0100
,
0000
0000
1000
0001
1000
0010
1000
0000
,
0010
0000
1000
0010
1000
0010
0000
0001
,
0000
0100
1000
0001
1000
0001
1000
0000
,
0001
0000
1000
0010
1000
0001
0000
0100
,
0000
1000
0001
1000
0010
1000
0010
0000
,
0001
0000
0010
1000
0010
1000
0000
0001
,
0000
0101
0000
1010
0000
0010
0000
0100
,
1000
0001
1000
0000
0010
1000
0010
0000
,
0001
0000
0010
0000
0001
0000
0000
0000
0100
0000
1000
0000
0100
0000
0010
1000
,
0001
1000
0010
0000
0001
1000
0010
0000
,
0010
1000
0010
0100
0010
1000
0001
0101
,
0000
0000
1000
0010
1000
0010
0010
0110
,
0000
0000
1000
0010
1000
0001
1000
0001
,
0100
0000
0000
0101
0000
0000
1010
0000
,
0000
0110
0000
0000
1001
0000
1010
0000
,
0010
0000
0010
1000
0001
1000
0010
0000
,
0001
0000
0100
1000
0100
1000
0001
0000
,
0001
0010
0000
1001
0000
1100
0000
0100
,
0001
1000
0010
0000
0100
0000
1000
0100
0001
0000
0010
0000
0100
0001
1000
0000
,
0001
1000
0010
0000
1000
0010
0100
0101
,
0000
0000
0010
1000
0001
1000
0010
0000
,
0101
0000
0000
1010
0000
0000
0110
0000
,
0000
1010
0000
0000
0001
0000
1001
0000
,
0010
0000
1000
0001
0000
1000
0000
0100
,
0000
0010
0001
0100
1000
1000
0100
0000
,
0001
1000
0010
0001
0000
0100
0000
1000
,
0000
0010
0000
1000
0000
0001
0000
0010
,
0001
0000
1000
0000
0100
0010
0000
1000
,
0000
0100
0000
0001
0000
1000
0010
1000
,
0001
0000
0110
0000
0000
0101
0000
0000
,
2200
0000
0000
0000
0000
0000
3300
0000
,
0010
0000
1000
0000
0001
0000
0010
0000
0100
0000
0000
1000
0000
0000
0100
0000
,
0000
0000
0001
0000
0000
0000
0010
0000
1000
0000
0100
0000
1000
0000
0001
0010
,
0001
0000
0100
0000
1000
0000
0010
0000
1000
0000
0000
0100
0000
0000
0001
0000
,
0000
0000
1000
0000
0010
0000
0000
0000
0010
0000
1000
0000
0010
0000
1000
0100
,
1000
0000
0010
0000
0100
0000
0001
0000
0010
0000
0000
1000
0000
0000
0001
0000
,
0000
0000
0100
0000
0000
0000
1000
0000
0000
0000
1000
0001
1000
0000
0001
0010
,
0001
0000
1000
0000
0010
0000
0100
0000
0001
0000
0000
0010
0000
0000
0100
0000
,
0000
0000
1000
0000
0010
0000
1000
0000
0001
0010
1000
0100
0010
0100
0001
0010
,
2000
0000
0000
0000
,
0000
0000
0000
0000
,
0000
0000
0000
0000
0000
0000
0000
0000
0000
0000
0000
0000
0000
0000
0000
0000
0000
0000
0000
0000
0000
0000
0000
0000
0000
0000
0000
0000
0000
0000
0000
0000
0000
0000
0000
0000
0000
0000
0000
0000
0000
0000
0000
0000
0000
0000
0000
0000
0000
0000
0000
0000
0000
0000
0000
0000
0000
0000
0000
0000
0000
0000
0000
0000
0000
0000
0000
0000
0000
0000
0000
0000
3000
0000
0000
0000
0000
0000
0000
0000
0000
0000
0000
0000
0000
0000
0000
0000
0000
0000
0000
0000
0000
0000
0000
0000
0000
0000
0000
0000
0000
0000
0000
0000
0000
0000
0000
0000
0000
0000
0000
0000
0000
0000
0000
0000
0000
0000
0000
0000
0000
0000
0000
0000
0000
0000
0000
0000
0000
0000
0000
0000
0000
0000
0000
0000
0000
0000
0000
0000
0000
0000
0000
0000
0000
0000
0000
0000
0000
0000
0000
0000
0000
0000
0000
0000
0000
0000
0000
0000
0000
0000
0000
0000
0000
0000
0000
0000
0000
0000
0000
0000
0000
0000
0000
0000
0000
0000
0000
0000
0000
0000
0000
0000
0000
0000
0000
0000
0000
0000
0000
0000
;
