#TITLE:ILAYZA;
#ARTIST:BEMANI Sound Team "TAG";
#ARTISTTRANSLIT:TAG;
#GENRE:EMOTIONAL SENTENCE -INSTRUMENTAL-;
#MUSIC:ILAYZA.ogg;
#BANNER:ILAYZA.png;
#BACKGROUND:ILAYZA-bg.png;
#CDTITLE:./CDTitles/bm IIDX 29 CastHour.png;
#SAMPLESTART:73.500;
#SAMPLELENGTH:15;
#SELECTABLE:YES;
#OFFSET:0;
#BPMS:0.000=160;
#BGCHANGES:3.833=ILAYZA.mp4=1.000=0=0=0=StretchNoLoop====,
99999=-nosongbg-=1.000=0=0=0 // don't automatically add -songbackground-
;
#BGSTAGE:27;

//--------------- dance-single - XLev450X-bSP ----------------
#NOTES:
     dance-single:
     XLev450X:
     Beginner:
     3:
     0,0,0,0,0:
0000
0000
0000
0000
,
0000
0000
0000
0000
,
0000
0000
0000
0000
,
0000
0000
0000
0000
,
0000
0000
0000
0000
,
0001
0001
0001
0000
,
1000
1000
1000
0000
,
0010
1000
0001
0100
,
0020
0000
0000
0030
,
1000
0001
0100
0000
,
0010
0100
0010
0000
,
0010
0001
1000
0000
,
0100
0001
1000
0000
,
0010
0100
0001
0000
,
1000
0010
0100
0001
,
1000
0000
0010
0000
,
0200
0000
0000
0300
,
0001
0000
0001
0000
,
0001
0000
1000
0000
,
0010
0000
0100
0000
,
0001
0000
1000
0000
,
0010
0000
0100
0000
,
0001
0000
1000
0000
,
0001
0000
0100
0000
,
0010
0000
0100
0000
,
0001
0000
0000
0000
,
1000
0000
0000
0000
,
0010
0000
0100
0000
,
0001
0000
1000
0000
,
0010
0000
0000
0000
,
0001
0000
0100
0000
,
0001
0000
1000
0000
,
0010
0000
0100
0000
,
0001
0000
1000
0000
,
0001
0000
0000
0000
,
0010
0000
0100
0000
,
0010
0000
0000
0000
,
0001
0000
1000
0000
,
0001
0000
0000
0000
,
0010
0000
0100
0000
,
0010
0000
0000
0000
,
0001
0000
0001
0000
,
0001
0000
0000
0000
,
1000
0000
1000
0000
,
1000
0000
0000
0000
,
0010
0000
0100
0000
,
0010
0000
0000
0000
,
0001
0000
1000
0000
,
2002
0000
0000
3003
,
0100
0000
0001
0000
,
1000
0000
0010
0000
,
0100
0000
0001
0000
,
1000
0000
0010
0000
,
0100
0000
1000
0000
,
0001
0000
0000
0000
,
0100
0000
0010
0000
,
0001
0000
0000
0000
,
1000
0000
0000
0000
,
0001
0001
0001
0000
,
0010
0000
0100
0000
,
0001
0000
0000
0000
,
1000
0000
0010
0000
,
0100
0000
0000
0000
,
0001
0000
1000
0000
,
0010
0000
0000
0000
,
0100
0000
0001
0000
,
1000
0000
0010
0000
,
0100
0000
0001
0000
,
1000
0000
0010
0000
,
0100
0000
0000
0000
,
0001
0000
0000
0000
,
1000
0000
0001
0000
,
0100
0000
0010
0000
;

//--------------- dance-single - XLev450X-BSP ----------------
#NOTES:
     dance-single:
     XLev450X:
     Easy:
     6:
     0,0,0,0,0:
0000
0000
0000
0000
,
0000
0000
0000
0000
,
0000
0000
0000
0000
,
0000
0000
0000
0000
,
0000
0000
0000
0000
,
0001
1000
0010
0000
,
0100
0001
0010
0000
,
1000
0001
0100
0010
,
2002
0000
0000
3003
,
0001
1000
0010
0000
,
0100
0001
1000
0000
,
0010
0100
0010
0001
,
1000
0010
0100
0000
,
0001
1000
0010
0000
,
0100
0001
1000
0000
,
0010
0100
0001
1000
,
0020
0000
0000
0030
,
0010
0001
1000
0010
,
0100
0000
0001
0000
,
1000
0001
0100
0010
,
0001
0000
1000
0010
,
0100
0000
0001
1000
,
0001
0100
0010
0000
,
0001
0000
1000
0000
,
0010
0000
0100
0001
,
0010
0000
1000
0001
,
0100
0000
0010
1000
,
0001
0100
0010
0000
,
0001
1000
0010
0100
,
0001
0000
1000
0010
,
0100
0000
0001
1000
,
0010
0000
0100
0001
,
2002
0000
0000
3003
,
0020
0030
0002
0003
,
2000
3000
0020
0030
,
0200
0300
0002
0003
,
2000
3000
0020
0030
,
0200
0300
0002
0003
,
2000
3000
0020
0030
,
0200
0300
0002
0003
,
2000
3000
0020
0030
,
0001
1000
0010
0000
,
0100
0001
1000
0000
,
0010
0100
0001
1000
,
0010
0000
0100
0000
,
0001
1000
0010
0100
,
0001
2000
0000
3000
,
0010
0100
0001
1000
,
0020
0000
0000
0030
,
0001
1000
0001
0100
,
0010
1000
0001
0100
,
0010
0000
1000
0000
,
0001
0000
0100
0010
,
0001
0000
1000
0010
,
0100
0001
1000
0010
,
0100
0000
0001
0000
,
1000
0000
0010
0100
,
0001
0000
1000
0000
,
0001
0100
0010
0000
,
0001
1000
0010
0100
,
0002
0003
2000
3000
,
0010
0100
0001
1000
,
0010
0100
0001
1000
,
0010
1000
0100
0000
0001
1000
0010
0000
,
2002
0000
0000
3003
,
0001
1000
0020
0030
,
0100
0001
2000
3000
,
0010
0100
0001
1000
,
0010
0100
0001
1000
,
0002
0000
0000
0003
,
2000
0000
0000
3000
,
0010
0100
0001
1000
,
0010
0100
0001
0010
;

//--------------- dance-single - XLev450X-DSP ----------------
#NOTES:
     dance-single:
     XLev450X:
     Medium:
     9:
     0,0,0,0,0:
0000
0000
0000
0000
,
0000
0000
0000
0000
,
0000
0000
0000
0000
,
0000
0000
0000
0000
,
0000
0000
0000
0000
,
0001
1000
0010
0100
,
0001
1000
0010
0100
,
0010
0001
0010
0000
0100
1000
0100
0000
,
2002
0000
0000
3003
,
0010
1000
0100
0001
,
1000
0000
0010
0000
0100
0001
1000
0000
,
0010
0100
1000
0000
,
0010
0100
0001
0000
1000
0010
0100
0000
,
0001
0000
0010
0000
1000
0001
0100
0010
,
1000
0000
0001
0000
0010
0001
0010
0000
,
0100
1000
0100
0000
0010
0100
0001
0000
,
0010
0000
1000
0000
0001
0100
0010
1000
,
0001
0100
0010
1000
,
0002
0003
0200
0300
,
0010
1000
0001
0100
,
0010
0000
1000
0000
0001
0100
0010
1000
,
0001
0000
0010
0000
0001
0010
0001
0000
,
0100
0000
1000
0000
0010
0100
1000
0001
,
0010
0000
0100
0000
1000
0010
0100
0000
,
0001
0000
1000
0000
0010
0100
0001
0000
,
0020
0030
1000
0001
,
0100
0010
1000
0000
0001
0100
0010
0000
,
1000
0000
0001
0000
0010
0001
0100
1000
,
0010
0000
0100
0000
1000
0100
0010
0001
,
0010
0000
0100
0000
1000
0010
0100
0000
,
0001
0000
0010
0000
0010
0001
0100
0000
,
0010
1000
0010
0100
0001
1000
0010
0100
,
0002
0003
1000
0010
,
0200
0300
0010
1000
,
0002
0003
0010
0100
,
0002
0003
1000
0010
,
0200
0300
0001
0100
,
0020
0030
1000
0010
,
0200
0300
0001
1000
,
0020
0030
0100
0001
,
2000
3000
0010
0100
,
0001
1000
0020
0030
,
1000
0010
0200
0300
,
0001
1000
0010
0100
,
0002
0003
2000
3000
,
0010
0100
0002
0003
,
1000
0010
0200
0300
,
0010
0001
0010
0000
0100
1000
0100
0000
,
2002
0000
0000
3003
,
0010
0100
0010
0000
1000
0000
0001
0000
,
0100
0010
0001
0000
1000
0000
0010
0000
,
1000
0100
1000
0000
0010
1000
0001
0000
,
0100
0010
1000
0001
0100
0000
0010
0000
,
0001
1000
0010
0000
0100
0000
0001
0000
,
1000
0000
0010
0100
,
0010
0001
0010
0000
0100
1000
0100
0000
,
0010
0100
0001
1000
,
0020
0000
0030
0000
1000
0010
0100
0000
,
0002
0003
2000
3000
,
0010
0100
0001
0000
1000
0010
0100
0000
,
0001
1000
0010
0100
,
0001
0000
1000
0000
0010
0100
0001
0000
,
1000
0000
0010
0000
1000
0001
0100
0000
,
0010
0000
1000
0000
0010
0001
0100
1000
,
0020
0000
0000
0030
,
1000
0000
0001
0100
,
0010
0000
1000
0001
,
0100
0000
0010
0100
,
0001
0000
1000
0010
,
0100
0001
1000
0000
0010
0000
0100
0000
,
0001
1000
0010
0000
0100
0000
0001
0000
,
0010
1000
0001
0100
0010
1000
0001
0100
,
0020
0000
0000
0000
0000
0000
0000
0000
0000
0000
0000
0000
0030
0000
0000
0110
;

//--------------- dance-single - XLev450X-ESP ----------------
#NOTES:
     dance-single:
     XLev450X:
     Hard:
     14:
     0,0,0,0,0:
0000
0000
0000
0000
,
0000
0000
0000
0000
,
0000
0000
0000
0000
,
0000
0000
0000
0000
,
0000
0000
0000
0000
,
0001
1000
0010
0000
,
0100
0010
0001
0000
,
1000
0001
0100
0010
1000
0001
0100
0010
,
2002
0000
0000
3003
,
0010
0100
0001
0000
1000
0100
0010
0000
,
1000
0100
0001
1000
0010
0000
0101
0000
,
1000
0010
1000
0000
0100
0010
0001
0000
,
1000
0000
0010
0000
0100
0000
0000
0000
0001
0000
1000
0000
0010
0001
1000
0010
,
0100
0001
1000
0000
0100
1000
0001
0000
,
0100
0010
1000
0001
0100
0010
1000
0000
,
0001
0100
1000
0001
,
0010
1000
0001
0100
1000
0010
0100
0001
1000
0100
0010
0100
0001
1000
0010
0100
,
0010
0000
0000
0000
1000
0000
0010
0100
0010
0000
0001
0000
1000
0000
0010
0000
,
0001
0000
0000
1000
0000
0000
0100
0000
0000
0001
0000
0000
0010
0000
0100
0000
,
0001
0000
0000
0100
0000
0000
1000
0000
0000
0100
0000
0000
0001
0000
1000
0010
,
1000
0000
0000
0000
0100
0000
0000
0000
0001
0000
0100
0000
1000
0001
0100
1000
,
0010
0000
0000
0000
0100
0000
0001
1000
0001
0000
0010
0000
1000
0000
0100
0000
,
0001
0000
0000
1000
0000
0000
0010
0000
0000
0100
0000
0000
0001
0000
1000
0000
,
0010
0000
0000
0100
0000
0000
0001
0000
1000
0000
0000
0010
0000
0000
0100
0000
,
0001
0000
1000
0010
1000
0100
0001
1000
,
0010
0000
0000
0000
0100
0000
0001
1000
0001
0000
0010
0000
1000
0000
0100
0000
,
0001
0000
0000
1000
0000
0000
0010
0000
0000
0100
0000
0000
0001
0000
1000
0000
,
0010
0000
0000
0100
0000
0000
0001
0000
0000
1000
0000
0000
0010
0000
0100
0000
,
0001
0010
1000
0010
1000
0000
0010
0000
,
0100
0001
1000
0010
0100
0001
1000
0000
,
0010
0100
0001
1000
0010
0000
0100
0000
,
0010
0001
0100
1000
0010
0100
0001
0010
,
1000
0000
0000
0000
0010
0000
0000
0000
0100
0000
1000
0001
0000
0000
0010
0000
,
2000
0000
0000
3200
0000
0000
0000
0300
,
0001
0000
0000
1000
0000
0000
0100
0000
0001
0000
0000
0000
0000
0000
0100
0010
,
0100
0000
0000
0100
0000
0000
0001
0000
1000
0000
0000
0000
0000
0000
0100
0000
,
0001
0000
0000
1000
0000
0000
0010
0000
0100
0000
0000
0000
0001
0000
0100
0000
,
1000
0000
0001
0000
0000
0000
0010
0000
0100
0000
0000
0001
0000
0000
1000
0000
,
0010
0000
0000
0100
0000
0000
1000
0000
0100
0000
0000
0001
0000
0000
0100
0000
,
0010
0000
0000
0100
0000
0000
1000
0000
0001
0000
0100
0000
0001
1000
0001
1000
,
0010
0000
0001
0000
0100
0000
1000
0000
0000
0001
0000
0000
0100
0000
0000
0010
0000
0000
1000
0000
0000
0001
0000
0000
0010
0000
0000
0100
0000
0000
1000
0000
0000
0010
0000
0000
1000
0000
0000
0001
0000
0000
0010
0000
0000
0100
0000
0000
,
0001
0000
0000
1000
0000
0000
0010
0000
0100
0000
0000
0010
0000
0000
1000
0000
,
0010
0000
0000
0100
0000
0000
0001
0000
1000
0000
0000
0010
0000
0000
0100
0000
,
0001
0000
0000
0010
0000
0000
1000
0000
0010
0000
0000
0100
0000
0000
0001
0000
,
1000
0000
0000
0100
0000
0000
0010
0000
0100
0000
0001
0000
0100
0000
1000
0001
,
0010
0000
1000
0000
0010
0000
0100
0000
0001
0000
0010
0000
1000
0010
1000
0000
,
0000
0100
0010
0000
0010
0000
0100
0000
,
0001
1000
0010
0100
0001
1000
0010
0100
,
0001
1000
0010
0100
0001
1000
0100
0010
0100
0001
1000
0100
0010
0100
0001
1000
,
0010
0000
0000
0000
1000
0000
0010
0100
0010
0000
0001
0000
1000
0000
0010
0000
,
0001
0000
0000
1000
0000
0000
0100
0000
0000
0001
0000
0000
0010
0000
0100
0000
,
0001
0000
0000
1000
0000
0000
0001
0000
0100
0000
0010
0000
0001
0000
1000
0010
,
1000
0100
0001
1000
,
0010
0000
0000
0000
0100
0000
0001
1000
0001
0000
0010
0000
1000
0000
0100
0000
,
0001
0000
0000
1000
0000
0000
0010
0000
0000
0100
0000
0000
0001
0000
1000
0000
,
0010
0000
0000
0100
0000
0000
0001
0000
1000
0000
0000
0010
0000
0000
0100
0000
,
0001
0000
1000
0010
1000
0100
0001
1000
,
0020
0000
0000
0000
0000
0030
0000
0000
0010
1000
0100
0001
1000
0010
0100
1000
,
0001
0000
0000
1000
0000
0000
0010
0000
0000
0100
0000
0000
0001
0000
1000
0000
,
0010
0000
0000
0100
0000
0000
0001
0000
0000
1000
0000
0000
0010
0000
0100
0000
,
0001
0000
0000
0010
0000
0000
0100
0000
1000
0000
0000
0100
0000
0000
0010
0000
,
0100
0001
1000
0010
0100
0001
1000
0100
,
0010
0100
0001
1000
0010
0001
0100
1000
,
0010
0001
0100
1000
0010
0100
0001
0010
,
0010
1000
0001
0100
0010
0100
1000
0001
0100
0010
0100
1000
0001
0100
1000
0010
,
0001
0100
0001
0000
1000
0100
0010
0000
,
1000
0100
0001
1000
0010
0000
0101
0000
,
1000
0010
1000
0000
0100
0010
0001
0000
,
1000
0000
0010
0000
0100
0000
0000
0000
0001
0000
1000
0000
0010
0001
1000
0010
,
0100
0001
1000
0000
0100
1000
0001
0000
,
0100
0010
1000
0001
0100
0010
1000
0010
,
0001
1000
0001
0000
0100
0000
0010
0000
1000
0001
1000
0000
0001
0000
1000
0000
,
0010
1000
0001
0100
1000
0010
0100
0001
1000
0100
0010
0100
0001
1000
0010
0100
;
