#TITLE:IDC (Mo'Cuts Ver);
#ARTIST:DJ Mass MAD Izm* feat. REVERBEE;
#GENRE:TECH-BREAKS;
#MUSIC:IDC (Mo'Cuts Ver).ogg;
#BANNER:IDC (Mo'Cuts Ver).png;
#BACKGROUND:IDC (Mo'Cuts Ver)-bg.png;
#CDTITLE:./CDTitles/bm IIDX 26 Rootage.png;
#SAMPLESTART:99.981;
#SAMPLELENGTH:15;
#OFFSET:-0.124;
#BPMS:0=140;
#BGSTAGE:17;

//--------------- dance-single - XLev450X*-bSP ----------------
#NOTES:
     dance-single:
     XLev450X*:
     Beginner:
     3:
     0,0,0,0,0:
0000
0000
0000
0000
,
0000
0000
0000
0000
,
0000
0000
0000
0000
,
0000
0000
0000
0000
,
0000
0010
0000
0100
,
0000
0010
0000
0000
,
0000
1000
0000
0001
,
0000
1000
0000
0000
,
0000
1001
0000
0000
,
0000
0000
0000
0000
,
0000
0110
0000
0000
,
0000
0000
0000
0000
,
0000
0001
0000
0001
,
0000
0001
0000
0000
,
0000
1000
0000
1000
,
0000
1000
0000
0000
,
0000
0010
0000
0100
,
0000
1000
0000
0001
,
0000
0100
0000
0010
,
0000
0100
0000
0000
,
0000
0010
0000
0001
,
0000
1000
0000
0100
,
0000
0010
0000
0001
,
0000
0100
0000
0000
,
0000
0010
0000
1000
,
0000
1000
0000
0000
,
0000
0100
0000
0001
,
0000
0001
0000
0000
,
0000
0010
0000
0001
,
0000
0010
0000
0000
,
0000
1000
0000
0100
,
0000
1000
0000
0000
,
0000
0010
0000
0100
,
0000
0010
0000
0000
,
0000
0001
0000
1000
,
0000
0001
0000
0000
,
0000
1000
0000
0100
,
0000
1000
0000
0000
,
0000
0010
0000
0001
,
0000
0010
0000
0000
,
0000
0000
0000
0000
,
0000
0000
0000
0000
,
0000
0010
0000
0100
,
0000
0000
0000
0000
,
0000
1000
0000
0100
,
0000
0000
0000
0000
,
0000
0010
0000
0001
,
0000
0000
0000
0000
,
0000
1000
0000
0001
,
0000
0000
0000
0000
,
0000
1001
0000
0000
,
0000
0000
0000
0000
,
0000
1001
0000
0000
,
0000
0000
0000
0000
,
0000
0110
0000
0000
,
0000
0000
0000
0000
,
0000
0110
0000
0000
,
0000
0000
0000
0000
,
0000
0001
0001
0001
,
0000
1001
0000
0000
,
0000
1000
1000
1000
,
0000
1001
0000
0000
,
0000
0010
0010
0010
,
0000
0110
0000
0000
,
0000
0100
0100
0100
,
0000
0110
0000
0000
,
0000
1001
0000
0000
;

//--------------- dance-single - XLev450X*-BSP ----------------
#NOTES:
     dance-single:
     XLev450X*:
     Easy:
     6:
     0,0,0,0,0:
0000
0000
0000
0000
,
0000
0000
0000
0000
,
0000
0000
0000
0000
,
0000
0000
0000
0000
,
0000
0001
1000
0000
,
0000
0010
0100
0000
,
0000
0001
1000
0010
,
0000
0100
0010
0100
,
0000
2002
0000
0000
,
0000
3003
0000
0000
,
0000
2020
0000
0000
,
0000
3030
0000
0000
,
0000
0001
0001
1000
,
0100
0010
0000
1000
,
0010
0001
0000
0100
,
0001
1000
0000
0000
,
0000
0001
1000
0010
,
0100
1000
0001
0010
,
0000
1000
0100
0001
,
0010
0100
1000
0001
,
0000
0010
1000
0100
,
0001
0010
0000
1000
,
0100
0001
1000
0010
,
0100
0002
0100
0100
,
0103
1000
0010
0100
,
0000
0010
1000
0100
,
0000
0001
0010
1000
,
0000
1000
0100
0001
,
0010
0100
1000
0001
,
0000
0010
0100
1000
,
0001
0010
0100
1000
,
0001
0100
0000
0000
,
0000
1000
0001
0100
,
1000
0001
1000
0010
,
0000
1000
0100
0001
,
0010
0100
1000
0001
,
0000
0001
0000
1000
,
0000
0010
0000
0100
,
0000
0001
0010
0100
,
1000
0001
0010
0100
,
1000
2002
0000
0000
,
0000
0000
0000
0000
,
3003
0001
1000
0010
,
0000
1000
0100
0010
,
0000
0001
1000
0010
,
0000
0100
0010
0100
,
0000
0001
1000
0100
,
0000
0010
1000
0010
,
0000
0001
1000
0100
,
0000
0010
0010
0100
,
0000
0001
1000
0001
,
0000
1000
0010
1000
,
0000
0010
0100
0010
,
0000
0001
0010
0001
,
0000
1000
0001
1000
,
0000
0100
1000
0001
,
0000
1000
0100
0010
,
0000
0110
0000
0000
,
0000
0001
0001
1000
,
0100
0010
1000
0010
,
0000
1000
1000
0100
,
0001
0010
0100
1000
,
0000
1000
0100
0010
,
1000
0001
0100
0010
,
0000
0001
1000
0001
,
0100
0010
1000
0010
,
0000
0000
0000
0000
0000
0000
2002
0000
0000
0000
0000
0000
0000
0000
0000
0000
0000
0000
0000
0000
0000
0000
0000
0000
,
0000
0000
0000
0000
0000
0000
0000
0000
0000
0000
0000
0000
0000
0000
0000
0000
0000
0000
0000
0000
0000
0000
0000
0000
0000
0000
0000
0000
0000
0000
0000
0000
3003
0000
0000
0000
0000
0000
0000
0000
0000
0000
0000
0000
0000
0000
0000
0000
0000
0000
0000
0000
0000
0000
0000
0000
0000
0000
0000
0000
0000
0000
0000
0000
0000
0000
0000
0000
0000
0000
0000
0000
0000
0000
0000
0000
0000
0000
0000
0000
0000
0000
0000
0000
0000
0000
0000
0000
0000
0000
0000
0000
0000
0000
0000
0000
;

//--------------- dance-single - XLev450X*-DSP ----------------
#NOTES:
     dance-single:
     XLev450X*:
     Medium:
     10:
     0,0,0,0,0:
0000
0000
0000
0000
,
0000
0000
0000
0000
,
0000
0000
0000
0000
,
0000
0000
0000
0000
,
0000
0000
0001
0010
1000
0000
0001
0000
,
0010
0000
1000
0010
1000
0000
0001
0000
,
0100
0000
0001
1000
0001
0000
0010
0100
,
0010
0000
1000
0010
1000
0000
0001
0000
,
1000
0001
0000
1000
,
0001
0000
0000
0000
0000
0000
0100
0000
0000
0010
0000
0000
1000
0000
0000
0001
,
0000
0100
1000
0000
0001
0000
1000
0000
,
0000
0000
0010
0000
0000
0000
0100
0000
0000
0001
0000
0000
1000
0000
0000
0001
,
0000
0100
1000
0000
0001
0000
1000
0000
,
0000
0010
1000
0100
,
0001
0010
0100
1000
,
0001
1001
0000
0000
,
0000
1000
0001
1000
,
0100
0000
0010
1000
0010
0000
0001
0010
,
0001
0100
1000
0001
,
0100
0000
1000
0001
1000
0001
1000
0010
,
0100
0000
0001
0000
0010
0000
1000
0010
,
1000
0000
0001
0010
0001
0100
1000
0001
,
0100
0000
0001
0000
1000
0000
0001
1000
,
0001
1000
0010
0100
,
0001
0000
0001
0000
1000
0000
0010
1000
,
0010
0000
0010
0000
0100
0000
0001
0001
,
0100
1000
0001
1000
,
0100
0000
0001
0000
0010
0000
1000
0010
,
1000
0100
1000
0000
0001
0000
0001
0000
,
1000
0100
0001
0000
1000
0000
0010
0000
,
1000
0100
1000
0000
0010
0000
0100
0000
,
0001
0010
0100
0000
0000
0000
0000
0000
,
2002
3003
1000
0000
0001
0000
0100
0000
,
0010
0000
1000
0000
0100
0000
0001
0010
,
0001
1000
0100
1000
,
0010
0100
0010
0000
1000
0010
1000
0000
,
0001
1000
0001
0100
,
0000
0001
1000
0010
,
0000
0100
1000
0001
,
0010
0000
0001
0010
0001
0000
0100
0010
,
0100
2002
0000
0000
,
0000
0000
0000
0000
0000
0000
3003
1001
,
1001
0000
0000
0000
0001
0000
0000
1000
0000
0000
0010
0000
0100
0000
1000
0000
,
0001
0000
0000
0000
0100
0000
0000
0010
0000
0000
1000
0000
0010
0000
0100
0000
,
1000
0000
0000
0000
0001
0000
0000
0100
0000
0000
1000
0000
0001
0000
1000
0000
,
0010
0000
0000
0000
0010
0000
0000
1000
0000
0000
0100
0000
0001
0000
1000
0001
,
1000
0000
0001
0000
0100
0000
0000
0001
0000
0000
1000
0000
0010
0000
0000
0100
,
0000
0000
1000
0000
0001
0000
0000
0100
0000
0000
0010
0000
1000
0000
0000
0001
,
0000
0000
0100
0000
1000
0000
0000
0001
0000
0000
0100
0000
0010
0000
0000
1000
,
0000
0000
0001
0000
0010
0000
0000
1000
0000
0000
0100
0000
0220
0000
0000
0000
,
0000
0330
0001
0000
1000
0000
0010
0100
,
0010
0000
0001
0000
0001
0000
1000
0100
,
1000
0001
0010
0000
0100
0000
1000
0000
,
0001
0000
0010
0001
0010
0000
0100
1000
,
0010
0010
0100
0001
,
1000
0000
0001
1000
0001
0100
1000
0001
,
0010
0000
0100
0000
1000
0000
0001
0010
,
0100
0000
0000
0000
0000
0000
0202
0000
0000
0000
0000
0000
0000
0000
0000
0000
0000
0000
0000
0000
0000
0000
0000
0000
,
0000
0000
0001
0000
1000
0000
0100
0000
,
1000
0000
0010
0010
0100
0010
0001
1000
,
0001
0001
1000
0100
,
1000
0000
0001
1000
0001
0100
1000
0001
,
0010
1000
0100
0001
,
0010
0000
0010
1000
0010
0000
0100
0010
,
0001
1000
0100
1000
,
0001
0000
1000
0001
1000
0100
1000
0001
,
0010
0000
0000
0100
0000
0000
2002
0000
0000
0000
0000
0000
0000
0000
0000
0000
0000
0000
0000
0000
0000
0000
0000
0000
,
0000
0000
0000
0000
0000
0000
0000
0000
3003
0000
0000
0000
0000
0000
0000
0000
0000
0000
0000
0000
0000
0000
0000
0000
;

//--------------- dance-single - XLev450X*-ESP ----------------
#NOTES:
     dance-single:
     XLev450X*:
     Hard:
     15:
     0,0,0,0,0:
0000
0000
0000
0000
,
0000
0000
0000
0000
,
0000
0000
0000
0000
,
0000
0000
0000
0000
,
0000
0000
0001
1000
0010
0000
0000
0000
,
0000
0100
0001
1000
0010
0000
0000
0000
,
0000
0001
1000
0000
1001
0000
0000
0010
,
0100
0000
0010
1000
0220
0000
0000
0000
0000
0000
0000
0000
0000
0000
0000
0000
,
0330
0000
0000
0001
0100
1000
0010
0001
0010
0000
0000
0000
0000
0000
0000
0000
,
1001
0000
0110
0000
1001
0000
0110
0000
0000
0001
0000
0000
1000
0000
0000
0010
,
0000
0100
1000
0001
1000
0010
0000
0000
,
1000
0000
0100
0001
0100
0000
1000
0000
0000
0001
0000
0000
0010
0000
0000
0100
,
0000
0001
0010
0000
1000
0000
0010
1000
,
0001
0000
0010
0100
1000
0000
0101
0000
0000
0101
0000
0000
0101
0000
0000
0101
,
0000
0101
0101
0000
0000
1100
1100
0000
,
0000
0000
0110
0000
0000
0000
1001
0000
0000
1001
0000
0000
1000
0001
0100
1000
,
0001
1000
0100
0010
0001
0000
0000
0000
1000
0000
0000
0000
0001
0000
0010
0000
,
0001
0000
1000
0001
0010
0000
0000
0000
1000
0000
0100
0001
1000
0100
0010
0001
,
0100
0010
0100
0001
1000
0000
0000
0000
0001
0000
1000
0000
0010
0000
0100
0000
,
1000
0000
0001
0100
0000
0000
1001
0000
0000
0000
1001
0000
0010
0100
0001
0100
,
0010
1000
0001
1000
0011
0000
1000
0000
0010
0000
0100
0000
1000
0000
0001
0000
,
0010
0000
1000
0001
0000
0000
0100
0001
0100
1000
0001
0100
1000
0001
1000
0001
,
1000
0010
0001
1000
0101
0000
0001
0000
1000
0000
0010
0000
0100
0000
1000
0000
,
0001
0000
0000
0000
0000
0000
1000
0000
0000
0001
0000
0000
0100
0000
0000
0000
1000
0000
0000
0000
0001
0000
0000
0000
0100
0000
0000
0000
0001
0000
0000
0000
1000
0000
0000
0000
0001
0000
0000
0000
0100
0000
0000
0000
0010
0000
0000
0000
,
0100
0000
0000
0000
0010
0000
0000
0000
0100
0000
0000
0000
0011
0000
0000
0000
0000
0000
0000
0000
0000
0000
0000
0000
1100
0000
0000
0000
0000
0000
0000
0000
0000
0000
0000
0000
1001
0000
0000
0000
0000
0000
0000
0000
0000
0010
0000
0000
,
0000
1000
0100
1000
0001
1000
0010
0100
,
0010
1000
0010
0000
0001
0000
0000
0000
1000
0000
0100
0000
1000
0000
0000
0101
,
0000
0000
0010
0000
1000
0000
0010
0000
0100
0000
1000
0000
0010
0000
0001
0010
,
0001
0000
1000
0000
0100
0000
0000
0000
1001
0000
0000
0000
0010
0000
0000
1000
,
0000
0000
0100
0000
1000
0000
0001
0000
0010
0000
1000
0000
0001
0000
0100
1000
,
0000
0001
0000
1000
0001
0010
0100
0010
1001
0000
0100
0010
1000
0000
0100
0001
,
0000
0010
0100
0010
2002
0000
0000
0000
0000
0000
0000
0000
0000
0000
3003
0000
,
0220
0000
0000
0330
0001
0000
1000
0000
0010
0000
0000
0000
0100
0000
1000
0000
,
0001
1000
0010
0000
1000
0000
0100
0000
1000
0100
0001
0000
0010
0000
0001
0010
,
0001
1000
0100
1000
0001
0010
1000
0010
,
1000
0010
1000
0000
0010
0000
0001
0000
0010
0000
0011
0000
1000
0000
0001
0000
,
1000
0000
0010
0000
1000
0000
0000
0001
0000
0000
0100
0000
1000
0000
0000
0001
,
0000
0000
0010
0000
0100
0000
0000
1000
0000
0000
0001
0000
0010
0000
0000
1000
,
0000
0100
1000
0001
0100
1000
0010
1000
,
0001
0000
0010
0000
1000
0010
1000
0010
1000
0010
1000
0100
0001
0010
1000
0100
,
0010
1000
0001
0100
2000
0000
0000
0000
0000
0000
0000
0000
0000
0000
0000
0000
,
0000
0000
0001
0000
0001
0000
3001
1001
,
1001
0000
0000
0000
0010
0000
0000
1000
0000
0000
0001
0000
0010
0000
0100
0001
,
1000
0000
0001
0000
0010
0000
0000
0100
0000
0000
1000
0000
0001
0000
0010
0001
,
0010
0000
0100
0000
1000
0000
0000
0001
0000
0000
1000
0000
0010
0000
0001
0010
,
0001
0000
1000
0000
0010
0000
0000
0100
0000
0000
1000
0000
0001
0000
0010
0000
,
1000
0000
0000
0000
0010
0000
0000
1000
0000
0000
0001
0000
0010
0000
0100
0000
,
1000
0000
0000
0000
0001
0000
0000
0100
0000
0000
1000
0000
0010
0000
1000
0000
,
0001
0000
0000
0000
0001
0000
0000
0100
0000
0000
1000
0000
0010
0000
0000
1000
,
0000
0000
0001
0000
0100
0000
0000
1000
0000
0000
0010
0000
2002
0000
0000
0000
,
0000
3003
0000
0000
1001
0000
0000
0000
0010
0000
1000
0000
0001
0000
0010
0001
,
0010
0000
0000
0000
0000
0000
1000
0010
1000
0001
0100
0001
0010
1000
0001
1000
,
0010
0001
1000
0001
1001
0000
0000
0000
0010
0000
1000
0000
0010
0000
1000
0010
,
1000
0000
0100
1000
0010
0100
0001
1000
0010
0100
0001
1000
0001
0010
0100
0010
,
0100
1000
0001
0100
0110
0000
0000
0000
0001
0000
1000
0000
0001
0000
1000
0010
,
1000
0000
0000
0000
0100
0010
0001
1000
0100
0010
0001
0010
0100
1000
0001
0100
,
0010
0100
0001
1000
0110
0000
0000
0000
0001
0000
1000
0000
0001
0000
1000
0001
,
1000
0100
0001
1000
0001
0000
1000
0010
0000
0001
0010
0000
1000
0000
0010
0000
,
2001
0000
3001
0000
0001
0100
1000
0001
0010
0000
0100
0000
1000
0000
0010
0000
,
0001
0000
0010
0001
1000
0001
0100
1000
0010
0100
1000
0001
0010
1000
0001
0010
,
0100
0001
1000
0010
0001
0000
1000
0001
0010
0000
0100
0000
1000
0000
0001
0000
,
0010
0000
1000
0001
0100
0010
0100
0001
1000
0100
1000
0001
0100
0010
1000
0010
,
1000
0001
0100
0010
1000
0000
0010
1000
0010
0000
0100
0001
1000
0000
0100
0000
,
1000
0000
0001
0010
0001
0100
1000
0010
0100
0010
1000
0010
1000
0001
0100
0010
,
0100
0001
1000
0010
0001
0000
1000
0010
1000
0000
0010
0000
0100
0000
1000
0000
,
0001
0000
1000
0001
1000
0010
1000
0001
0010
0100
1000
0001
0100
0010
0100
0010
,
1000
0010
0100
0001
2002
0000
0000
0000
0000
0000
0000
0000
0000
0000
0000
0000
,
0000
0000
0000
0000
;
