#TITLE:Howling;
#ARTIST:PON;
#GENRE:NU RAVE;
#MUSIC:Howling.ogg;
#BANNER:Howling.png;
#BACKGROUND:Howling-bg.png;
#CDTITLE:./CDTitles/bm IIDX 20 tricoro.png;
#SAMPLESTART:17.253;
#SAMPLELENGTH:15;
#OFFSET:1.328;
#BPMS:0=155;
#BGCHANGES:-4.000=Howling.mp4=1.000=0=0=0=StretchNoLoop====,
99999.000=-nosongbg-=1.000=0=0=0=StretchNoLoop====;
#BGSTAGE:30;

//--------------- dance-single - XLev450X-bSP ----------------
#NOTES:
     dance-single:
     XLev450X:
     Beginner:
     3:
     0,0,0,0,0:
0000
0000
0000
0000
,
0000
0000
0000
0000
,
0000
0000
0000
0000
,
0000
0000
0000
0000
,
0000
0000
0000
0000
,
0001
0000
1000
0000
,
0001
0000
0000
0000
,
0010
0000
0100
0000
,
0020
0000
0000
0000
,
0000
0000
0000
0000
,
0030
0000
0000
0000
,
0000
0000
0000
0000
,
1000
1000
1000
0000
,
0001
0010
0001
0000
,
0100
0100
0100
0000
,
1000
0100
1000
0000
,
0010
0000
0001
0000
,
0010
0000
0000
0000
,
1000
0000
0100
0000
,
1000
0000
0000
0000
,
0010
0000
0100
0000
,
0010
0000
0000
0000
,
0010
0000
1000
0000
,
0010
0000
0000
0000
,
0100
0000
0001
0000
,
0100
0000
0000
0000
,
0010
0000
0001
0000
,
0010
0000
0000
0000
,
1000
0000
0000
0000
,
0001
0000
0000
0000
,
0100
0000
0000
0000
,
0010
0000
0000
0000
,
1000
1000
0000
0000
,
0001
0001
0000
0000
,
0010
0100
0000
0000
,
0100
0010
0000
0000
,
1000
0000
0001
0000
,
1000
0000
0000
0000
,
0010
0000
0100
0000
,
0010
0000
0000
0000
,
1000
0000
0100
0000
,
0001
0000
0000
0000
,
0100
0000
0010
0000
,
0001
0000
0000
0000
,
1001
0000
0000
0000
,
0000
0000
0000
0000
,
0110
0000
0000
0000
,
0000
0000
0000
0000
,
0001
0000
1000
0000
,
0001
0000
0001
0000
,
1000
0010
1000
0000
,
0100
0010
0100
0000
,
0001
0000
1000
0000
,
0001
0000
0000
0000
,
1000
0000
0010
0000
,
0100
0000
0001
0000
,
0010
0000
1000
0000
,
0100
0000
0000
0000
,
1000
1000
0000
0000
,
0010
0010
0000
0000
,
0100
0100
0000
0000
,
0001
0001
0000
0000
,
0010
0000
1000
0000
,
0001
0000
0000
0000
,
0100
0000
1000
0000
,
0100
0000
0000
0000
,
0010
0000
0100
0000
,
0010
0000
0000
0000
,
0001
0000
0010
0000
,
0001
0000
0000
0000
,
2002
0000
0000
0000
,
3003
0000
0000
0000
;

//--------------- dance-single - XLev450X-BSP ----------------
#NOTES:
     dance-single:
     XLev450X:
     Easy:
     7:
     0,0,0,0,0:
0000
0000
0000
0000
,
0000
0000
0000
0000
,
0000
0000
0000
0000
,
0000
0000
0000
0000
,
0000
0000
0000
0000
,
0001
1000
0100
1000
,
0010
1000
0010
0000
0001
0000
1000
0000
,
0100
0001
0100
0000
1000
0001
1000
0000
,
1002
1000
1000
1000
,
1000
1000
1000
1003
,
0010
1000
0100
0001
,
1000
0000
0010
0000
1000
0001
2002
3003
,
0010
1000
0100
1000
,
0100
0000
1000
0001
0100
0000
1000
0000
,
0010
0000
1000
0010
0100
0000
1000
0000
,
0001
1000
0001
0000
0010
1000
0010
0000
,
1000
0100
0010
1000
,
0001
0100
0001
0000
1000
0010
1000
0000
,
0001
0000
1000
0000
0100
0001
1000
0000
,
0001
0000
0000
0000
1000
0010
1000
0000
,
0100
1000
1000
0001
,
0100
1000
0010
0100
,
0001
1000
0100
1000
,
0001
0000
0100
0000
0001
1000
0001
0000
,
0010
1000
0100
0000
,
0001
1000
0100
0000
,
0010
1000
0100
0010
,
1000
0000
0010
0000
0100
0001
0100
0000
,
0001
1000
0001
0000
,
0010
0100
0010
0000
,
1000
0010
1000
0000
,
0001
0100
0001
0000
,
0010
1000
0100
1000
,
0001
0100
0010
0000
,
1000
0010
0100
1000
,
0001
0000
1000
0001
1000
0000
0000
0000
,
0001
1000
0100
0010
,
1000
0001
0100
0000
,
0010
1000
0100
0010
,
1000
0001
1000
0000
,
0001
1000
0100
0000
,
0010
1000
0100
0000
,
0010
0000
1000
0010
1000
0000
0001
0000
,
0100
1000
0001
0100
,
0001
0000
1000
0000
0010
0100
0010
0000
,
2002
0000
0000
3003
,
0002
0000
0000
0003
2000
0000
0000
3000
,
0010
1000
0010
0000
0100
0001
0100
0000
,
0002
0000
0000
0003
2000
0000
0000
3000
,
0001
1000
0001
1000
0002
0000
1003
0000
,
0010
1000
0010
0100
,
0001
1000
0001
0000
,
0100
0010
1000
0000
,
0001
0000
0000
0000
1000
0000
0000
0000
0001
0000
0000
1000
0000
0000
0001
0000
,
1000
1000
0100
0010
,
0001
1000
0010
0000
,
0001
1000
0100
0000
,
0001
1000
0001
0000
0010
0000
0000
0000
,
1000
0100
0001
0100
,
0010
1000
0010
0000
0001
1000
0001
0000
,
0100
1000
0001
0100
,
0020
0000
0000
0000
0000
0000
0000
0030
,
1000
0001
1000
0000
,
0010
1000
0010
0100
,
0001
1000
0001
0000
,
0010
0100
0010
0000
,
0001
1000
0001
0000
,
1000
0000
0010
0100
,
1000
0000
0001
0000
,
1000
0100
0001
0010
,
2002
0000
0000
0000
,
3003
0000
0000
0000
;

//--------------- dance-single - XLev450X-DSP ----------------
#NOTES:
     dance-single:
     XLev450X:
     Medium:
     11:
     0,0,0,0,0:
0000
0000
0000
0000
,
0000
0000
0000
0000
,
0000
0000
0000
0000
,
0000
0000
0000
0000
,
0000
0000
0000
0000
,
0001
0000
1000
0000
0010
1000
0010
0000
,
0100
1000
0001
0000
0100
0010
1000
0000
,
0001
0000
1000
0000
0001
1000
0010
0000
,
2002
0000
0000
0000
,
0000
0000
0000
3003
,
0001
0000
0000
1000
0000
0000
0010
0000
0100
0000
0000
1000
0000
0000
0001
0000
,
0100
0000
0000
0010
0000
0000
1000
0000
2002
0000
3003
0000
0220
0000
0330
0000
,
0001
0000
1000
0000
0100
1000
0001
0000
,
0010
0010
1000
0100
1000
0000
0001
0000
,
0100
0000
1000
0001
1000
0000
0010
0000
,
0010
1000
0010
0000
0001
0010
0001
0000
,
1000
0100
1000
0001
,
0100
0010
0100
0000
0010
1000
0010
0000
,
0001
0000
1000
0001
1000
0000
0010
0000
,
2002
0000
0000
3003
0010
0010
0010
0000
,
0001
0000
0000
0010
0000
0000
0001
0000
1000
0000
0000
0010
0000
0000
1000
0000
,
0100
0000
0000
0100
0000
0000
1000
0000
0010
0000
0000
0010
0000
0000
1000
0000
,
0001
0010
0100
0000
1000
0010
0100
0000
,
0001
0010
1000
0010
0001
0000
0110
0000
,
1000
0000
0000
0010
0000
0000
1000
0000
0001
0000
0000
0010
0000
0000
0001
0000
,
0100
0000
0000
0100
0000
0000
0001
0000
0010
0000
0000
0010
0000
0000
0001
0000
,
1000
0010
0100
0000
0001
0010
0100
0000
,
1000
0010
0001
1000
0100
0001
1000
0000
,
0001
0000
1000
0000
0001
1000
0001
0000
,
0010
0000
1000
0000
0010
1000
0010
0000
,
0100
0000
0010
0000
0100
0010
0100
0000
,
0001
0010
0001
0000
1000
0100
1000
0000
,
0001
0000
1000
0000
0001
1000
0001
0000
,
0010
0000
1000
0000
0010
1000
0010
0000
,
0100
0000
0001
0000
1000
0001
1000
0000
,
0010
0000
1000
0000
0100
0001
0100
0000
,
0001
0001
0000
1000
2000
3010
0000
0010
,
0020
0130
0000
0100
0200
0301
0000
0001
,
0002
1003
0000
1000
2000
3001
0000
0001
,
0001
0000
1000
0000
0010
1000
0001
0000
,
0010
0010
0000
1000
2000
3010
0000
0010
,
0020
0000
0130
0000
0000
0000
0100
0000
0200
0000
0301
0000
0000
0000
0001
1000
,
0001
0000
0010
1000
0000
0100
0001
0000
0001
1000
0000
1000
,
0010
0000
0010
1000
0000
0001
0100
0000
0010
1000
0000
0100
,
0001
0100
1000
0000
0100
1000
0100
0000
,
0001
1000
0001
1000
0001
1000
0002
0003
,
1002
0000
0020
0033
,
2001
0001
0020
3030
,
0002
0010
1000
0103
,
0002
0003
0200
0300
2000
3000
0200
0300
0002
0000
0000
0000
0003
0000
0000
0000
,
1000
0000
0001
0000
1000
0000
0010
1000
,
0010
0000
0001
0000
0100
0000
0001
1000
,
0001
0000
0010
1000
0010
0000
0100
0000
,
2002
0000
0000
0000
0000
0000
3003
0000
0001
0000
0000
0010
0000
0000
0100
0000
,
1000
0001
1000
0100
,
0010
1000
0010
0000
0001
0010
0001
0000
,
1000
0100
1000
0001
,
1000
0010
1000
0010
1000
0000
0001
0000
,
1000
0000
0100
0001
0100
0000
1000
0000
,
0010
0100
0010
0000
1000
0001
1000
0000
,
0001
0000
0100
0000
0010
0100
0010
0000
,
2002
0000
0000
0000
0000
0000
0000
3003
,
0001
0000
0000
1000
0000
0001
0100
0000
0100
0000
0000
0001
0000
1000
0100
0000
,
0100
0000
0000
0010
0000
0001
1000
0000
1000
0000
0000
0010
0000
0000
0100
0000
,
0001
0010
0100
1000
0010
0100
0001
0000
,
1000
0100
0001
0100
1000
0000
0110
0000
,
1000
0000
0000
0001
0000
1000
0100
0000
0100
0000
0000
1000
0000
0001
0100
0000
,
0100
0000
0000
0010
0000
1000
0001
0000
0001
0000
0000
0010
0000
0000
0100
0000
,
0000
1000
0000
0000
0001
0000
0000
0100
0000
0000
0010
0000
0000
1000
0000
0000
,
0001
0010
1000
0001
0100
1000
0001
1000
,
0220
0000
0000
0000
,
0330
0000
0000
0000
;

//--------------- dance-single - XLev450X-ESP ----------------
#NOTES:
     dance-single:
     XLev450X:
     Hard:
     14:
     0,0,0,0,0:
0000
0000
0000
0000
,
0000
0000
0000
0000
,
0000
0000
0000
0000
,
0000
0000
0000
0000
,
0000
0000
0000
0000
,
0010
0000
1000
0000
0100
1000
0001
0000
,
0010
1000
0010
0000
0001
0010
0001
0000
,
1000
0000
0100
0000
1000
0000
0001
0100
,
2002
0000
0000
0000
,
0000
0000
0000
3003
,
0010
0000
0000
1000
0000
0000
0001
0000
0100
0000
0000
1000
0000
0000
0001
0000
,
0100
0000
0000
1000
0000
0000
0010
0000
0001
0000
1001
0000
0001
0000
1001
0000
,
0001
0000
1000
0000
0100
1000
0010
1000
,
0001
0000
0100
1000
0010
0000
0010
0100
,
0010
0001
1000
0100
,
0001
1000
0100
0001
1000
0010
1000
0000
,
0001
0000
1000
0100
1000
0000
0010
0000
,
0100
1000
0001
0000
0010
0100
0010
0000
,
0001
0000
1000
0000
0100
1000
0001
0010
,
2002
0000
0000
0000
0000
0000
3003
0000
0001
0010
1000
0100
0001
0010
1000
0100
,
0010
0001
2000
3001
0100
1000
0010
1000
,
0100
0000
0001
0000
1000
0000
0001
0000
1000
0000
0010
1000
0100
0000
0010
0000
,
0001
0100
1000
0000
0100
1000
0001
1000
,
0010
1000
0100
0000
1000
0010
1000
0000
0001
0010
0001
0100
1000
0000
0001
0000
,
0010
0000
1000
0000
0010
1000
0100
1000
,
0001
0000
0100
0000
0001
0000
1000
0000
0001
1000
0000
0100
0000
0001
0010
0100
,
1000
0100
0001
0010
0100
1000
0001
0100
,
2000
0000
0000
0000
0002
0000
3003
0000
0001
0010
0100
1000
0001
0010
0100
1000
,
0001
0000
0100
0000
1000
0000
0010
0000
0100
0000
0001
0010
1000
0000
0100
0000
,
0010
0000
0001
0000
1000
0000
0001
0000
0010
0000
1000
0001
0010
0000
0100
0000
,
0001
0000
1000
0000
0001
0000
1000
0000
0010
0000
0001
0010
1000
0000
0001
0000
,
0100
0000
1000
0000
0010
0000
1000
0100
0001
0000
0010
0000
0100
0000
1000
0100
,
0001
0000
1000
0000
0010
0000
0001
0000
0100
0000
1000
0001
0100
0000
1000
0000
,
0001
0000
0010
0000
0100
0000
0010
0000
1000
0000
0010
0001
1000
0000
0001
0000
,
0010
0000
0100
0000
0010
0000
0100
0000
0001
0000
1000
0100
0001
0000
1000
0000
,
0001
0000
0010
0000
1000
0000
0001
0000
0010
0100
1000
0000
0001
0000
0100
0010
,
0002
1000
0003
1000
0002
0103
0000
0010
,
2000
3010
0000
0100
2000
3010
0000
0001
,
0020
0031
0000
1000
0200
1300
0000
0001
,
0200
0301
1001
0001
1010
1000
0101
0100
,
0001
2000
3001
0000
1000
0020
1030
0000
,
0100
2000
3001
2000
3010
0200
1300
0100
,
0002
0010
0013
0000
2000
0100
3100
0000
,
0002
1000
1003
0000
0020
0100
0130
0000
,
2001
3001
2001
3001
,
0001
0000
0010
0000
0100
0000
1000
0000
0001
0000
0010
0000
0100
0000
1000
0000
0100
0000
0002
0000
0000
0013
0000
0000
,
2000
0000
0000
0000
0002
0000
0000
3003
,
1000
0001
1000
0001
1000
0000
0000
0000
0010
1000
0010
1000
0010
0000
0000
0000
,
0002
0000
0000
0000
2000
0000
0000
3003
,
0001
1000
0010
0100
0002
0000
1003
0000
,
1000
0000
0010
1000
0010
0000
0001
0000
,
0100
0000
0001
0100
1000
0000
0001
0000
1000
0000
0001
1000
0100
0000
1000
0000
,
0010
0000
1000
0000
0100
1000
0001
0000
,
0010
0000
0001
0100
1000
0000
0100
0000
0001
0100
0000
1000
0000
0000
0100
0000
,
0001
0000
1000
0000
0001
1000
0010
0100
,
1000
0000
0001
0000
0100
1000
0001
0000
,
0010
0000
0100
0000
1000
0010
1000
0000
,
0001
1000
0001
0100
1000
0001
0100
0000
,
0001
0000
1000
0000
0010
1000
0010
0000
,
0100
1000
0101
1010
,
0010
1000
0010
1000
0100
1000
0001
0100
,
0002
0000
0000
0000
1000
0000
0003
0000
0001
0010
0100
0000
1000
0100
0001
0000
,
0010
1000
0010
1000
0100
0001
1000
0001
,
0100
1000
0010
1000
0100
1000
0010
1000
,
0010
0100
0001
0010
1000
0001
0100
1000
,
0001
0100
0010
1000
0010
0001
0220
0330
,
0001
1000
0001
1000
0100
1000
0001
1000
,
0010
1000
0100
1000
0001
1000
0010
0100
,
1000
0001
0100
1000
0001
0100
1000
0010
,
0100
1000
0001
0010
0100
1000
0010
0001
,
2002
0000
0000
0000
,
3003
0000
0000
0000
;

//--------------- dance-single - XLev450X†-CSP ----------------
#NOTES:
     dance-single:
     XLev450X†:
     Challenge:
     16:
     0,0,0,0,0:
0000
0000
0000
0000
,
0000
0000
0000
0000
,
0000
0000
0000
0000
,
0000
0000
0000
0000
,
0000
0000
0000
0000
,
0010
0000
0001
0010
0001
0000
1000
0010
1000
0000
0010
0100
0010
0000
0001
0010
,
0001
0000
0000
1000
0010
0000
1000
0000
0001
0000
1000
0001
0010
0000
1000
0000
,
0010
0000
1000
0010
1000
0000
0001
0010
0001
0000
1000
0010
1000
0000
0001
0000
,
0001
0100
0010
1000
0001
0100
0001
0100
0010
1000
0001
0010
0100
1000
0010
0100
,
0010
1000
0010
0100
0001
0010
0100
0010
0001
0010
0001
1000
0001
0010
0100
1000
,
0100
0010
0001
1000
0100
1000
0001
1000
0010
0100
0010
1000
0001
0010
0001
0010
,
0100
1000
0001
0100
0010
0100
0001
1000
0010
0000
0011
0000
0010
0000
1010
0000
,
1000
0000
0010
0000
0001
0000
0010
0100
0010
0000
1000
0000
0001
0000
1000
0000
,
0012
0000
0010
0000
1003
0000
0010
0100
0010
0000
1000
0000
0001
1000
0010
0001
,
1000
0100
0010
1000
0010
0100
1000
0001
,
0101
0000
0100
0000
0110
0000
0010
0000
1010
0000
0001
0100
1000
0001
1000
0100
,
0001
0000
0010
0000
1000
0000
0010
0100
1000
0000
0001
0000
0100
0000
0001
0000
,
2010
0000
0010
0000
3001
0000
0010
0100
1000
0000
0001
0000
0100
0000
0010
0000
,
0001
1000
0010
0001
0010
0100
0001
1000
,
2200
0000
0000
0000
3300
0000
0000
0000
1001
0000
0010
0100
0010
0100
0010
0100
,
0001
0100
0001
1000
0001
0010
0100
0010
,
0001
0010
0100
1000
0001
0100
0010
1000
,
0001
0010
0001
0010
0100
0010
0001
0100
,
0010
0000
1000
0000
0100
0000
1000
0000
0001
0000
0010
0001
0100
0001
1000
0100
,
0001
0000
1000
0010
1000
0000
0001
0000
0001
0000
0010
0001
0010
0000
0100
0000
,
0100
0000
1000
0010
1000
0000
0010
0100
0010
0000
0100
0001
0100
0000
0001
0000
,
1000
0100
0010
1000
0010
0100
1000
0001
,
0100
0000
0000
0000
1001
0000
0000
0000
0010
0100
0010
0000
0100
0010
0100
0000
,
0001
0000
1000
0000
0100
0000
1000
0000
0001
0000
1000
0001
0000
0100
1000
0100
,
0010
0000
1000
0000
0100
0000
1000
0000
0001
0000
0010
1000
0000
1000
0001
0100
,
0001
0000
0100
0000
1000
0000
0001
0000
1000
0000
0001
0000
0100
0000
1000
0100
,
0001
1000
0010
1000
0001
1000
1001
0000
,
0001
1000
0010
0100
1000
0001
0010
0001
,
1000
0100
1000
0001
0010
1000
0010
0000
,
0100
1000
0001
1000
0001
0100
1000
0001
,
0100
0010
1000
0001
0100
0101
0100
1100
,
0001
0200
0000
1300
0100
0002
0000
1003
,
0100
0002
0000
0103
0100
2000
0000
3001
,
0100
2000
0000
3001
0010
2000
0000
3001
,
0010
0000
0000
2000
0000
0000
0000
0000
0000
3010
0000
0000
0010
0000
0100
0000
1000
0000
0001
0000
0000
0100
0000
0000
,
0001
0020
0000
1030
0010
0001
0001
1000
,
0010
0000
0000
0002
0000
0000
0000
0000
0000
1003
0000
0000
0100
0000
0000
0001
0000
0000
0001
0000
0000
1000
0000
0010
,
1000
0001
1000
0200
0000
0000
0310
0001
1000
0020
0000
0000
,
1030
0100
0010
0002
0000
0000
1003
0010
0100
0002
0000
0000
,
1003
0100
1000
0001
0100
0001
1000
0010
1000
0001
0010
0001
,
0010
0000
0000
0000
0100
0000
0010
0000
0000
0000
0100
0000
0010
0000
0000
0000
0100
0000
0010
0000
0000
0000
0100
0000
1000
0000
0000
0001
0000
0000
1000
0000
0000
0001
0000
0000
0200
0000
0000
0000
0000
0000
0310
0000
0000
0000
0000
0000
,
0002
0000
2000
3003
,
1000
0000
0000
0000
0001
0000
0000
0000
1000
0000
0000
0000
0001
0000
0000
0000
0000
0000
0100
0000
0000
0000
0000
0000
1000
0000
0000
0010
0000
0000
1000
0000
0000
0001
0000
0000
1000
0000
0000
0000
0000
0000
0010
0000
0000
0000
0000
0000
,
0002
0000
0000
0000
2000
0000
0000
3003
,
1001
0100
1001
0010
2002
0000
0000
3003
,
0100
0000
1000
0100
1000
0000
0001
0100
0001
0000
0100
0010
0100
0000
1000
0100
,
1000
0000
0000
0001
0100
0000
0001
0000
1000
0000
0001
1000
0100
0000
0001
0000
,
0100
0000
0001
0100
0001
0000
1000
0100
1000
0000
0001
0100
0001
0000
1000
0000
,
0002
0000
0010
0000
0010
0000
0013
0000
1000
0001
0000
0100
1000
0000
0001
0100
,
1000
0000
0100
0000
0001
0000
0100
0010
0001
0000
1000
0000
0010
0000
0100
0000
,
0102
0000
0100
0000
1003
0000
0100
0010
0001
0000
1000
0000
0010
0000
0001
0000
,
1000
0010
0100
1000
0100
0010
1000
0001
,
0011
0000
0010
0000
0110
0000
0100
0000
1100
0000
0100
0000
1000
0001
1000
0100
,
0001
0000
0100
0000
1000
0000
0100
0010
1000
0000
0001
0000
0010
0000
0100
0000
,
2100
0000
0001
0000
3001
0000
0100
0010
1000
0000
0001
0000
0010
0000
1000
0100
,
0001
0000
1000
0000
0100
0000
0001
1000
0100
0000
0010
0000
0001
0000
1000
0000
,
2020
0000
0000
0000
3030
0000
0000
0000
1001
0000
0100
0010
0100
0010
0100
0000
,
0001
1000
0010
0100
1000
0001
1000
0001
,
1000
0010
1000
0010
1000
0100
1000
0001
,
0100
1000
0001
0100
1000
0001
1000
0010
,
1000
0100
1000
0001
0010
0000
0000
0000
,
0001
1000
0100
1000
0001
0000
0010
0000
,
1000
0100
1000
0000
0010
1000
0010
0000
,
0100
1000
0001
0100
1000
0001
0100
1000
,
0001
0000
0000
0000
0100
0000
0000
0000
0010
0000
1000
0001
0010
0000
0100
0000
,
2002
0000
0000
0000
,
3003
0000
0000
0000
;
