#TITLE:Hot;
#ARTIST:1TYM;
#GENRE:K-POP;
#MUSIC:Hot.ogg;
#BANNER:Hot.png;
#BACKGROUND:Hot-bg.png;
#SAMPLESTART:39.823;
#SAMPLELENGTH:15;
#OFFSET:-0.029;
#BPMS:0=98.005;
#DISPLAYBPM:98;
#BGSTAGE:4;

//--------------- dance-single - XLev450X-bSP ----------------
#NOTES:
     dance-single:
     XLev450X:
     Beginner:
     2:
     0,0,0,0,0:
0000
0000
0000
0000
,
0000
0000
0000
0000
,
0000
0000
0000
0000
,
0000
0000
0000
0000
,
0000
0001
0000
1000
,
0000
0100
0000
0010
,
0000
0001
0000
1000
,
0000
0001
0000
0100
,
0000
0010
1000
0000
,
0000
0100
1000
0000
,
0000
0010
0001
0000
,
0000
0010
0100
0000
,
0000
0001
0000
0001
,
0000
0001
0000
0000
,
0000
1000
0000
0100
,
0000
1000
0000
0000
,
0000
0010
0000
0100
,
0000
0001
0000
1000
,
0000
0010
0000
1000
,
0000
0010
0000
0000
,
0000
0100
0000
0001
,
0000
1000
0000
0010
,
0000
1000
0000
0001
,
0000
0100
0000
0000
,
0000
1001
0000
0000
,
0000
0000
0000
0000
,
0000
0110
0000
0000
,
0000
0000
0000
0000
,
0000
0001
0000
1000
,
0000
0100
0000
1000
,
0000
0010
0000
0001
,
0000
1001
0000
0000
,
0000
0010
0000
0100
,
0000
1000
0000
0001
,
0000
0100
0000
0010
,
0000
1000
0000
0000
,
0000
0001
0000
0100
,
0000
0010
0000
1000
,
0000
0001
0000
0100
,
0000
0010
0000
0000
;

//--------------- dance-single - XLev450X-BSP ----------------
#NOTES:
     dance-single:
     XLev450X:
     Easy:
     4:
     0,0,0,0,0:
0000
0000
0000
0000
,
0000
0000
0000
0000
,
0000
0000
0000
0000
,
0000
0000
0000
0000
,
0000
0001
0001
0001
,
0000
1000
0010
1000
,
0000
0100
0010
0100
,
0000
0010
0001
0010
,
0000
1000
0100
0001
,
0010
0100
1000
1001
,
0000
0010
1000
0100
,
0010
0001
0010
0100
,
0000
1000
0010
1000
,
0100
0001
0010
0110
,
0000
1000
0001
0100
,
0010
2020
0000
0000
,
3030
0001
1000
0100
,
0001
0010
1000
0010
,
0000
1000
0100
1000
,
0001
0100
0010
0100
,
0000
1000
0001
1000
,
0010
0100
0001
1000
,
0000
0100
1000
0010
,
0001
0200
0000
0000
,
0300
2002
0000
0000
,
3003
0220
0000
0000
,
0330
2020
0000
0000
,
3030
0202
0000
0000
,
0303
0001
1000
0010
,
0000
1000
0001
0100
,
0000
0010
0100
0010
,
0000
2002
0000
0000
,
3003
1000
0001
0100
,
0010
1000
0001
0100
,
0010
1000
0010
0001
,
0000
0100
1000
0001
,
0000
0100
1000
0010
,
0001
1000
0010
0100
,
0001
1000
0010
1000
,
0000
0100
0001
1000
,
0010
1001
0000
0000
;

//--------------- dance-single - XLev450X-DSP ----------------
#NOTES:
     dance-single:
     XLev450X:
     Medium:
     8:
     0,0,0,0,0:
0000
0000
0000
0000
,
0000
0000
0000
0000
,
0000
0000
0000
0000
,
0000
0000
0000
0000
,
0000
0000
0001
1000
0010
0100
1000
0001
,
0010
0000
0100
1000
0010
1000
0100
0001
,
0010
0100
1000
0001
0010
0100
1000
0010
,
0101
0000
0010
0010
1000
0100
0010
1000
,
0010
0000
0000
0000
1000
0000
0001
0000
1000
0000
0010
0000
1000
0001
1000
0000
,
1000
0001
1000
0100
1000
0001
0010
0001
,
0101
0000
1000
0010
1000
0100
0001
0010
,
1000
0001
1000
0010
1000
0001
0100
1000
,
0001
0000
0001
1000
0100
0001
0010
1000
,
0001
0000
0000
0000
1000
0001
0100
0000
0010
0000
1000
0000
0001
0000
0010
0000
,
1000
0000
0000
0000
0100
0000
0001
0000
1000
0000
0001
0000
0010
0000
0100
1000
,
0001
2001
0001
0001
,
3001
0000
0001
0000
0001
0000
0010
0000
0100
0000
1000
0000
0100
0000
0010
0000
,
0002
0000
0000
0000
0000
0003
0000
0000
0001
0000
0000
0000
1000
0000
0000
0000
0010
0000
0000
0000
1000
0000
0000
0000
0100
0000
0000
0000
0001
0000
0000
0000
,
0010
0000
1000
0100
1000
0000
0010
0001
,
0020
0000
0000
0000
0000
0030
0000
0000
0010
0000
0000
0000
0100
0000
0000
0000
0010
0000
0000
0000
0000
0000
0000
0000
0001
0000
0000
0000
1000
0000
0000
0000
,
0001
0000
1000
0001
1000
0010
1000
0001
,
0200
0000
0000
0000
0000
0300
0000
0000
0010
0000
0000
0000
1000
0000
0000
0000
0001
0000
0000
0000
0010
0000
0000
0000
1000
0000
0000
0000
0000
0000
0000
0000
,
0001
0000
0100
1000
0100
0000
0001
0010
,
0002
0000
0000
0000
0000
0003
0000
0000
2002
0000
0000
0000
0000
0000
0000
0000
0000
0000
0000
0000
0000
0000
0000
0000
0000
0000
0000
0000
0000
0000
0000
0000
,
0000
3003
2010
0000
0000
0000
0000
0000
,
3000
0202
0000
0000
,
0303
0220
0000
0000
,
0330
2002
0000
0000
,
0000
3003
0001
1000
0010
0000
1000
0001
,
1000
0000
0010
0000
0100
0001
1000
0000
0010
0000
0000
0000
0001
0000
0010
0000
,
0001
0000
0000
0000
0100
0000
0010
0000
1000
0000
0001
0000
0010
0001
0100
0000
,
1000
0000
0100
0000
0001
0000
0000
0000
1000
0000
0000
0000
0002
0000
1003
0000
,
1001
1001
0010
1000
0100
1000
0001
0010
,
0200
0000
0000
0000
0000
0300
0000
0000
0001
0000
0000
0000
0010
0000
0000
0000
0100
0000
0000
0000
0000
0000
0000
0000
1000
0000
0000
0000
0001
0000
0000
0000
,
0010
1000
0001
0010
1000
0000
0100
1000
,
0200
0000
0000
0000
0000
0300
0000
0000
0010
0000
0000
0000
0100
0000
0000
0000
0001
0000
0000
0000
0010
0000
0000
0000
1000
0000
0000
0000
0001
0000
0000
0000
,
0010
0000
1000
0001
1000
0000
0010
1000
,
0020
0000
0000
0000
0000
0030
0000
0000
0100
0000
0000
0000
1000
0000
0000
0000
0001
0000
0000
0000
0100
0000
0000
0000
0010
0000
0000
0000
1000
0000
0000
0000
,
0001
0000
0010
0100
0010
0000
0001
0010
,
0002
0000
0000
0000
0000
0003
0000
0000
1000
0000
0000
0000
0100
0000
0000
0000
0001
0000
0000
0000
1000
0000
0000
0000
0010
0000
0000
0000
0100
0000
0000
0000
,
0002
0000
0000
0000
0000
0003
0000
0000
1001
0000
0000
0000
0000
0000
0000
0000
0000
0000
0000
0000
0000
0000
0000
0000
0000
0000
0000
0000
0000
0000
0000
0000
;

//--------------- dance-single - XLev450X-ESP ----------------
#NOTES:
     dance-single:
     XLev450X:
     Hard:
     13:
     0,0,0,0,0:
0000
0000
0000
0000
,
0000
0000
0000
0000
,
0000
0000
0000
0000
,
0000
0000
2001
0001
0001
0001
0001
0001
,
0001
0000
3001
0000
1000
0000
0010
0000
1000
0000
0100
0000
1000
0100
0001
0000
,
0010
0000
0100
0000
1000
0100
0001
0010
0100
0000
0001
0000
0100
0000
0001
0000
,
0202
0000
0303
0000
1000
0001
0010
0000
1000
0010
0100
0000
1000
0000
0100
0000
,
0001
0000
0000
0000
1000
0000
0010
0000
1000
0000
0100
0001
1000
0100
0001
1000
,
0020
0030
1000
0001
0010
0000
1000
0000
0100
0000
1000
0100
0001
0000
0010
0000
,
0001
0000
0100
0000
1000
0010
0001
0100
1000
0000
0010
0000
0100
0000
1000
0000
,
0002
1003
0010
1000
0001
0000
0100
1000
,
0100
0000
0000
0000
0010
1000
0001
0000
1000
0100
0001
0000
0100
0000
0010
0000
,
0200
0300
0010
0010
1000
0001
0100
0001
,
2000
0000
3000
0000
0001
0100
1000
0000
1000
0100
0001
0000
0010
0000
0100
0000
,
0020
0000
0030
0000
1000
0000
0010
0000
1000
0000
0100
0000
0001
1000
0010
0001
,
0200
0000
0000
0000
0310
0000
0000
0000
0100
0000
0000
0000
0001
0000
1000
0000
0001
0000
0100
0000
0010
0000
0000
0000
1000
0100
0001
0000
1000
0000
0001
0000
,
0010
0000
0000
0000
0010
0000
0000
0000
1000
0000
0000
0000
0001
0000
1000
0000
0100
0000
0001
0000
1000
0000
0000
0000
0001
0010
1000
0000
0100
0000
0010
0000
,
0002
0000
0000
0000
0000
0003
0000
0000
1000
0000
0000
0000
0010
0000
0000
0000
1000
0000
0000
0000
0100
0000
0000
0000
0001
0000
0100
0000
1000
0000
0000
0000
,
0010
0000
0000
0000
0001
0000
1000
0000
0100
0000
0000
0000
0010
0000
0001
0000
0100
0000
1000
0000
0010
0000
0000
0000
1000
0100
0010
0000
0001
0000
0100
0000
,
2000
0000
0000
0000
0000
3000
0000
0000
0010
0000
0000
0000
1000
0000
0000
0000
0001
0000
0000
0000
0100
0000
0000
0000
1000
0000
0100
0000
0001
0000
0000
0000
,
0010
0000
1000
0000
0001
0000
0100
0000
1000
0000
0000
0000
0001
0000
1000
0000
0100
0000
0001
0000
0010
0000
0000
0000
1000
0001
1000
0000
0001
0000
0010
0000
,
0200
0000
0301
0100
1000
0001
0100
0010
1000
0000
0001
1000
0010
0000
1000
0000
,
0001
0000
0010
0000
0001
0000
0000
0000
1000
0000
0000
0000
0010
0000
0001
0000
1000
0000
0010
0000
0100
0000
0000
0000
0001
1000
0100
0000
0010
0000
0001
0000
,
0200
0000
0000
0000
0000
0300
0000
0000
2002
0000
0000
0000
0000
0000
0000
0000
0000
0000
0000
0000
0000
0000
0000
0000
0000
0000
0000
0000
0000
0000
0000
0000
,
0000
3003
0210
0000
0000
0000
0000
0000
,
0310
0000
0000
0000
0000
0000
0000
0000
0022
0000
0000
0000
0000
0000
0000
0000
0000
0000
0000
0000
0000
0000
0000
0000
0000
0000
0000
0000
0000
0033
0000
0000
,
0202
0000
0303
0000
2200
0000
0000
0000
0000
0000
0000
0000
0000
0000
0000
0000
,
0000
3300
2001
0001
0000
0001
0000
3001
,
1001
0000
1001
0000
0001
0000
1000
0000
0010
0000
1000
0000
0001
0010
0001
0000
,
1000
0000
0100
0000
1000
0010
1000
0000
0001
0000
0010
0000
0100
0001
1000
0000
,
0010
0000
1000
0000
0010
0000
1000
0001
1000
0000
0010
0000
1000
0000
0100
1000
,
0001
0000
0000
0000
0000
0000
0000
0000
0010
0000
0000
0000
0000
0000
0000
0000
0100
0000
0000
0000
0000
0000
0000
0000
1000
0000
0000
0000
0000
0000
0000
0000
0001
0000
0000
0000
0000
0000
0000
0000
0010
0000
0000
0000
0000
0000
0000
0000
1000
0000
0000
0000
0000
0000
0000
0100
0000
0000
0000
0000
0001
0000
0000
0000
,
0110
0000
0000
0000
1010
0000
0000
0000
0001
0000
0000
0000
1000
0000
0001
0000
0010
0000
1000
0000
0001
0000
0000
0000
1000
0100
0001
0000
0010
0000
0100
0000
,
2000
0000
0000
0000
0000
3000
0000
0000
0001
0000
0000
0000
0100
0000
0000
0000
0001
0000
0000
0000
0010
0000
0000
0000
1000
0000
0010
0000
0001
0000
0000
0000
,
0100
0000
0000
0000
1000
0000
0001
0000
0010
0000
0000
0000
0100
0000
1000
0000
0010
0000
0001
0000
0100
0000
0000
0000
0001
0010
0100
0000
1000
0000
0010
0000
,
0002
0000
0000
0000
0000
0003
0000
0000
0100
0000
0000
0000
0001
0000
0000
0000
1000
0000
0000
0000
0010
0000
0000
0000
0001
0000
0010
0000
1000
0000
0000
0000
,
0100
0000
0001
0000
1000
0000
0010
0000
0001
0000
0000
0000
1000
0000
0001
0000
0010
0000
1000
0000
0100
0000
0000
0000
0001
1000
0001
0000
1000
0000
0100
0000
,
0020
0000
1030
0010
0001
1000
0010
0100
0001
0000
1000
0001
0100
0000
0001
0000
,
1000
0000
0100
0000
1000
0000
0000
0000
0001
0000
0000
0000
0100
0000
1000
0000
0001
0000
0100
0000
0010
0000
0000
0000
1000
0001
0010
0000
0100
0000
1000
0000
,
0020
0000
0000
0000
0000
0030
0000
0000
0001
0000
0000
0000
1000
0000
0001
0000
0010
0000
1000
0000
0100
0000
0000
0000
0001
1000
0001
0000
1000
0000
0100
0000
,
0020
0000
0030
0000
1001
0000
0000
0000
0000
0000
0000
0000
0000
0000
0000
0000
;
