#TITLE:High Speed Junkie!;
#ARTIST:BEMANI Sound Team "KE!JU";
#ARTISTTRANSLIT:KE!JU;
#MUSIC:High Speed Junkie!.ogg;
#BANNER:High Speed Junkie!.png;
#BACKGROUND:High Speed Junkie!-bg.png;
#CDTITLE:./CDTITLES/POP'N MUSIC.PNG;
#SAMPLESTART:94.643;
#SAMPLELENGTH:15;
#SELECTABLE:YES;
#OFFSET:-0.041;
#BPMS:0=175
,273=177
,274=180
,275=182
,276=185;
#DISPLAYBPM:175:185;
#BGSTAGE:28;

//--------------- dance-single - XLev450X-bSP ----------------
#NOTES:
     dance-single:
     XLev450X:
     Beginner:
     5:
     0,0,0,0,0:
0000
0000
0000
0000
,
0000
0000
0000
0000
,
0000
0000
0000
0000
,
0000
0000
0000
0000
,
0000
0000
0000
0000
,
0000
0000
0000
0000
,
0000
0000
0000
0000
,
0000
0000
0000
0000
,
0000
0000
0000
0000
,
0000
0000
0000
0000
,
0001
0001
0001
0000
,
1000
1000
1000
0000
,
0010
0010
0010
0000
,
0100
0100
0100
0000
,
0001
1000
0010
0100
,
0000
0001
1000
0010
,
0100
0001
1000
0010
,
2002
0000
0000
3003
,
0010
0100
0001
0000
,
1000
0010
0100
0000
,
1000
0000
0001
0000
,
0100
0000
0010
0000
,
1000
0000
0000
0000
,
0001
0000
0000
0000
,
0010
0000
0100
0000
,
0001
0000
0000
0000
,
0010
0010
0010
0000
,
0001
0001
0001
0000
,
1000
0000
1000
0000
,
1000
0000
0000
0000
,
0100
0100
0100
0000
,
0010
0010
0010
0000
,
1000
0000
0001
0000
,
0010
0000
0000
0000
,
0100
0000
0001
0000
,
1000
0000
0000
0000
,
0100
0000
0010
0000
,
0001
0000
0000
0000
,
1000
1000
1000
0000
,
0001
0001
0001
0000
,
0010
0010
0010
0010
,
0100
0000
1000
0000
,
0001
0000
0000
0000
,
0100
0000
0000
0000
,
0010
0000
1000
0000
,
0001
0000
0000
0000
,
0100
0000
0000
0000
,
1000
0000
0000
0000
,
0010
0000
0100
0000
,
0001
0000
0000
0000
,
2002
0000
0000
0000
,
0000
0000
0000
3003
,
0010
0000
0000
0000
,
0100
0000
0000
0000
,
0001
0000
0000
0000
,
1000
0000
0000
0000
,
0010
0000
0010
0000
,
0010
0000
0000
0000
,
0100
0000
0100
0000
,
0100
0000
0000
0000
,
0001
0000
0001
0000
,
0001
0000
0000
0000
,
1000
0000
1000
0000
,
1000
0000
0000
0000
,
0010
0010
0010
0000
,
0100
0100
0100
0000
,
0001
0001
1000
0001
,
0100
0000
0010
0000
,
2002
0000
0000
3003
,
0010
0010
0010
0000
,
0100
0100
0100
0000
,
0001
0000
1000
0000
,
0010
0000
0100
0000
,
0001
0001
0010
0000
,
0100
0100
1000
0000
,
0010
0000
0100
0000
,
2002
0000
0000
3003
,
0010
0100
0001
0000
,
1000
0010
0100
0000
,
1000
0000
0001
0000
,
0100
0000
0010
0000
,
1000
0001
1000
0000
,
0010
0100
0001
0000
,
1000
0000
0100
0000
,
0010
0000
1000
0000
,
2002
0000
3003
0000
;

//--------------- dance-single - XLev450X-BSP ----------------
#NOTES:
     dance-single:
     XLev450X:
     Easy:
     8:
     0,0,0,0,0:
0000
0000
0000
0000
,
0000
0000
0000
0000
,
0000
0000
0000
0000
,
0000
0000
0000
0000
,
0000
0000
0000
0000
,
0000
0000
0000
0000
,
0000
0000
0000
0000
,
0000
0000
0000
0000
,
0000
0000
0000
0000
,
0000
0000
0000
0000
,
0010
0100
0001
0000
,
1000
0010
0100
0000
,
0010
1000
0001
0100
,
0010
1000
0001
0000
,
0010
0100
1000
0000
,
0010
0100
0001
0000
,
0010
1000
0100
0010
0001
0010
1000
0100
,
2002
0000
0000
3003
,
0010
0000
0100
0001
,
1000
0000
0100
0000
,
0001
0000
0010
0100
,
1000
0000
0100
0000
,
0010
0000
0001
1000
,
0010
0000
0100
0000
,
0001
0000
0010
0000
,
1000
0000
0100
0000
,
0010
0000
1000
0000
,
0001
0100
0010
0000
,
1000
0000
0001
0100
,
0010
0000
1000
0000
,
0100
0000
0010
1000
,
0001
0100
0010
0000
,
1000
0000
0010
0100
,
0001
0000
0010
0000
,
0001
1000
0010
0100
,
0001
0010
1000
0001
,
0100
0010
1000
0001
,
0100
0000
0010
0000
1000
0100
0001
0100
,
0010
0100
0001
1000
,
0010
0100
0001
1000
,
0010
0100
0001
1000
,
0010
0000
0100
0000
0001
0010
1000
0100
,
0010
0000
0100
0000
,
0001
0000
0010
0000
,
1000
0000
0100
0000
0010
0000
0001
0010
,
0000
0100
1000
0001
0100
0000
0000
0000
,
0010
0001
0010
0000
,
0100
1000
0010
0000
,
0100
0001
1000
0010
,
0200
0000
0000
0300
0002
0000
0003
0000
,
2002
0000
0000
0000
,
0000
0000
0000
0000
0000
3003
0000
0000
,
0010
0000
0000
0000
,
0100
0000
0000
0000
,
1000
0000
0000
0000
,
0001
0000
0000
0000
,
0010
0000
0010
0000
,
0100
0000
0001
0000
,
1000
0000
0000
0000
,
0010
0000
0100
0000
,
0001
0000
1000
0000
,
0010
0000
0100
0000
,
0001
0000
1000
0000
,
0020
0000
0000
0030
,
1000
0010
0100
0000
,
0001
1000
0010
0000
,
0100
0001
1000
0010
,
0100
0000
0001
0000
1000
0100
0010
0000
,
0200
0000
0000
0000
0000
0000
0000
0300
,
0001
1000
0010
0100
,
0001
1000
0010
0100
,
0001
1000
0010
0100
,
0001
0000
1000
0000
0010
0001
0100
0000
,
0001
0000
1000
0000
,
0010
0100
0001
0000
,
1000
0010
0100
0000
,
0001
1000
0010
0000
,
0120
0000
0000
0000
0000
0000
0030
0001
,
1000
0100
0001
1000
0010
0000
0000
0000
,
0100
0000
0001
0000
,
1000
0010
0100
0000
,
0001
1000
0010
0100
,
0001
1000
0010
0100
,
0001
1000
0010
0100
,
0001
0010
0100
1000
0100
0010
0001
0010
,
2002
0000
3003
0000
;

//--------------- dance-single - XLev450X-DSP ----------------
#NOTES:
     dance-single:
     XLev450X:
     Medium:
     11:
     0,0,0,0,0:
0000
0000
0000
0000
,
0000
0000
0000
0000
,
0000
0000
0000
0000
,
0000
0000
0000
0000
,
0000
0000
0000
0000
,
0000
0000
0000
0000
,
0000
0000
0000
0000
,
0000
0000
0000
0000
,
0000
0000
0000
0000
,
0000
0000
0000
0000
,
0010
0000
1000
0000
0001
0100
0010
0000
,
1000
0000
0001
0000
0100
0010
1000
0000
,
0001
0000
0100
0000
0010
1000
0001
0000
,
0100
0010
1000
0001
,
0100
0010
1000
0001
0100
0010
1000
0001
,
0100
0010
1000
0001
0100
0010
1000
0001
,
1000
0000
0000
0100
0000
0000
0010
0000
0000
0001
0100
0000
0010
0000
0100
0000
,
2002
0000
0000
0000
0000
0000
0000
3003
,
0010
0000
1000
0000
0001
0100
0010
0000
,
1000
0001
0100
0000
0010
1000
0100
0000
,
0001
0000
1000
0000
0010
0100
0001
0000
,
1000
0010
0100
0001
1000
0010
0100
0001
,
1000
0000
0010
0000
0100
0000
0001
0100
,
1000
0010
1000
0000
0010
0000
0100
0000
,
0001
1000
0010
0100
,
0001
1000
0010
0100
0001
1000
0010
0000
,
0100
0000
0000
0000
0000
0000
1000
0000
0000
0100
0000
0000
0001
0000
0010
0000
0100
0000
0000
0000
0001
0000
0100
0000
,
1000
0100
0010
0001
0010
0100
2000
0000
0000
0010
3000
0000
,
0100
0000
0000
0000
0000
0000
1000
0000
0000
0010
0000
0000
0001
0000
0100
0000
1000
0000
0010
0000
0001
0000
0100
0000
,
1000
0100
0001
0010
1000
0010
0200
0000
0000
0001
0300
0000
,
0001
0000
0000
0000
0000
0000
0010
0000
0000
0100
0000
0000
1000
0000
0001
0000
0100
0000
0010
0000
1000
0000
0001
0000
,
0100
0010
1000
0001
0100
0010
1000
0100
0001
0010
1000
0001
,
0100
0001
1000
0000
0010
0100
0001
0000
,
1000
0000
0000
0000
0010
0000
0000
0000
0100
0000
1000
0100
0010
0001
0010
0100
,
1000
0000
0010
0000
0100
0001
1000
0010
,
0100
0001
1000
0010
0100
0001
1000
0010
,
0100
0000
0001
0000
1000
0010
0100
0001
,
1000
0010
0100
0001
1000
0000
0010
0000
,
0100
0000
0001
0000
1000
0010
0100
0001
,
1000
0000
0010
0000
0100
0001
1000
0000
,
0010
0001
0100
1000
0001
0010
1000
0100
,
0020
0000
1000
0000
0100
0000
0001
0030
,
0010
0000
1000
0000
0001
0100
0010
1000
,
0000
0001
0100
0010
0000
0001
0000
1000
,
0010
0000
0010
0100
0001
1000
0010
0100
,
0000
0001
0000
2000
0000
3000
0100
0001
,
0010
0000
0100
0000
0001
1000
0010
0000
,
0100
0000
0001
0000
1000
0001
0100
0000
,
0010
1000
0001
0100
0010
1000
0001
0000
,
0100
0000
0010
0000
1000
0001
0100
0000
,
2002
0000
0000
0000
,
0000
0000
0000
0000
0000
0000
0000
3003
,
0010
0000
1000
0001
0100
0000
0000
0010
,
0000
1000
0001
0100
,
0000
0010
1000
0001
,
0100
0000
0010
0000
1000
0001
0100
0000
,
0010
1000
0001
0100
,
0010
1000
0001
0000
0100
0010
1000
0000
,
0001
0000
0100
0000
0010
0001
0010
0000
,
1000
0000
0010
0000
0010
0100
1000
0000
,
0001
0000
0100
0000
0010
1000
0001
0000
,
0100
0000
0010
0000
0001
0010
0001
0000
,
1000
0010
0100
0000
1000
0001
0100
0000
,
0010
1000
0001
0100
0010
0000
1000
0000
,
0001
0100
0010
1000
,
0001
0100
0010
1000
,
0001
0100
0010
1000
0001
0100
0010
1000
,
0001
0100
0010
0001
1000
0001
0100
0000
,
0001
0010
0100
1000
0000
0220
0000
0330
,
0010
0000
1000
0000
0001
0100
0010
0000
,
1000
0000
0001
0000
0100
0010
1000
0000
,
0001
0100
0010
1000
0001
0100
0010
1000
,
0001
0100
0010
0001
,
0010
0001
0010
0000
1000
0100
0000
1000
,
0010
0100
0000
0001
1000
0010
0100
0000
,
0001
1000
0010
0100
0001
1000
0010
0100
,
2002
0000
0000
0000
0000
0000
0000
3003
,
0200
0000
0010
0000
0001
0000
1000
0300
,
0010
0000
0100
0000
0001
0000
0010
0000
0100
0000
0000
0000
0010
0100
0001
1000
,
0010
0000
1000
0000
0001
0000
0100
0010
,
0000
1000
0000
0001
0000
0000
0100
0000
,
0010
0000
1000
0000
0001
0100
0010
0000
,
1000
0000
0001
0000
0100
0010
0001
0000
,
1000
0010
0100
0001
1000
0010
0100
0000
,
0001
1000
0010
0100
0001
1000
0010
0100
,
2002
0000
0000
3003
0000
0000
0000
0000
;

//--------------- dance-single - XLev450X-ESP ----------------
#NOTES:
     dance-single:
     XLev450X:
     Hard:
     17:
     0,0,0,0,0:
0000
0000
0000
0000
,
0000
0000
0000
0000
,
0000
0000
0000
0000
,
0000
0000
0000
0000
,
0000
0000
0000
0000
,
0000
0000
0000
0000
,
0000
0000
0000
0000
,
0000
0000
0000
0000
,
0000
0000
0000
0000
,
0000
0000
0000
0000
,
1000
0001
0100
0000
0010
0000
1000
0000
,
0001
0100
0010
0000
1000
0000
0001
0000
,
0100
0010
1000
0000
0001
0000
0100
0000
,
0010
1000
0001
0000
0100
0000
0010
0000
,
0100
1000
0010
1000
0100
1000
0100
0010
,
0001
1000
0001
0100
0010
1000
0010
1000
,
0100
0010
0100
1000
0001
0010
0100
1000
0001
0100
0001
1000
0100
0010
0001
0100
,
0020
0000
0000
0000
0000
0030
0000
0000
0100
0000
0010
0000
0001
0000
1000
0000
0010
0000
0100
0000
0001
0000
1000
0000
0022
0000
0000
0000
0000
0000
0033
0000
,
0100
0000
0010
0000
0001
0000
1000
0000
0010
0000
0100
0010
0001
0010
0100
0000
,
0100
1000
0010
0100
0010
1000
0001
0100
0001
0000
1000
0000
0010
0000
0100
0000
,
0010
0000
1000
0000
0100
0000
0010
0000
0100
1000
0001
0010
0100
0000
1000
0000
,
0100
0010
0001
1000
0010
1000
0001
0100
0001
0000
0100
0000
0010
0000
1000
0000
,
0100
0000
0010
0000
0001
0000
1000
0000
0010
1000
0100
0010
0001
0000
0010
0000
,
0100
0010
0001
0100
0010
1000
0010
1000
0001
0000
1000
0000
0001
0000
0100
0000
,
0001
0100
0010
1000
0001
0010
0100
1000
,
0220
0000
0000
0000
0000
0000
0000
0000
0000
0000
0000
0000
0000
0330
0000
0000
,
1100
0000
0000
0011
0000
0000
0001
1000
0100
0010
0001
0100
,
0001
0000
1000
0001
0100
0000
1000
0000
0001
0000
0100
0000
0001
0000
0010
1000
0100
0000
1000
0000
0001
0000
0100
0000
,
1010
0000
0000
1001
0000
0000
0100
0010
0100
1000
0100
0010
,
0001
0000
0010
1000
0100
0000
1000
0000
0010
0000
1000
0000
0010
0000
1000
0000
0100
0000
0010
0000
0001
0000
1000
0000
,
0011
0000
0000
0110
0000
0000
0010
0100
0010
1000
0001
0010
,
0001
0000
1000
0100
0001
0000
0010
0000
0100
0000
1000
0000
0100
0000
1000
0010
0001
0000
0010
0000
0100
0000
1000
0000
,
0110
0000
0011
0000
0010
1000
0100
0010
,
0100
0000
1000
0000
0001
0000
0010
0000
0100
0010
0100
1000
0010
0100
0001
0100
,
0001
0000
0010
0000
0100
0010
0001
0100
,
0001
0000
0100
0000
0010
0000
0100
0000
0001
0000
0100
0001
0100
1000
0001
0100
,
0010
1000
0001
0100
0010
1000
0001
0100
,
0010
0000
1000
0000
0010
0000
1000
0000
0001
0000
0010
0000
0100
0010
0001
1000
,
0001
1000
0010
0100
0001
0010
0100
1000
,
0001
0000
1000
0000
0001
0000
0100
0000
0010
0000
1000
0000
0010
0100
0001
1000
,
0100
0010
0001
0100
0010
1000
0100
0010
,
0200
0000
0001
0000
0010
0000
0001
0300
,
0100
0010
0100
1000
0001
0010
0001
0010
0100
1000
0001
1000
0001
0100
0001
0010
,
0100
0010
0100
0010
0001
1000
0001
0100
0001
1000
0100
1000
0010
1000
0100
0000
,
0000
0100
0010
1000
0001
0100
0010
0100
,
0000
0000
1000
0000
0010
0000
1000
0000
0000
0000
0010
0000
0100
1000
0001
1000
,
0001
1000
0010
1000
0010
0100
0010
1000
,
0001
0100
0001
0100
0001
1000
0100
0000
,
0001
0010
0100
1000
0001
0100
0010
0100
,
0010
0100
0001
0010
0001
1000
0100
0010
0100
1000
0010
0100
0001
1000
0001
0010
,
0202
0000
0000
0000
,
0000
0000
0000
0000
0000
0000
0303
0000
0100
0010
0001
0010
0100
1000
0010
1000
,
0010
0000
0100
0000
0010
0000
1000
0000
0001
0000
1000
0010
0000
0000
0000
0000
,
0010
0000
0100
0000
0001
0000
0100
1000
0000
0000
1000
0000
0001
0000
0100
0010
,
0001
0000
0001
0010
0100
1000
0010
0100
,
0001
0000
0100
0000
0010
0000
0100
0010
0001
0000
1000
0000
0001
0000
0010
1000
,
0001
0000
0000
0000
0010
0000
1000
0000
0001
0000
1000
0010
0000
0000
0000
0000
,
0010
0000
0100
0000
0001
0000
0100
1000
0000
0000
1000
0000
0001
0000
0000
0000
,
0000
0000
0001
0010
0100
1000
0010
0100
,
0001
0000
0100
0000
0010
0000
0100
0010
0001
0000
1000
0000
0001
0000
0010
1000
,
0100
0001
0100
0000
0010
0000
1000
0000
,
0001
0100
0010
0000
1000
0000
0001
0000
,
0100
0010
1000
0000
0001
0000
0100
0000
,
0010
1000
0001
0000
0100
0000
0010
0000
,
0100
0010
0100
1000
0001
0100
0010
0100
,
0001
1000
0010
1000
0010
0100
0001
0010
,
0100
1000
0010
0100
0010
1000
0010
1000
0100
1000
0100
0010
0100
1000
0001
0100
,
0010
1000
0001
0010
0100
1000
0100
0010
0001
1000
0010
0100
0001
0010
0100
0010
,
1000
0000
0010
0000
0100
0000
0001
0000
0000
0000
0220
0000
0000
0330
0000
0000
,
0001
0010
0100
1000
0010
0100
0010
1000
,
0100
0000
0010
0000
0001
0000
0100
0000
0010
0100
0001
0010
0100
0000
1000
0000
,
0100
0010
0001
0100
0001
1000
0010
0100
,
0001
0000
0100
0000
0010
0000
1000
0000
0010
0100
0001
1000
0010
1000
0001
0010
,
0001
0100
0010
0100
0010
0100
0001
1000
,
0100
0010
0100
1000
0001
0100
0010
1000
,
0001
0100
0001
1000
0100
0010
0001
0010
,
0200
0000
0000
0000
0000
0000
0000
0000
0000
0000
0000
0300
0000
0000
0000
0000
,
0100
1000
0001
0100
0010
1000
0001
0100
,
0010
0000
1000
0000
0100
0000
0010
0000
0000
0000
1000
0000
0100
0010
0001
1000
,
0001
1000
0100
1000
0001
0010
0100
1000
,
0000
0000
0110
0000
0000
0000
1001
0000
0000
0000
1000
0000
0100
1000
0100
0010
,
0001
0000
0100
0000
0010
0000
1000
0000
0001
0000
1000
0000
0100
0001
0010
1000
,
0100
0000
0010
0000
0100
0000
0010
0000
0100
0000
1000
0000
0010
1000
0001
0010
,
0100
1000
0001
0010
0100
1000
0010
0100
0010
1000
0001
1000
0001
0010
0001
0100
,
0010
0100
0001
0100
0001
1000
0100
0010
0001
1000
0001
0010
0100
1000
0001
0010
,
2002
0000
0000
0000
,
0000
0000
0000
0000
,
3003
0000
0000
0000
;
