#TITLE:Here We Go (RGR-Special);
#ARTIST:Ozomatli;
#BANNER:Here We Go (RGR-Special).png;
#BACKGROUND:Here We Go (RGR-Special)-bg.png;
#CDTITLE:./CDTitles/DDR X PS2 US.png;
#MUSIC:Here We Go (RGR-Special).ogg;
#SAMPLESTART:9.394;
#SAMPLELENGTH:15;
#BPMS:0=99;
#STOPS:114=1.207;
#BGSTAGE:4;

//--------------- dance-single - XLev450X ----------------
#NOTES:
     dance-single:
     XLev450X:
     Challenge:
     13:
     0,0,0,0,0:
0000
0000
0000
0000
,
0000
0000
0000
0000
,
0000
0000
0000
0000
,
0000
0000
0000
0000
0000
0000
0000
0000
0000
0000
0000
0000
0000
0000
0001
0010
,
0001
0000
1000
0010
1000
0000
0010
0100
0010
0000
1001
0000
1001
0000
0000
0000
,
0010
0000
1000
0000
0010
0000
1000
0000
0001
0000
0000
0000
0100
0000
0000
0000
1000
0000
0000
0000
0001
0000
0010
0000
0001
0000
0000
0000
1000
0000
0001
1000
,
0001
0000
0000
0000
0000
0000
0000
0000
1010
0000
0000
0000
0000
0000
1000
0100
0001
0000
0000
0000
1000
0000
0000
0000
0010
0000
0000
0000
0000
0000
0000
0000
,
0010
0000
0001
0010
0001
0000
1000
0000
0100
0000
1000
0100
1000
0000
0001
0000
,
0010
0100
0010
1000
0001
0010
1000
0100
0001
0010
0001
0020
0000
0030
1000
0010
,
1000
0000
0000
0100
0000
0000
0010
0000
0001
0000
0000
0000
1000
0000
0100
0010
0100
0000
1000
0000
0001
0000
0100
0000
1000
0000
0000
0000
0000
0000
1000
0100
,
0001
0000
0000
1000
0000
0000
0010
0000
0000
0001
0000
0000
1000
0000
0000
0100
0000
0000
0001
0000
0000
1000
0000
0000
0010
0000
0000
0001
0000
0000
0010
0000
0000
0100
0000
0000
1000
0000
0000
0000
0001
0000
0000
0000
0100
0000
0000
0000
,
0010
0000
0001
1000
0010
0000
1000
0000
0100
0000
1000
0100
1000
0000
0001
0000
,
0010
0100
1000
0001
1000
0000
0010
0000
1000
0010
1000
0001
0010
0000
0001
0000
,
1000
0000
0100
1000
0100
0000
0001
0000
0010
0000
0100
0010
0100
0000
0001
0000
,
0010
0000
0001
0000
0010
0000
0100
0000
1000
0000
0010
0000
1000
0000
0100
0000
0001
0000
0000
0000
1000
0000
0000
0000
0001
0000
0000
0000
0001
1000
0001
1000
,
0001
0000
1000
0001
0100
0000
1000
0010
1000
0000
1000
0000
0001
0000
0010
0000
,
0001
0000
0010
0000
0001
0000
1000
0000
0000
0000
0000
0000
0001
0000
0100
1000
0100
0000
0000
0000
0001
0000
0000
0000
0010
0000
0000
0000
0100
0000
0001
0000
,
1000
0000
1000
0100
0001
0000
0001
1000
0010
0000
0010
0000
1000
0000
0001
0000
,
1000
0010
1000
0001
0100
0000
1000
0000
0001
0000
1000
0010
1000
0000
0001
0000
,
0101
0000
0000
0000
0001
0000
0000
0000
0110
0000
0000
0000
0010
0000
0000
0000
1000
0000
0000
0000
0001
0000
0000
0000
1001
0000
0000
0000
1000
0100
0010
0001
,
1000
0000
0010
0000
1000
0000
0100
0000
1000
0100
1000
0000
0010
0000
0001
0000
,
0010
0001
0010
0000
1000
0010
1000
0000
0010
0100
0010
0000
0100
0000
0001
0000
,
0001
0000
0000
0000
1000
0000
0000
0000
0010
0000
1000
0000
0010
0000
0000
0000
1000
0000
0000
0000
0100
0000
0000
0000
1000
0000
0100
0000
1000
0000
0100
0010
,
0001
0000
0000
0000
0000
0000
0000
0000
0000
0000
0000
0000
1000
0000
0000
0000
0000
0000
0000
0000
0000
0000
0000
0000
0001
0000
0000
0000
0000
0000
0000
0000
0000
0000
0000
0000
0100
0000
0000
0000
0000
0000
0000
0000
0000
0000
0000
0000
0001
0000
0000
0000
0000
0000
0000
0000
0000
0000
0000
0000
1000
0000
0000
0000
0000
0000
0100
0000
0000
0001
0000
0000
0100
0000
0000
0000
0000
0000
0000
0000
0001
0000
0000
0000
0000
0000
0000
0000
0100
0000
0000
0000
0000
0000
0000
0000
,
1000
0000
0001
0000
1000
0000
0100
0000
1000
0000
0001
0010
0001
0000
1000
0000
,
1000
0000
0001
1000
0010
0000
1000
0000
0010
0000
0001
0010
0001
0000
0010
0000
,
1000
0010
1000
0000
0001
0000
0010
0000
0100
0010
0100
0000
0001
0000
0010
0000
,
0001
0010
0001
0000
1000
0010
1000
0000
0001
0000
0010
0000
1000
0000
0001
0000
,
0100
0000
0000
0000
0000
0000
0000
0000
0000
0000
0000
0000
0000
0000
0000
0000
0000
0000
0000
0000
0000
0000
0000
0000
1000
0000
0000
0000
0000
0000
0000
0000
0000
0000
0000
0000
0000
0000
0000
0000
0000
0000
0000
0000
0000
0000
0000
0000
0001
0000
0000
0000
0000
0000
0000
0000
0000
0000
0000
0000
0000
0000
0000
0000
0000
0000
0000
0000
0000
0000
0000
0000
0010
0000
0000
0000
0000
0000
0000
0000
0000
0000
0000
0000
0100
0000
0000
0000
0000
0000
0000
0000
0000
0000
0000
0000
2002
3003
0000
0000
0000
0000
0000
0000
0000
0000
0000
0000
0000
0000
0000
0000
0000
0000
0000
0000
0000
0000
0000
0000
0000
0000
0000
0000
0000
0000
0000
0000
0000
0000
0000
0000
0000
0000
0000
0000
0000
0000
0000
0000
0000
0000
0000
0000
0000
0000
0000
0000
0000
0000
0000
0000
0000
0000
0000
0000
0000
0000
0000
0000
0000
0000
0000
0000
0000
0000
0000
0000
0000
0000
0000
0000
0000
0000
0000
0000
0000
0000
0000
0000
0000
0000
0000
0000
0000
0000
0000
0000
0000
0000
0000
0000
,
0001
0000
0000
1000
0010
0000
0001
0000
0010
0001
0010
0000
1000
0000
0100
0000
,
1000
0000
0001
0100
0010
0000
1000
0000
0010
1000
0010
1000
0001
0000
0010
0000
,
0100
0000
1000
0000
0001
0000
0010
0000
0001
0010
0001
0000
1000
0000
0100
0000
,
1000
0000
0010
1000
0010
0000
0100
0001
1000
0000
0001
0010
0001
0000
1000
0010
,
1000
0000
0000
0000
0100
0000
0000
0000
1000
0000
0000
0000
0001
0000
0000
0000
1000
0000
0010
0000
1000
0000
0100
0000
0000
0000
0000
0000
0001
0000
0010
0100
,
1000
0000
0100
0000
1000
0000
0001
0010
0001
0000
1000
0100
1000
0000
0010
0100
,
0010
0000
1000
0000
0100
0000
0001
0000
0010
0000
1000
0001
1000
0000
0001
1000
,
0010
0000
1000
0000
0010
0000
1000
0001
0100
1000
0001
0010
0001
0000
1000
0100
,
1000
0000
0010
0000
1000
0000
0100
1000
0100
0010
0001
0010
0001
0000
1000
0000
,
0010
0000
1000
0000
0100
0000
1000
0010
1000
0100
0001
0010
0001
0000
0100
1000
,
0010
0100
0001
0010
0001
0000
1000
0000
,
0010
0000
0000
0000
1001
0000
0000
0000
0202
0000
0000
0303
0000
0000
0000
0000
0000
0000
0000
0000
0000
0000
0000
0000
0000
0000
0000
0000
0000
0000
0000
0000
;
