#TITLE:Here In The Moment;
#ARTIST:Ruby Tuesday;
#BANNER:Here In The Moment.png;
#BACKGROUND:Here In The Moment-bg.png;
#MUSIC:Here In The Moment.ogg;
#OFFSET:0.340;
#SAMPLESTART:65.008;
#SAMPLELENGTH:15;
#BPMS:0=115;
#BGCHANGES:0.625=Here In The Moment.avi=1.000=1=1=0,
99999=-nosongbg-=1.000=0=0=0 // don't automatically add -songbackground-;

//--------------- dance-single - XLev450X-bSP ----------------
#NOTES:
     dance-single:
     XLev450X:
     Beginner:
     2:
     0,0,0,0,0:
0000
0000
0000
0000
,
0000
0000
0000
0000
,
0000
0000
0000
0000
,
0000
0000
0000
0000
,
0000
0000
0000
0000
,
0000
0010
0000
0000
,
0000
0100
0000
0000
,
0000
0010
0000
0000
,
0000
2002
0000
0000
,
3003
0020
0000
0000
,
0030
1000
0000
0001
,
0000
1000
0000
0000
,
0000
1010
0000
0000
,
0000
0101
0000
0000
,
0000
0001
0000
0001
,
0000
0001
0000
0000
,
0000
2000
0000
3000
,
0000
0200
0000
0300
,
0000
0010
0000
0001
,
0000
0010
0000
0000
,
0000
1000
0000
0100
,
0000
1000
0000
0000
,
0000
0010
0000
0100
,
0000
0010
0000
0000
,
0000
0001
0000
0000
,
0000
1000
0000
0000
,
0000
0010
0000
0000
,
0000
0100
0000
0000
,
0000
0001
0000
0000
,
0000
1000
0000
0000
,
0000
0001
0000
0000
,
0000
2002
0000
0000
,
3003
0010
0000
0010
,
0000
0100
0000
0000
,
0000
1000
0000
1000
,
0000
0001
0000
0000
,
0000
0010
0000
1000
,
0000
0100
0000
1000
,
0000
0020
0000
0030
,
0000
0002
0000
0003
,
0000
1000
0000
0010
,
0000
0100
0000
1000
,
0000
0010
0000
0001
,
0000
1000
0000
0001
,
0000
0200
0000
0000
,
0000
0310
0000
0000
,
0000
0110
0000
0000
;

//--------------- dance-single - XLev450X-BSP ----------------
#NOTES:
     dance-single:
     XLev450X:
     Easy:
     5:
     0,0,0,0,0:
0000
0000
0000
0000
,
0000
0000
0000
0000
,
0000
0000
0000
0000
,
0000
0000
0000
0000
,
0000
0000
0000
0000
,
0000
0001
1000
0000
,
0010
1000
0100
0000
,
0001
1000
0010
0000
,
0100
2002
0000
0000
,
0000
3003
2000
0000
0001
0000
0000
0000
,
3001
0010
1000
0100
,
0001
0001
1000
0000
,
1000
0010
0100
0010
,
0000
1000
0001
1000
,
0000
0010
1000
0100
,
0001
1000
0010
1000
,
0000
0000
0000
0000
2000
0000
0000
3100
0000
0000
0000
0000
0002
0000
0000
0013
,
0000
0000
0000
0000
0200
0000
0000
0310
0000
0000
0000
0000
0020
0000
0000
0130
,
0000
0001
1000
0100
,
0010
1000
0001
0100
,
0000
0010
0001
1000
,
0010
1000
0001
0100
,
0000
0010
1000
0010
,
0000
0100
0001
1000
,
0000
0002
0100
0000
,
0103
2000
0010
0000
,
3010
0020
1000
0000
,
1030
0200
0001
0000
,
0301
0000
1000
0000
0010
0000
0001
0010
,
0001
0000
1000
0000
0010
0000
1000
0010
,
0100
0200
0010
0310
,
1000
0002
0000
0000
,
2000
0000
0000
3003
0010
0000
0000
0000
1000
0000
0000
0000
0001
0000
0010
0000
,
0100
1000
0010
1000
,
0000
0000
1000
0000
0001
0000
0100
0010
,
0100
1000
0001
0100
,
0000
1000
0010
0010
,
0010
0001
0100
0100
,
0100
0002
1003
2000
,
3100
0020
0100
0000
,
0100
0130
0001
0000
1000
0000
0010
0000
,
1000
0000
0001
0010
0001
0000
1000
0100
,
1000
0010
1000
0100
,
0001
0010
1000
0010
,
0000
0000
0000
0000
2000
0000
0000
3100
0000
0000
0000
0000
0002
0000
0000
0103
,
0000
2002
0000
0000
,
3003
0000
0000
0000
0000
0000
0002
0000
0000
0000
0000
0000
1000
0000
0000
0000
0000
0000
0000
1000
0000
0000
0000
0000
,
0000
0000
1000
0000
0000
0000
0000
0000
0000
2000
0000
0000
0000
0000
0000
0000
0000
0000
0000
0000
0000
0000
0000
0000
,
0000
0000
0000
0000
3003
0000
0000
0000
;

//--------------- dance-single - XLev450X-DSP ----------------
#NOTES:
     dance-single:
     XLev450X:
     Medium:
     9:
     0,0,0,0,0:
0000
0000
0000
0000
,
0000
0000
0000
0000
,
0000
0000
0000
0000
,
0000
0000
0000
0000
,
0000
0000
0000
0000
,
0000
0000
0010
0000
1000
0000
0010
0100
,
0010
0000
0001
0000
1000
0000
0010
1000
,
0010
0000
0001
0000
0100
0000
0001
0010
,
0001
0000
0000
0010
0001
0100
1000
0100
0010
0001
0000
1000
,
0001
0010
2000
0000
0001
0000
0000
0000
,
3001
0000
0010
0000
1000
0000
0001
0100
,
1000
0010
0100
1000
,
0001
0000
0000
0000
1000
0000
0100
0001
0000
1000
0000
0010
0000
1000
0000
0010
,
1000
0000
0010
0000
0100
0000
0001
1000
0000
0010
0000
0001
0000
1000
0000
0100
,
0010
0000
0001
0000
1000
0000
0000
0010
0000
0000
0001
0000
0000
1000
0000
0000
,
0001
0000
0100
0000
0010
0000
0000
1000
0000
0000
0001
0000
0000
0100
0000
0000
,
0010
0000
1000
0000
0002
0000
0000
0013
0000
0000
0000
0000
2000
0000
0000
3100
,
0000
0000
0000
0000
0020
0000
0000
0130
0000
0000
0000
0000
0200
0000
0000
0310
,
0200
0300
0001
0000
1000
0000
0010
1000
,
0100
0000
0001
0000
0100
0000
0001
0010
,
0001
0000
1000
0010
0100
0000
1000
0100
,
1000
0000
0001
0010
0001
0000
0100
1000
,
0001
0010
1000
0000
0001
0000
0100
1000
,
0010
0000
0001
0000
1000
0000
0010
1000
,
0010
0001
0001
0000
,
1000
0100
1000
0010
,
1000
0100
0001
0000
1000
0000
0000
0000
,
0010
0000
1000
0001
0001
1000
0010
0100
,
1000
0000
0001
0000
1000
0000
0100
1000
,
0100
0000
0010
0000
1000
0000
0010
0100
,
0010
0000
0000
1000
0000
0000
0001
0000
0000
1000
0001
1000
,
0100
0000
0001
0000
1000
0000
0200
0000
0000
0000
0000
0000
0000
0000
0000
0000
0000
0000
0000
0000
0000
0300
0000
0000
,
1000
0100
0010
0001
0010
0000
1000
0000
0001
0000
0000
0000
0010
0000
1000
0000
,
0001
0100
1000
0001
0010
0000
0100
1000
,
0100
1000
0010
0000
0100
0001
1000
0000
,
0001
1000
0200
0000
0001
0000
0001
0000
,
0301
0000
1000
0010
1000
0000
0001
0000
,
0100
0000
1000
0001
1000
0000
0010
0100
,
0010
0000
2000
0000
3100
0010
0002
0000
,
0103
1000
0020
0000
0100
0000
0100
0000
,
0130
0000
0001
0000
1000
0000
0001
1000
,
0010
0000
0100
0000
1000
0000
0010
1000
,
0100
0001
1000
0001
,
0010
0000
0100
0000
1000
0000
0001
1000
,
0001
0000
0000
0000
2000
0000
0000
3100
0000
0000
0010
0000
0002
0000
0000
0013
,
0000
1000
0220
0000
0000
0000
0330
0000
,
0000
0000
0000
0000
0000
0000
0001
0000
0000
0010
0000
0000
0001
0000
0000
0000
0000
0000
0000
0000
0000
0000
0000
0000
2000
0000
0000
0000
0000
0000
0000
0000
0000
0000
0000
0000
3000
0000
0020
0000
0000
0000
0000
0000
0000
0000
0030
0000
,
0000
0000
0200
0000
0000
0000
0300
0000
0000
2002
0000
0000
0000
0000
0000
0000
0000
0000
0000
0000
0000
0000
0000
0000
,
0000
0000
0000
0000
3003
0000
0000
0000
;

//--------------- dance-single - XLev450X-ESP ----------------
#NOTES:
     dance-single:
     XLev450X:
     Hard:
     12:
     0,0,0,0,0:
0000
0000
0000
0000
,
0000
0000
0000
0000
,
0000
0000
0000
0000
,
0000
0000
0000
0000
,
0000
0000
0000
0000
,
0000
0000
0001
0000
1000
0010
1000
0000
,
0001
0100
0001
0000
0010
0000
1000
0001
,
1000
0010
1000
0000
0100
0000
1000
0001
,
1000
0000
0000
0010
0000
0000
0001
0000
0010
0000
0100
0000
1000
0000
0001
0000
0010
0000
0200
0000
0000
0000
1000
0000
,
1300
0011
0002
0000
1000
0000
1000
0000
,
1000
0000
0003
0000
0010
0000
1000
0100
0001
1000
0000
0010
0000
1000
0000
0010
,
1000
0001
0010
1000
0200
0000
0000
0000
0310
0000
1000
0001
0020
0000
0000
0000
,
0130
0000
0000
0000
0001
0000
0010
1000
0000
0001
0000
0100
0000
0001
0000
0100
,
0001
0000
0100
0000
0010
0000
1000
0001
0000
0100
0000
1000
0000
0001
0000
0010
,
0100
0000
1000
0000
0001
0000
0000
0100
0000
0000
1000
0000
0000
0001
0000
0000
,
1000
0000
0010
0000
0100
0000
0000
0001
0000
0000
1000
0000
0000
0010
0000
0000
,
0100
1000
0001
0010
2000
0000
0000
3100
0000
0000
0000
0000
0002
0000
0000
0013
,
0000
0000
0000
0000
0200
0000
0000
0310
0000
0000
0000
0000
0020
0000
0000
0130
,
0020
0030
0001
1000
0010
0001
1000
0010
,
0100
0000
0001
0010
0001
1000
0010
0100
,
0001
1000
0000
0001
1000
0010
0000
1000
,
0100
0001
0000
1000
0010
1000
0001
0100
,
0010
0000
1000
0000
0001
0000
0100
0010
,
1000
0000
0001
0000
0010
0000
1000
0000
0001
0000
0000
0000
0100
0001
1000
0000
,
0001
0100
1000
0001
0010
0000
0000
0000
1000
0000
0000
0000
0100
0000
1000
0000
,
0100
0000
0001
0100
1000
0001
0010
0000
,
0101
0000
1000
0010
1010
0000
0010
0100
,
0110
0000
0001
1000
0001
0100
1000
0001
,
0010
0000
0100
1000
0101
0000
0010
0100
,
0110
0000
1000
0010
1010
0000
0001
0010
,
0001
0000
0000
0000
0000
0000
1000
0000
0000
0001
0000
0000
0100
0000
0000
1000
0000
0000
0001
0000
0010
0000
0100
0000
,
1000
0000
0000
0000
1000
0000
0000
0000
0100
0000
0000
0000
0020
0000
0000
0000
0000
0000
0100
0000
0000
0000
0000
0000
0000
0000
0000
0100
0000
0000
0000
0000
0000
0000
0000
0000
0100
0000
0000
0000
0000
0000
0000
0000
0000
0130
0000
0000
,
0001
0000
1000
0000
0001
0010
1000
0000
0100
0000
0000
0000
0001
0000
0000
0000
1000
0000
0000
0000
0010
0000
0000
0000
0100
0000
0000
0000
1000
0000
0000
0000
,
0101
0000
0010
1000
0010
0100
1000
0010
,
0101
0000
0010
0000
0001
0000
1000
0000
0000
0001
0000
0000
0100
0000
0000
0010
,
0000
2000
0000
0010
0000
3100
0001
1000
,
0010
0100
1000
0000
0001
0100
0010
1000
,
0001
0000
0010
1000
0010
0000
0100
1000
,
0001
0010
0002
0100
0103
0000
2000
0010
,
3010
0000
0020
0000
0100
0000
0100
0100
,
0130
0000
0000
0000
0001
0000
1000
0000
0010
0000
0000
0100
0000
0001
0000
1000
,
0010
0000
0000
0000
0001
0000
1000
0000
0010
0000
0000
0100
0000
1000
0000
0001
,
0010
0000
0000
0000
1000
0000
0001
0000
0100
0000
0000
1000
0000
1000
0000
0001
,
0010
0000
1000
0000
0010
0000
0100
0000
1000
0000
0000
0001
0000
1000
0000
0010
,
1000
0100
0001
1000
0002
0000
0000
0013
0000
0010
0100
1000
2000
0000
0000
3100
,
0000
0100
0001
1000
0220
0000
0000
0000
0000
0000
0000
0000
0330
0000
0000
0000
,
0000
0000
0000
0000
0000
0000
1000
0000
0000
0100
0000
0000
2000
0000
0000
0000
0000
0000
0000
0000
0000
3000
0000
0000
0002
0000
0000
0000
0000
0000
0000
0000
0000
0000
0000
0000
0003
0000
0200
0000
0000
0000
0000
0000
0000
0000
0300
0000
,
0000
0000
0020
0000
0000
0000
0030
0000
0000
2002
0000
0000
0000
0000
0000
0000
0000
0000
0000
0000
0000
0000
0000
0000
,
0000
0000
3003
0000
;
