#TITLE:Help me, ERINNNNNN!! (2024 ver.);
#ARTIST:ビートまりお;
#ARTISTTRANSLIT:beatMARIO;
#MUSIC:Help me, ERINNNNNN!! (2024 ver.).ogg;
#BANNER:Help me, ERINNNNNN!! (2024 ver.).png;
#BACKGROUND:Help me, ERINNNNNN!! (2024 ver.)-bg.png;
#SAMPLESTART:86.336;
#SAMPLELENGTH:15;
#OFFSET:-0.066;
#BPMS:0=185;
#BGSTAGE:3;

//--------------- dance-single - XLev450X-bSP ----------------
#NOTES:
     dance-single:
     XLev450X:
     Beginner:
     4:
     0,0,0,0,0:
0000
0000
0000
0000
,
0000
0000
0000
0000
,
0000
0000
0000
0000
,
0000
0000
0000
0000
,
0000
0000
0000
0000
,
0000
0000
0000
0000
,
0000
0000
0001
1000
,
0001
0000
0010
1000
,
0010
0000
0010
0100
,
0010
0000
1001
0000
,
0000
0000
0001
0000
,
0000
0000
1000
0000
,
0000
0000
0001
0000
,
0010
1000
0010
0000
,
0000
0000
0100
0000
,
0001
0000
1000
0010
,
1000
0000
0001
0000
,
1000
0000
0001
0000
,
0000
0000
0100
0000
,
0010
0000
1000
0000
,
0000
0000
0001
0000
,
0010
0000
0100
0000
,
0000
0000
1000
0000
,
0001
0000
0100
0000
,
0000
0000
0001
0000
,
1000
0000
0001
0000
,
0000
0000
0010
0000
,
1000
0000
0100
0000
,
0000
0000
0010
0000
,
1000
0000
0010
0000
,
0000
0000
0001
0000
,
0010
0000
1000
0000
,
0000
0000
1000
0000
,
0100
0000
0001
0000
,
0000
0000
0001
0000
,
1000
0000
0001
0000
,
0000
0000
0010
0000
,
1000
0000
0010
0000
,
0000
0000
0100
0000
,
0010
0000
0100
0000
,
0000
0000
0001
0000
,
1000
0000
0001
0000
,
0000
0000
0001
0000
,
1000
0000
0010
0000
,
0100
0000
0001
0000
,
1000
0000
0001
0000
,
0000
0000
0010
0000
,
1000
0000
0100
0000
,
0010
0000
0001
0000
,
0100
0000
0010
0000
,
0000
0000
1000
0000
,
1000
0000
0001
0000
,
0100
0000
0010
0000
,
1000
0000
0010
0000
,
0000
0000
0001
0000
,
0001
0000
1000
0000
,
0100
0000
0001
0000
,
0010
0000
1000
0000
,
0000
0000
1001
0000
,
0000
0000
0000
0000
,
0000
0000
0010
0000
,
0100
0000
0010
0000
,
0000
0000
0110
0000
,
0000
0000
0000
0000
,
0000
0000
1000
0000
,
0001
0000
1001
0000
,
0000
0000
0001
0000
,
1000
0000
0010
0100
,
0010
0000
1000
0000
,
0001
0000
0010
0001
,
0010
0000
1000
0000
,
0100
0000
0010
0100
,
0010
0000
1000
0000
,
0001
0000
1000
0000
,
0000
0000
0010
0000
,
0010
0000
1000
0010
,
1000
0000
0100
0000
,
0001
0000
0010
0001
,
0010
0000
0100
0000
,
1000
0000
1000
0001
,
1000
0000
0010
0000
,
0100
0000
0010
0100
,
0010
0000
0001
0000
,
0001
0000
1000
0000
,
0000
0000
1000
0000
,
0100
0000
0001
0000
,
0000
0000
0010
0000
,
0010
0000
0010
0000
,
0000
0000
1000
0000
,
1000
0000
1000
0000
,
0000
0000
0001
0000
,
0001
0000
0001
0000
,
0000
0000
0100
0000
,
0100
0000
0100
0000
,
0000
0000
0010
1000
,
0010
0000
0001
0010
,
0001
0000
0100
1000
,
0100
0000
0001
0000
,
1000
0000
0001
0000
,
0000
0000
0010
0000
,
1000
0000
0010
0000
,
0000
0000
0100
0000
,
0010
0000
0100
0000
,
0000
0000
0001
0000
,
1001
0000
0000
0000
;

//--------------- dance-single - XLev450X-BSP ----------------
#NOTES:
     dance-single:
     XLev450X:
     Easy:
     7:
     0,0,0,0,0:
0000
0000
0000
0000
,
0000
0000
0000
0000
,
0000
0000
0000
0000
,
0000
0000
0000
0000
,
0000
0000
0000
0000
,
0000
0000
0000
0000
,
0000
0000
0001
1000
,
0001
0000
0010
0100
,
0010
0000
1000
0010
,
1000
0000
1001
0000
,
0000
0000
0001
0000
,
1000
0000
0001
0000
,
0100
0000
0000
0010
,
1000
0000
0001
0000
0010
0000
0100
0010
,
0100
0000
0001
0010
,
1000
0000
0001
0100
,
1000
0001
1000
0010
,
0100
1000
0001
1000
,
0001
0000
0010
0010
,
1000
0000
0100
0010
,
0100
0000
0001
0010
,
1000
0000
0100
0000
0001
0000
0010
0001
,
0010
0000
1000
0100
,
1000
0001
0100
0010
,
1000
0000
0100
1000
,
0001
0100
0010
1000
,
0001
0000
0001
1000
,
0100
1000
0010
0100
,
0010
0000
0001
0010
,
0001
1000
0010
0100
,
1000
0000
0001
1000
,
0001
0100
0010
1000
,
0001
0000
0001
1000
,
0001
0100
0010
1000
,
0010
0000
0010
0010
,
1000
0100
0001
0010
,
0100
1000
0001
1000
,
0100
0001
0010
0100
,
1000
0000
0010
1000
,
0100
0001
0010
0100
,
1000
0001
0100
0010
,
1000
0000
0000
0000
0001
0000
0000
0000
1000
0000
0000
0001
0000
0000
0100
0000
,
0001
1000
0010
1000
,
0010
0000
0001
0010
,
0001
1000
0100
0001
,
0010
0000
0100
0100
,
1000
0001
1000
0001
,
0010
0000
0001
0010
,
1000
0000
1000
0100
,
0001
0010
0100
1000
,
0001
0000
0001
0001
,
1000
0001
0010
1000
,
0010
0000
0010
0010
,
1000
0010
1000
0000
0001
0000
0010
0000
,
0001
0000
1000
0100
,
0001
1000
0001
0100
,
0001
0000
1000
0010
,
0100
0000
1000
0000
0010
1000
0010
0000
,
0001
0000
0001
1000
,
0001
0000
0000
0000
0100
0000
0000
0000
1000
0000
0000
0001
0000
0000
0100
0000
,
0010
1000
0001
0100
,
0010
0000
1000
0000
0010
1000
0010
0000
,
0001
0010
0001
0000
1000
0000
0001
0000
,
0100
0000
0000
0000
1000
0000
0000
0000
0001
0000
0000
0100
0000
0000
0010
0000
,
1000
0001
1000
0001
,
0100
0000
0000
0000
0001
0000
0000
0000
1000
0000
0000
0001
0000
0000
0100
0000
,
0010
1001
0001
1000
,
0001
0000
0010
1000
,
0010
0000
0010
0100
,
0010
0001
0010
0001
,
1000
0000
0001
0001
,
1000
0000
0100
1000
,
0100
0000
0001
0100
,
1000
0010
0100
1000
,
0001
0000
0010
0000
,
1000
0100
0001
0000
,
0001
0100
1000
0000
,
0001
0010
1000
0100
,
0001
0000
0010
0000
,
1000
0000
0010
0100
,
1000
0000
0001
0001
,
1000
0001
0100
0000
,
0001
0000
1000
0001
,
1000
0000
0010
0010
,
0100
0000
1000
0001
,
0100
0000
0010
0000
,
1000
0000
0001
0000
,
1000
0000
0001
0000
,
0100
0000
1000
0000
,
0010
0000
0100
0001
,
0100
0000
0001
0000
,
1000
0000
0010
0000
,
0100
0000
0001
0000
,
1000
0000
0001
1000
,
0001
0000
0010
0000
,
0100
0000
1000
0000
,
0001
0000
0010
1000
,
0010
0000
0001
0010
,
0001
0000
0100
0000
,
1000
0000
0001
1000
,
0001
1000
0001
0010
,
0100
1000
0001
0100
,
0010
1000
0001
1000
,
0010
0100
0010
0100
,
1001
0000
0000
0000
,
0110
0000
0000
0000
;

//--------------- dance-single - XLev450X-DSP ----------------
#NOTES:
     dance-single:
     XLev450X:
     Medium:
     11:
     0,0,0,0,0:
0000
0000
0000
0000
,
0000
0000
0000
0000
,
0000
0000
0000
0000
,
0000
0000
0000
0000
,
0000
0000
0000
0000
,
0000
0000
0000
0000
,
0000
0000
0001
0000
,
1000
0000
0010
1000
,
0010
0000
0001
0100
,
1000
0010
2002
0000
,
0000
3003
0000
0000
2000
0000
0000
0000
,
3002
0000
0203
0000
,
0320
0000
0030
0001
,
1000
0000
0010
0000
1000
0010
1000
0000
,
0001
0010
0001
0000
1000
0000
0100
0000
,
1000
0000
0001
0100
,
0010
0000
1000
0010
,
1000
0100
0001
0010
,
1000
0001
1000
0001
,
0010
0000
1000
0100
,
1000
0010
1000
0000
0010
0000
0001
0000
,
0100
1000
0101
0010
,
1010
1001
0001
1000
,
0010
1000
0010
1000
,
0100
0001
1000
0001
,
1000
0010
0200
0000
,
0000
0300
0001
1000
,
0010
1000
0010
0000
0001
0000
0010
0000
,
0100
0010
0100
0000
0001
0000
0010
0000
,
0001
0010
0001
0000
1000
0000
0001
0000
,
1000
0010
1000
0000
0010
0000
0100
0000
,
0010
0100
0010
0000
0001
0000
0010
0000
,
1000
0001
1000
0000
0010
1000
0010
0000
,
0010
0100
0001
1000
,
0001
0000
1000
1000
,
0001
0100
0010
1000
,
0010
1000
0010
0000
0001
0000
0010
0000
,
0001
0010
0001
0000
1000
0000
0100
0000
,
1000
0010
1000
0000
0010
0000
0100
0000
,
0010
0100
0010
0000
0001
0000
1000
0000
,
1000
0001
1000
0000
0001
0000
1000
0000
,
0001
0100
0002
0000
,
0000
0003
1000
0010
,
1000
0100
0010
1000
,
0100
0000
0001
0000
0010
0000
1000
0010
,
1000
0000
0001
0100
0001
0000
1000
0000
,
0001
0000
0001
1000
,
0010
0100
1000
0001
,
0010
0000
1000
0100
,
1000
0000
0010
0000
0100
0010
0100
0000
,
0001
0000
0001
1000
,
0001
1000
0010
1000
,
1001
0000
1000
0010
,
0100
1000
0001
0010
,
0100
0000
0001
0010
,
0100
1000
0001
0100
,
0010
0000
1000
0100
,
1000
0001
0010
0100
,
1000
0000
0001
0000
,
1000
0000
0001
0100
,
1000
0000
0001
1000
,
0010
1000
0100
1000
,
0001
1000
0001
0000
0010
0000
0000
0000
,
1000
0000
0000
0000
0000
0000
0000
0000
0100
0000
0000
0001
0000
0000
0100
0000
,
1000
0001
1000
0010
,
0100
0000
1000
0000
0010
0000
0000
0000
0001
0000
0000
1000
0000
0000
0001
0000
,
0100
0010
0001
1000
,
0001
0000
0010
1000
,
0100
0001
0010
0100
,
1000
0010
1000
0000
1010
0000
0010
0000
,
0110
0001
1000
0001
,
1000
0010
0100
0001
,
0010
0000
1000
0100
,
0010
0000
1000
0000
0001
0010
0001
0000
,
1000
0100
1000
0000
0001
0000
1000
0000
,
0001
1000
0010
0100
,
0001
1000
0001
0000
0010
0000
0100
0000
,
1000
0001
0011
0010
,
0110
1010
0010
1000
,
0001
0000
1000
0000
0001
1000
0001
0000
,
0010
1000
0100
0010
,
1000
0001
1000
0000
,
0000
0000
0001
1000
,
0100
0001
1000
0010
,
1000
0010
1000
0000
0100
0000
1000
0000
,
0001
0000
0010
0000
0100
0010
0100
0000
,
0001
0000
0010
0000
0001
0010
0001
0000
,
1000
0010
1000
0000
0010
0000
0100
0000
,
1000
0000
0000
0000
1000
0010
1000
0000
,
0010
0100
0010
0000
0001
0000
0010
0000
,
0001
0000
1000
0001
,
1000
0000
0001
1000
,
0100
0000
0010
1000
,
0100
0000
0010
0001
,
0010
0000
1000
0100
,
1000
0001
0010
1000
,
0101
0000
1000
0001
,
1000
0000
0001
0000
1000
0001
1000
0000
,
0010
0100
0010
0000
1000
0000
0001
0000
,
1000
0001
0010
1000
,
0100
0001
1000
0001
,
1000
0001
1000
0000
0001
0000
1000
0000
,
0001
0000
1000
0000
0010
0100
0010
0000
,
0010
1000
0010
0000
0001
0010
0001
0000
,
1001
0000
0000
0000
,
0220
0000
0000
0000
,
0000
0000
0000
0000
,
0330
0000
0000
0000
;

//--------------- dance-single - XLev450X-ESP ----------------
#NOTES:
     dance-single:
     XLev450X:
     Hard:
     14:
     0,0,0,0,0:
0000
0000
0000
0000
,
0000
0000
0000
0000
,
0000
0000
0000
0000
,
0000
0000
0000
0000
,
0000
0000
0000
0000
,
0000
0000
0000
0000
,
0000
0000
0001
1000
,
0010
1000
0100
0000
1000
0000
0010
0000
,
0001
1000
0010
0000
0001
1000
0010
0001
,
1000
0000
0010
0000
0100
0000
0010
0000
1000
0000
0000
0001
0000
0000
0100
0000
,
0020
0000
0000
0000
0200
0000
0000
0330
0002
0000
0000
0000
0003
0000
0000
0000
,
0020
0030
1000
0100
,
0002
0000
0000
0000
2000
3003
0010
0000
,
1000
0100
0001
0010
1000
0000
0001
0000
,
0010
1000
0010
0000
0010
1000
0010
1000
,
0010
0000
0001
0000
0010
0001
0010
0000
,
0010
1000
0010
0000
0100
1000
0001
0100
,
0001
1000
0010
0000
1000
0000
0001
0000
,
0010
0000
1000
0000
0010
1000
0010
0000
,
0001
0000
0010
0000
0100
1000
0100
0001
,
0010
0000
1000
0000
0001
1000
0001
1000
,
0010
1000
0010
1000
0010
0000
0101
0000
,
0010
0000
1010
0000
0010
1000
0010
0000
,
0010
0000
0001
0000
0100
1000
0100
0001
,
0010
0000
1000
0000
0010
1000
0010
0000
,
0001
1000
0001
1000
,
0001
1000
0001
0000
1000
0000
0010
0000
,
1000
0010
1000
0000
0010
0001
0010
0000
,
1000
0010
1000
0000
0010
0100
0010
0000
,
0001
0010
0001
0000
1000
0001
1000
0000
,
0010
1000
0010
0000
1000
0000
0100
0000
,
0001
0010
0001
0000
1000
0100
0001
0000
,
1000
0010
1000
0000
0010
1000
0001
0100
,
1000
0001
0010
1000
0010
0000
0100
0000
,
0001
1000
0001
1000
,
0001
1000
0001
0000
1000
0010
1000
0000
,
0010
0000
0010
0000
0001
0010
0001
0000
,
0010
1000
0010
0000
0010
0000
0100
0000
,
1000
0001
1000
0000
0001
0100
0001
0000
,
1000
0000
0001
0000
1000
0010
1000
0000
,
0010
0000
0100
0000
1000
0001
1000
0000
,
0001
1000
0010
0000
1000
0000
0001
0100
,
1000
0001
0200
0300
0001
0000
1000
0000
,
0010
0000
0010
0000
1000
0010
1000
0010
,
0000
0001
0010
0001
1000
0000
0100
0000
,
1000
0001
1000
0001
0000
0010
0000
1000
,
0000
0100
1000
0000
0010
0000
0100
0000
,
1000
0010
1000
0000
0010
0000
0100
0000
,
0001
0010
0001
0000
0100
0000
1000
0000
,
0001
1000
0001
0000
1000
0000
0010
0000
,
1000
0000
0010
0000
0010
1000
0010
0000
,
0010
0001
0010
0000
1000
0100
1000
0001
,
1000
0010
1000
0000
0010
0000
1000
0000
,
0001
0010
0001
0000
1000
0010
1000
0010
,
0100
0101
0001
1000
,
0001
1000
0001
0000
0010
0000
1000
0000
,
0100
0000
1000
0000
0010
1000
0010
0000
,
0010
0100
0010
0000
0001
0010
0001
1000
,
0001
0100
1000
0000
0001
0000
0100
0000
,
1000
0000
0010
0000
1000
0010
0000
0100
,
0001
1000
0001
1000
,
0001
0000
1000
0000
0010
1000
0010
0100
,
1000
0001
0010
0000
1000
0000
0101
0000
,
0010
0000
0000
0000
1010
0000
0000
0000
0010
0000
0000
0100
0000
0000
0001
0000
,
0010
1000
0001
0000
0010
0000
1000
0000
,
0001
0000
0100
0000
0010
0000
0000
0000
0001
0000
0000
1000
0000
0000
0010
0000
,
0100
0000
2002
3003
0001
1000
0010
0000
,
0010
0000
1000
0000
0010
0000
0000
0000
0001
0000
1000
0000
0100
0000
1000
0001
,
0010
1000
0010
1000
0001
0010
1000
0100
,
1000
0001
0010
1000
0202
0303
2020
3030
,
0220
0330
2002
3003
0001
1000
0001
0000
,
0010
1000
0010
0000
0010
0001
1000
0010
,
0100
0000
1010
0000
0010
1000
0010
0000
,
0001
0010
1000
0001
0100
0000
1000
0000
,
0001
0000
0100
0000
1000
0001
1000
0001
,
1000
0010
1000
0010
1000
0100
1000
0010
,
1000
0000
0010
1000
0001
0000
0010
0000
0001
0000
1000
0000
0100
0000
1000
0000
,
0001
0000
0010
0001
1000
0000
0001
0000
0200
0000
0300
0000
2002
0000
0000
3003
,
0220
0000
0000
0330
2020
0000
3030
0000
0010
0000
1000
0000
0010
0000
1000
0000
,
0010
0000
1000
0100
0001
0000
1000
0000
0001
0000
0000
0000
0010
0000
0000
0000
,
1000
0001
1000
0000
0010
1000
0010
0100
,
1000
0001
0010
1000
0001
0000
0100
0000
,
1000
0001
1000
0000
0010
0000
1000
0000
,
0100
1000
0010
1000
0010
0000
0001
0000
,
0001
0000
1000
0000
0010
1000
0010
0000
,
0010
0001
0010
0000
1000
0100
1000
0001
,
0010
1000
0010
0000
0101
0000
0010
0000
,
1010
0000
0010
0000
0001
1000
0001
1000
,
0010
0100
1000
0000
1010
0000
0011
0000
,
0101
0000
1001
0000
0010
1000
0010
1000
,
0100
1000
0010
0000
0001
0000
1000
0000
,
0001
0000
1000
0010
1000
0000
0010
0000
,
0100
0001
1000
0000
,
0001
0000
0010
1000
0010
0000
0000
0000
,
0100
0000
0001
1000
0001
0000
1000
0000
,
0001
1000
0010
0000
,
0100
0000
0001
0000
1000
0001
1000
0000
,
0010
1000
0010
0000
0001
0000
1000
0000
,
0001
1000
0101
0010
,
1000
0000
0001
0000
1000
0000
0001
1000
,
0001
0000
1000
0000
0010
1000
0010
0000
,
0010
0100
0010
0000
0001
1000
0001
1000
,
0010
1000
0010
0100
1000
0000
0001
0000
,
1000
0001
1000
0000
0100
1000
0001
0000
,
0110
0000
0000
0000
,
2002
0000
0000
0000
,
0000
0000
0000
0000
,
3003
0000
0000
0000
;
