#TITLE:Heartbeat, Heartbreak;
#ARTIST:平田志穂子;
#ARTISTTRANSLIT:Shihoko Hirata;
#MUSIC:Heartbeat, Heartbreak.ogg;
#BANNER:Heartbeat, Heartbreak.png;
#BACKGROUND:Heartbeat, Heartbreak-bg.png;
#SAMPLESTART:29.373;
#SAMPLELENGTH:15;
#OFFSET:-0.048;
#BPMS:0=100;
#BGSTAGE:31;

//--------------- dance-single - XLev450X-bSP ----------------
#NOTES:
     dance-single:
     XLev450X:
     Beginner:
     3:
     0,0,0,0,0:
0000
0000
0000
0000
,
0000
0000
0000
0000
,
0000
0000
0000
0000
,
0000
0000
0000
0000
,
0000
0010
0010
0010
,
0000
1000
1000
1000
,
0000
0001
0001
0001
,
0000
0100
0100
0100
,
0000
0010
0001
0010
,
0000
0100
1000
0100
,
0000
0010
1000
0001
,
0000
0100
1000
0001
,
0000
0101
0000
0000
,
0000
1010
0000
0000
,
0000
1100
0000
0000
,
0000
0101
0000
0000
,
0000
0011
0000
0000
,
0000
0110
0000
0000
,
0000
1100
0000
0000
,
0000
1001
0000
0000
,
0000
0001
0010
0100
,
0000
1000
0100
0010
,
0000
0001
1000
0001
,
0000
0100
0010
0100
,
0000
1000
0100
0001
,
0000
0010
1000
0100
,
0000
0010
0001
0010
,
0000
1000
0001
1000
,
0000
0101
0000
1010
,
0000
1100
0000
0110
,
0000
0011
0000
0110
,
0000
1100
0000
1001
,
0000
0100
0100
0100
,
0000
0001
0001
0001
,
0000
1000
1000
1000
,
0000
0010
0010
0010
,
0000
0100
1000
0100
,
0000
0010
0001
0010
,
0000
0100
0001
1000
,
0000
0010
0001
1000
,
0000
1010
0000
0000
,
0000
0101
0000
0000
,
0000
0011
0000
0000
,
0000
1010
0000
0000
,
0000
1100
0000
0000
,
0000
0110
0000
0000
,
0000
0011
0000
0000
,
0000
1001
0000
0000
,
0000
1000
0100
0010
,
0000
0001
0010
0100
,
0000
1000
0001
1000
,
0000
0010
0100
0000
;

//--------------- dance-single - XLev450X-BSP ----------------
#NOTES:
     dance-single:
     XLev450X:
     Easy:
     6:
     0,0,0,0,0:
0000
0000
0000
0000
,
0000
0000
0000
0000
,
0000
0000
0000
0000
,
0000
0000
0000
0000
,
0000
1000
0001
0100
,
1000
0000
0001
0010
0001
0000
0100
0010
,
0100
1000
0001
1000
,
0100
0010
0101
1000
,
1010
0000
0001
1000
0001
0000
0010
0001
,
0010
0000
0000
0000
0000
0000
1000
0000
0000
0001
0000
0000
0100
0000
0000
0010
,
0000
1000
0000
0000
0001
0000
1000
0000
,
0100
0000
0001
0000
1000
0001
0000
0000
,
0000
0011
0000
1010
,
0000
0110
1100
0011
,
0000
0101
0000
1010
,
0000
0000
1100
0000
0000
0000
1001
0000
0000
0110
0000
0000
0011
0000
0000
1001
,
0000
0001
1000
0010
,
0000
0000
1000
0000
0100
0000
0001
0010
,
0001
1000
0010
1000
,
0000
0000
1000
0000
0100
0000
0010
0100
,
0010
0001
1000
0100
,
0001
0000
0010
0000
0000
0000
1000
0000
0000
0001
0000
0000
0100
0000
0000
0001
,
0000
1000
0001
0100
,
0010
0000
1000
0000
0000
0000
0001
0000
0000
1000
0000
0000
0001
0000
0000
0100
,
0000
0000
0001
0000
1000
0000
0010
0100
,
0010
0000
0001
0000
1000
0000
0100
1000
,
0010
0000
0001
0000
1000
0000
0010
0000
,
0100
0000
0001
0000
0000
0000
1000
0000
0000
0010
0000
0000
0100
0000
0000
0001
,
0000
0000
0101
0000
0000
0000
1010
0000
,
0000
0000
0110
0000
0000
0000
1100
0000
,
0000
0000
0011
0000
0000
0000
0110
0000
,
0000
0000
1100
0000
0000
0000
1001
0000
,
0000
0001
1000
0010
,
0001
0000
1000
0100
1000
0000
0010
0100
,
0010
0001
1000
0001
,
0010
0100
1010
0001
,
0101
0000
1000
0001
1000
0000
0100
1000
,
0100
0000
0000
0000
0000
0000
0001
0000
0000
1000
0000
0000
0010
0000
0000
0100
,
0000
0001
0000
0000
1000
0000
0001
0000
,
0010
0000
1000
0000
0001
1000
0000
0000
,
0000
1100
0000
0101
,
0000
0110
0011
1100
,
0000
1010
0000
0101
,
0000
0000
0011
0000
0000
0000
1001
0000
0000
0110
0000
0000
1100
0000
0000
1001
,
0000
1000
0001
0100
,
0000
0000
0001
0000
0010
0000
1000
0100
,
1000
0001
0100
0001
,
0000
0000
0001
0000
0010
0000
0100
0010
,
0100
1000
0001
0010
,
1000
0000
0100
0000
0000
0000
0001
0000
0000
1000
0000
0000
0010
0000
0000
1000
,
0000
0001
1000
0010
,
0100
0000
0001
0000
0000
0000
1000
0000
0000
0001
0000
0000
1000
0000
0000
0010
;

//--------------- dance-single - XLev450X-DSP ----------------
#NOTES:
     dance-single:
     XLev450X:
     Medium:
     8:
     0,0,0,0,0:
0000
0000
0000
0000
,
0000
0000
0000
0000
,
0000
0000
0000
0000
,
0000
0000
0000
0000
,
0000
0000
0000
0000
1000
0000
0000
0000
0001
0000
0000
0100
0000
0000
0010
0000
,
1000
0000
0001
0000
1000
0000
0001
1000
,
0001
0000
0000
0000
0100
0000
0000
0000
0010
0000
0000
1000
0000
0000
0001
0000
,
0100
0000
0000
0000
0010
0000
0000
1000
0000
0000
0001
0000
0000
0000
0100
0000
,
0000
0001
0000
0000
1000
0000
0000
0000
0010
0000
0000
0100
0000
0000
0001
0000
,
0010
0000
1000
0000
0001
1000
0000
0010
,
0100
0000
0000
0000
0001
0000
0000
0000
1000
0000
0000
0010
0000
0000
0100
0000
,
0001
0000
1000
0000
0001
0100
0000
0010
,
0000
1000
0000
0000
0101
0000
0000
1010
0000
0000
0000
0000
0110
0000
0000
0011
,
0000
0000
1100
0000
0000
0000
1001
0000
0000
1010
0000
0000
0110
0000
0000
0011
,
0000
0000
0000
0000
1001
0000
0000
0101
0000
0000
0000
0000
0101
0000
0000
1010
,
0000
0000
0110
0000
0000
0000
1010
0000
0000
0110
0000
0000
0011
0000
0000
1001
,
0000
0000
0000
0000
1010
0000
0000
0101
0000
0000
0000
0000
1001
0000
0000
0110
,
0000
0000
1001
0000
0000
0000
0011
0000
0000
0110
0000
0000
1001
0000
0000
1010
,
0000
0000
0000
0000
1010
0000
0000
0110
0000
0000
0000
0000
0011
0000
0000
1100
,
0000
0000
1001
0000
0000
0000
1010
0000
0000
0110
0000
0000
0011
0000
0000
1001
,
0000
0000
0001
0000
1000
0000
0010
1000
,
0010
0000
0100
0000
0000
0000
0001
0000
0000
1000
0000
0000
0001
0000
0000
0100
,
0000
0010
0001
0010
0100
0000
1000
0001
,
1000
0000
0010
0000
0000
0000
1000
0000
0000
0100
0000
0000
0001
0000
0000
0010
,
0000
0000
0000
0000
1000
0000
0000
0001
0000
0000
0000
0000
0100
0000
0000
0010
,
0000
0000
1000
0000
0000
0000
0101
0000
0000
1010
0000
0000
0110
0000
0000
1001
,
0000
0000
0000
0000
0001
0000
0000
1000
0000
0000
0000
0000
0100
0000
0000
1000
,
0000
0000
0001
0000
0000
0000
0100
0000
0000
0010
0000
0000
1000
0000
0000
0010
,
0000
0001
1000
0001
,
0100
0000
0001
0000
0000
0000
1000
0000
0000
0001
0000
0000
0100
0000
0000
0010
,
0000
1000
0010
0000
0100
0000
0001
0000
,
1000
0000
0010
0000
0000
0000
0100
0000
0000
1000
0000
0000
0001
0000
0000
1000
,
0000
0000
0100
0000
0001
0000
0000
0000
1000
0000
0000
0010
0000
0000
0100
0000
,
0001
0000
1000
0000
0001
0000
1000
0001
,
1000
0000
0000
0000
0010
0000
0000
0000
0100
0000
0000
0001
0000
0000
1000
0000
,
0010
0000
0000
0000
0100
0000
0000
0001
0000
0000
1000
0000
0000
0000
0010
0000
,
0000
1000
0000
0000
0001
0000
0000
0000
0100
0000
0000
0010
0000
0000
1000
0000
,
0100
0000
0001
0000
1000
0001
0000
0100
,
0010
0000
0000
0000
1000
0000
0000
0000
0001
0000
0000
0100
0000
0000
0010
0000
,
1000
0000
0001
0000
1000
0010
0000
0100
,
0000
0001
0000
0000
1000
0000
0000
0000
0001
0000
0000
0000
0100
0000
0000
0000
,
1000
0000
0001
0000
0000
0000
0100
0000
0000
0010
0000
0000
1000
0000
0000
0001
,
0000
0100
0010
0000
0001
0000
1000
0000
,
0001
0000
0100
0000
0000
0000
0001
0000
0000
1000
0000
0000
0010
0000
0000
0100
,
0000
0001
1000
0010
,
1000
0000
0100
0000
0000
0000
0001
0000
0000
0010
0000
0000
1000
0000
0000
0100
,
0000
0000
0001
0000
0010
0000
0000
0000
1000
0000
0000
0000
0001
0000
0000
0100
,
0000
0000
1000
0000
0000
0000
0001
0000
0000
0100
0000
0000
0010
0000
0000
1000
,
0000
0001
1000
0010
,
0100
0000
0001
0000
0000
0000
1000
0000
0000
0001
0000
0000
0100
0000
0000
0010
,
0000
1000
0001
0000
1000
0000
0010
0000
,
0100
0000
0001
0000
0000
0000
1000
0000
0000
0010
0000
0000
0100
0000
0000
0010
;

//--------------- dance-single - XLev450X-ESP ----------------
#NOTES:
     dance-single:
     XLev450X:
     Hard:
     11:
     0,0,0,0,0:
0000
0000
0000
0000
,
0000
0000
0000
0000
,
0000
0000
0000
0000
,
0000
0000
0000
0000
,
0000
0000
0000
0000
0001
0000
1000
0001
0000
1000
0000
0100
0000
0000
0001
0000
,
1000
0000
0100
0000
0000
0000
1000
0001
0010
1000
0000
0010
0000
1000
0001
0100
,
1000
0000
0010
0000
1000
0000
0100
0000
0001
0000
0000
0100
0000
0000
1000
0000
,
0001
0000
0100
0000
1000
0000
0000
0010
0000
0000
0100
0000
0000
0000
0001
0000
,
1000
0100
0000
0001
0100
0000
1000
0000
0001
0100
0000
0000
0010
0000
1000
0010
,
0000
0000
0100
0000
0000
0000
0001
0000
0000
1000
0000
0000
0100
0000
0000
0010
,
0000
0000
0001
0000
0000
0000
1000
0001
0000
0100
0000
0010
0000
0000
1000
0000
,
0010
0000
0001
0000
0100
0000
0000
1000
0000
0000
0001
0000
0000
0000
1000
0000
,
0010
0001
0100
0010
1000
0000
0000
0001
0000
0000
0100
0000
0010
0000
0000
1000
,
0000
0000
0001
0000
0000
0000
0100
0000
0000
0010
0000
0000
1000
0000
0000
0001
,
0000
0000
0100
0000
0001
0000
0000
1000
0000
0000
0010
0000
0100
0000
0000
0001
,
0000
0000
1000
0000
0000
0000
0001
0000
0000
0100
0000
0000
0010
0000
0000
1000
,
0001
0000
0100
0000
1000
0000
0000
0001
0000
0000
0000
0000
0100
0000
0000
0010
,
0000
0000
1000
0000
0000
0000
0001
0000
0000
1000
0000
0000
0010
0000
0000
0100
,
0000
0000
0001
0000
1000
0000
0000
0001
0000
0000
0000
0000
0100
0000
0000
1000
,
0000
0000
0001
0000
0000
0000
0100
0000
0000
0010
0000
0000
1000
0000
0010
0000
,
0100
0001
1000
0000
0001
0000
0100
1000
,
0010
0000
1000
0000
0000
0000
0001
0000
0000
1000
0000
0000
0001
0000
0000
0100
,
0000
1000
0001
0100
0010
0000
1000
0010
,
0100
0000
0001
0000
0000
0000
1000
0000
0000
0001
0000
0000
0100
0000
0000
0010
,
0000
1000
0010
0100
0001
0000
1000
0001
,
0100
0000
1000
0000
0000
0000
0001
0000
0000
0100
0000
0000
0010
0000
0000
1000
,
0000
0010
1000
0001
0100
0000
0001
1000
,
0001
0000
0100
0000
0000
0000
0001
0000
0000
1000
0000
0000
0010
0000
0000
1000
,
0000
0000
0001
0000
0100
0000
0000
0001
0000
0000
1000
0000
0010
0000
0000
0100
,
0000
0000
0001
0000
0000
0000
1000
0000
0000
0010
0000
0000
0100
0000
0000
0001
,
0000
0000
1000
0000
0001
0000
0000
0100
0000
0000
1000
0000
0001
0000
0000
1000
,
0000
0000
0010
0000
0000
0000
0100
0000
0000
0001
0000
0000
1000
0000
0000
0010
,
0000
1000
0001
1000
0001
0000
0001
1000
0000
0001
0000
0010
0000
0000
1000
0000
,
0001
0000
0010
0000
0000
0000
0001
1000
0100
0001
0000
0100
0000
0001
1000
0010
,
0001
0000
0100
0000
0001
0000
0010
0000
1000
0000
0000
0010
0000
0000
0001
0000
,
1000
0000
0010
0000
0001
0000
0000
0100
0000
0000
0010
0000
0000
0000
1000
0000
,
0001
0010
0000
1000
0010
0000
0001
0000
1000
0010
0000
0000
0100
0000
0001
0100
,
0000
0000
0010
0000
0000
0000
1000
0000
0000
0001
0000
0000
0010
0000
0000
0100
,
0000
0000
1000
0000
0000
0000
0001
1000
0000
0010
0000
0100
0000
0000
0001
0000
,
0100
0000
1000
0000
0010
0000
0000
0001
0000
0000
1000
0000
0000
0000
0001
0000
,
0100
1000
0010
0100
0001
0000
0000
1000
0000
0000
0010
0000
0100
0000
0000
0001
,
0000
0000
1000
0000
0000
0000
0010
0000
0000
0100
0000
0000
0001
0000
0000
1000
,
0000
0000
0010
0000
1000
0000
0000
0001
0000
0000
0100
0000
0010
0000
0000
1000
,
0000
0000
0001
0000
0000
0000
1000
0000
0000
0010
0000
0000
0100
0000
0000
0001
,
1000
0000
0010
0000
0001
0000
0000
1000
0000
0000
0000
0000
0010
0000
0000
0100
,
0000
0000
0001
0000
0000
0000
1000
0000
0000
0001
0000
0000
0100
0000
0000
0010
,
0000
0000
1000
0000
0001
0000
0000
1000
0000
0000
0000
0000
0010
0000
0000
0001
,
0000
0000
1000
0000
0000
0000
0010
0000
0000
0100
0000
0000
0001
0000
0100
0000
,
0010
1000
0001
0000
1000
0000
0010
0001
,
0100
0000
0001
0000
0000
0000
1000
0000
0000
0001
0000
0000
1000
0000
0000
0010
,
0000
0001
1000
0010
0100
0000
0001
0100
,
0010
0000
1000
0000
0000
0000
0001
0000
0000
1000
0000
0000
0010
0000
0000
0100
;
