#TITLE:Hat Surprise;
#ARTIST:Hommarju;
#GENRE:UK HARDCORE;
#MUSIC:Hat Surprise.ogg;
#BANNER:Hat Surprise.png;
#BACKGROUND:Hat Surprise-bg.png;
#CDTITLE:./CDTitles/bm IIDX 29 CastHour.png;
#SAMPLESTART:74.681;
#SAMPLELENGTH:15;
#SELECTABLE:YES;
#OFFSET:-0.223;
#BPMS:0=180;
#BGSTAGE:30;

//--------------- dance-single - XLev450X-bSP ----------------
#NOTES:
     dance-single:
     XLev450X:
     Beginner:
     2:
     :
0000
0000
0000
0000
,
0000
0000
0000
0000
,
0000
0000
0000
0000
,
0000
0000
0000
0000
,
0000
0000
0000
0000
,
0000
0000
0000
0000
0000
0000
0000
1000
,
0000
0000
0000
0000
0000
0000
0000
0001
,
0000
0000
0000
0010
0000
1000
0000
0010
,
0000
0000
0000
0000
0000
0000
0000
0010
,
0000
0000
0000
1000
0000
0000
0000
0001
,
0000
0000
0000
0000
0000
0000
0000
0010
,
0000
0000
0000
0001
0000
0000
0000
0010
,
0000
0000
0000
1000
0000
0000
0000
0100
,
0000
0000
0000
0000
0000
0000
0000
1001
,
0000
0000
0000
0000
0000
0000
0000
0001
,
0000
0000
0000
0000
0000
0000
0000
1000
,
0000
0000
0000
0000
0000
0000
0000
0010
,
0000
0000
0000
0000
0000
0000
0000
0100
,
0000
0000
0000
0000
0000
0000
0000
1000
,
0000
0000
0000
0000
0000
0000
0000
0010
,
0000
0000
0000
0000
0000
0000
0000
0100
,
0000
0000
0000
0000
0000
0000
0000
0110
,
0000
0000
0000
0000
,
0000
0000
0000
0000
,
0000
0000
0000
0000
,
0000
0000
0000
0000
,
0000
0000
0000
0000
,
0000
0000
0000
0000
,
0000
0000
0000
0000
,
0000
0000
0000
0000
0000
0000
0000
0100
,
0000
0000
0000
0010
0000
0000
0000
0001
,
0000
0000
0000
1000
0000
0000
0000
0000
,
0000
0100
0000
0000
0000
0000
0000
0010
,
0000
0000
0000
1000
0000
0000
0000
0001
,
0000
0000
0000
0000
0000
0000
0000
0010
,
0000
0000
0000
0000
0000
0000
0000
0100
,
0000
0000
0000
0001
0000
0000
0000
1000
,
0000
0000
0000
0010
0000
0000
0000
0000
,
0000
0000
0000
0000
,
0000
0000
0000
0000
,
0000
2000
0000
0000
3000
0000
0000
0000
,
0000
0002
0000
0000
0003
0000
0000
0000
,
0000
0200
0000
0000
0300
0000
0000
0000
,
0000
0020
0000
0000
0030
0000
0000
0000
,
0000
2000
0000
0000
3000
0000
0000
0000
,
0000
0002
0000
0000
0003
0000
0000
0000
,
0000
0020
0000
0000
0030
0000
0000
0000
,
0000
0000
0000
0200
0000
0300
0000
0000
,
0000
0000
0000
0000
0000
0000
0000
0001
,
0000
0000
0000
0000
0000
0000
0000
0010
,
0000
0000
0000
0000
0000
0000
0000
0100
,
0000
0000
0000
0002
0000
0003
0000
0000
,
0000
0000
0000
0000
0000
0000
0000
1000
,
0000
0000
0000
0000
0000
0000
0000
0010
,
0000
0000
0000
0000
0000
0000
0000
0200
,
0000
0000
0000
0000
0000
0300
0000
1001
,
0000
0000
0000
0000
0000
0000
0000
1000
,
0000
0000
0000
0000
0000
0000
0000
0100
,
0000
0000
0000
0000
0000
0000
0000
0001
,
0000
0000
0000
0000
0000
0000
0000
0010
,
0000
0000
0000
0000
0000
0000
0000
1000
,
0000
0000
0000
0000
0000
0000
0000
0001
,
0000
0000
0000
0000
0000
0000
0000
1000
,
0000
0000
0000
0000
0000
0000
0000
0100
,
0000
0000
0000
0000
0000
0000
0000
1000
,
0000
0000
0000
0001
0000
0000
0000
1000
,
0000
0000
0000
0000
0000
0000
0000
0100
,
0000
0000
0000
0010
0000
0000
0000
0100
,
0000
0000
0000
0000
0000
0000
0000
0010
,
0000
0000
0000
0001
0000
0000
0000
0100
,
0000
0000
0000
0000
,
0000
0000
0000
0000
,
0000
0020
0000
0000
0000
0030
0000
0000
,
0000
0200
0000
0000
0000
0000
0300
0000
,
0000
2000
0000
0000
3000
0000
0000
0000
,
0000
0002
0000
0000
0000
0003
0000
0000
,
0000
2000
0000
0000
0000
3000
0000
0000
,
0000
0002
0000
0000
0000
0003
0000
0000
,
0000
2000
0000
0000
0000
3000
0000
0000
,
0000
0002
0000
0000
0000
0003
0000
0000
;

//--------------- dance-single - XLev450X-BSP ----------------
#NOTES:
     dance-single:
     XLev450X:
     Easy:
     7:
     :
0000
0000
0000
0000
,
0000
0000
0000
0000
,
0000
0000
0000
0000
,
0000
0000
0000
0000
,
0000
0000
0000
0000
,
0000
0000
0000
0000
0000
0000
0000
1000
,
0000
0100
0000
0001
0000
1000
0000
0001
,
0000
0100
0000
0010
0000
0001
0000
0100
,
0000
1000
0000
0010
0000
0100
0000
0010
,
0000
0100
0000
0010
0000
0100
0000
0001
,
0000
1000
0000
0100
0000
0010
0000
1000
,
0000
0100
0000
0010
0000
0001
0000
0010
,
0000
1000
0000
0100
0000
0010
0000
0101
,
0000
0000
0000
0220
0000
0000
0330
1001
,
0000
0100
0000
0010
0000
1000
0000
0100
,
0000
0010
0000
0001
0000
0100
0000
0010
,
0000
1000
0000
0010
0000
1000
0000
0001
,
0000
0100
0000
1000
0000
0001
0000
0010
,
0000
0100
0000
1000
0000
0100
0000
0001
,
0000
0010
0000
0001
0000
0100
0000
0010
,
0000
0001
0000
0100
0000
0010
0000
1000
,
0000
0100
0000
0001
0000
0100
0000
0020
,
0000
0000
0000
0000
,
0030
0000
0000
0000
,
0000
0000
0000
0000
,
0000
0000
0000
0000
,
0000
0000
0000
0000
,
0000
0000
0000
0000
,
0000
0000
0000
0000
,
0000
0000
0000
0000
0000
0000
0000
0100
,
0000
1000
0000
0010
0000
0100
0000
0001
,
0000
1000
0000
0100
0000
0010
0000
0100
,
0000
0100
1000
0000
0100
1000
0000
0010
,
0000
0010
0001
1000
0010
0000
0000
0001
,
0000
0100
0000
0001
0000
1000
0000
0100
,
0000
0010
0000
0000
0000
0100
0001
0010
,
0000
0100
1000
0001
0010
0100
0001
1000
,
0000
0010
1000
0002
0000
0003
0000
0000
,
0000
0000
0000
2002
,
0000
0000
0000
0000
3003
0000
0000
0010
,
0000
2000
0000
0000
3000
0000
0000
0100
,
0000
0002
0000
0000
0003
0000
0000
0010
,
0000
0200
0000
0000
0300
0000
0000
0001
,
0000
0020
0000
0000
0030
0000
0000
0100
,
0000
2000
0000
0000
3000
0000
0000
0010
,
0000
0002
0000
0000
0003
0000
0000
0100
,
0000
0020
0000
0000
0030
0000
0000
1000
,
0000
0001
0000
0200
0000
0300
0000
0010
,
0000
0100
0000
1000
0000
0100
0000
0001
,
0000
1000
0000
0100
0000
1000
0000
0010
,
0000
0100
0000
1000
0000
0010
0000
0100
,
0000
1000
0010
0000
0000
0000
0000
0000
,
1000
0001
0000
0000
1000
0001
0000
0000
,
0001
0100
0000
0000
1000
0100
0000
0000
,
0010
0100
0000
0000
1000
0001
0000
0200
,
0000
0000
0000
0000
0000
0300
0000
1001
,
0000
0100
0000
0010
0000
1000
0000
0010
,
0000
1000
0000
0100
0000
0001
0000
1000
,
0000
0100
0000
0010
0000
0100
0000
0001
,
0000
0010
0000
0100
0000
1000
0000
0100
,
0000
0010
0000
0100
0000
1000
0000
0001
,
0000
0010
0000
0001
0000
1000
0000
0110
,
0000
1100
0000
0001
0000
0100
0000
0000
,
1001
0000
0000
2002
0000
0000
3003
0100
,
0000
0010
0000
1000
0000
0100
0000
0010
,
0000
0100
0000
0001
0000
0100
0000
1000
,
0000
0010
0000
1000
0000
0010
0000
0100
,
0000
0010
0000
1000
0000
0000
0100
0000
2002
0000
3003
0000
0000
0000
0100
0000
,
0000
1000
0000
0010
0000
1000
0000
0001
,
0000
0100
0000
0010
0000
1000
0000
0100
,
0000
0000
1000
0010
1000
0000
0200
0000
,
0000
0000
0000
0300
0000
0000
0000
0100
,
0000
0020
0000
0000
0000
0030
0000
1000
,
0000
0200
0000
0000
0000
0000
0300
0001
,
0000
2000
0000
0000
3000
0000
0000
0100
,
0000
0002
0000
0000
0000
0003
0000
0100
,
0000
2000
0000
0000
0000
3000
0000
0100
,
0000
0002
0000
0000
0000
0003
0000
0100
,
0000
2000
0000
0000
0000
3000
0000
0010
,
0000
0002
0000
0000
0003
0000
0000
2002
,
0000
0000
0000
0000
0000
0000
0000
0000
0000
0000
0000
0000
0000
0000
0000
0000
0000
0000
0000
3003
0000
0000
0000
0000
;

//--------------- dance-single - XLev450X-DSP ----------------
#NOTES:
     dance-single:
     XLev450X:
     Medium:
     10:
     :
0000
0000
0000
0000
,
0000
0000
0000
0000
,
0000
0000
0000
0000
,
0000
0000
0000
0000
,
0000
0000
0000
0000
,
0000
0000
0000
0000
0000
0000
0000
1000
,
0000
0100
0000
0001
0000
1000
0000
0001
,
0000
0100
0000
0010
0100
0001
0000
0100
,
0000
1000
0000
0010
0000
0100
0000
0010
,
0000
0100
0000
0010
1000
0100
0010
0001
,
0000
1000
0000
0100
0000
0010
0000
1000
,
0000
0100
0000
0010
0100
0001
0000
0010
,
0000
1000
0000
0100
0000
0010
0000
0101
,
0000
1100
0000
0220
0000
0000
0330
1001
,
0000
0100
0000
0010
0000
1000
0000
0100
,
0000
0010
0000
0001
0010
0100
0000
0010
,
0000
1000
0000
0010
0000
1000
0000
0001
,
0000
0100
0000
1000
0100
0001
1000
0010
,
0000
0100
0000
1000
0000
0100
0000
0001
,
0000
0010
0000
0001
0010
0100
0000
0010
,
0000
0001
0000
0100
0000
0100
0000
1000
,
0000
0000
1000
0000
0000
0000
0001
0000
0000
0110
0000
0000
1001
0000
0220
0000
,
0000
0000
0000
0000
,
0330
0000
0000
0000
,
0000
0000
0000
0000
,
0000
0000
0000
0000
,
0000
0000
0000
0000
,
0000
0000
0000
0000
,
0000
0000
0000
0000
,
0000
0000
0000
0000
0000
0000
0000
0100
,
0000
1000
0000
0010
0000
0100
1000
0001
,
0000
1000
0010
0100
0001
0010
0000
0100
,
0000
0000
1000
0000
0100
1000
0000
0010
,
0000
0010
0001
1000
0010
0000
0000
0001
,
0000
0100
1000
0001
0010
1000
0001
0000
,
0000
0000
0100
0000
1000
0000
0001
0010
,
0000
0100
1000
0001
0010
0100
0001
1000
,
0000
0001
1000
0002
0000
0003
0000
0100
,
0000
0000
0010
0000
0000
0000
1001
0000
0000
0110
0000
0000
2002
0000
0000
0000
,
0000
0000
0000
0000
3003
0000
0000
0010
,
0000
2000
0000
0000
3000
0010
0000
0100
,
0000
0002
0000
0000
0003
0100
0000
0010
,
0000
0200
0000
0000
0300
1000
0000
0001
,
0000
0020
0000
0000
0030
0001
0000
0100
,
0000
2000
0000
0000
3000
0100
0000
0010
,
0000
0002
0000
0000
0003
0010
0000
0100
,
0000
0020
0000
0000
0030
0100
0000
1000
,
0000
0001
0000
0200
0000
0300
0000
0010
,
0000
0100
0000
1000
0000
0100
0000
0001
,
0000
1000
0010
0100
0000
1000
0000
0010
,
0000
0100
0000
1000
0100
0010
0001
0100
,
0000
1000
0010
0002
0000
0003
0000
0010
,
1000
0001
0010
0000
1000
0001
0000
1000
,
0001
0100
0000
0001
1000
0100
0000
0100
,
0010
0100
0000
0010
1000
0001
1000
0200
,
0000
1000
0000
0010
0000
0301
0000
1001
,
0000
0100
0000
0010
0001
1000
0000
0010
,
0000
1000
0000
0100
0000
0001
0000
1000
,
0000
0100
0000
0010
0000
0100
1000
0001
,
0000
0010
0000
0100
0000
1000
0000
0100
,
0000
0010
0000
0100
0000
1000
0000
0001
,
0000
0010
0000
0001
0000
1000
0000
0110
,
0000
1001
0000
0000
0110
0000
0001
0000
0000
1000
0000
0000
0010
0000
1000
0000
,
0000
1001
0000
0000
0110
0000
2002
0000
0000
0000
0000
0000
3003
0000
0100
0000
,
0000
0010
0000
1000
0010
0100
0000
0010
,
0000
0100
0000
0001
0000
0100
0000
1000
,
0000
0010
0000
1000
0100
0010
0000
0100
,
0000
0010
0000
0000
1000
0000
0100
0000
2002
0000
3003
0000
0000
0000
0100
0000
,
0000
1000
0000
0010
0000
1000
0000
0001
,
0000
0100
0000
0010
0000
1000
0000
0100
,
0000
0110
0000
0000
1001
0000
0110
0000
0000
1001
0000
0000
0220
0000
0000
0000
,
0000
0000
0000
0330
0000
0000
0000
0100
,
0000
0020
0000
1000
0000
0130
0000
1000
,
0000
0200
0000
0001
0000
1000
0300
0001
,
0000
2000
0000
0010
3000
0000
0000
0100
,
0000
0002
0000
0100
0000
0013
0000
0100
,
0000
2000
0000
0010
0000
3001
0000
0100
,
0000
0002
0000
1000
0000
0013
0000
0100
,
0000
2000
0000
0010
0000
3100
0000
0010
,
0000
0002
0000
1000
0003
0100
0000
2002
,
0000
0000
0000
0000
0000
0000
0000
0000
0000
0000
0000
0000
0000
0000
0000
0000
0000
0000
0000
3003
0000
0000
0000
0000
;

//--------------- dance-single - XLev450X-ESP ----------------
#NOTES:
     dance-single:
     XLev450X:
     Hard:
     15:
     :
0000
0000
0000
0000
,
0000
0000
0000
0000
,
0000
0000
0000
0000
,
0000
0000
0000
0000
,
0000
0000
0000
0000
,
0000
0000
0000
0000
0000
0000
0000
0010
,
1000
0100
0010
0001
0010
0100
0010
0100
,
1000
0001
1000
0010
1000
0010
0100
0010
,
1000
0100
1000
0010
0100
0010
1000
0010
,
0100
0000
0001
0000
1000
0000
0001
1000
0010
1000
0100
0010
0001
0010
0001
0000
,
0010
0100
0010
0001
1000
0001
0010
0001
,
0010
0100
1000
0100
1000
0000
0010
0001
,
0010
0100
0010
0100
1000
0100
0010
0001
,
1000
0100
0001
0220
0000
0000
0330
0010
,
0100
0010
0001
0010
0001
1000
0001
0100
,
0010
0100
0001
0010
0100
0010
0100
1000
,
0100
0010
0001
1000
0010
0100
0001
0100
,
0001
0000
0100
0000
0010
0000
0010
1000
0001
1000
0001
0100
0001
0010
1000
0000
,
0010
0100
0001
1000
0010
1000
0010
1000
,
0100
0010
0100
0010
0001
1000
0001
0100
,
0010
1000
0001
1000
0100
0010
0100
1000
,
0010
0000
1000
0000
0010
0000
1001
0000
0000
0110
0000
0000
1001
0000
0220
0000
,
0000
0000
0000
0000
,
0330
0000
0000
0000
,
0000
0000
0000
0000
,
0000
0000
0000
0000
,
0000
0000
0000
0000
,
0000
0000
0000
0000
,
0000
0000
0000
0000
,
0000
0000
0000
0000
0000
0000
0000
0010
,
0100
0001
0010
0100
0010
0100
0010
0001
,
0000
0000
1000
0000
0100
0010
1000
0001
0100
0000
0010
0000
0000
0000
0010
0000
,
1000
0010
0100
0010
1000
0001
0100
0001
,
0010
0100
0010
0100
0010
0000
0000
0001
,
0000
0100
1000
0001
0010
1000
0001
0100
,
0010
0000
0000
0000
0100
0000
1000
0010
1000
0010
0000
0000
0001
0000
0010
0000
,
0000
0100
1000
0001
0010
0100
0001
1000
,
0000
0001
1000
0002
0000
0003
0000
0110
,
0000
0000
1000
0000
0001
0000
0100
1000
0000
0010
0000
0000
2002
0000
0000
0000
,
0000
0000
0000
0000
3003
0000
0000
0010
,
0000
2000
0000
0100
3000
0010
0000
0100
,
0000
0002
0000
1000
0003
0100
0000
0010
,
0000
0200
0000
0001
0300
1000
0000
0001
,
0000
0020
0000
0100
0030
0001
0000
0100
,
0000
2000
0000
0010
3000
0100
0000
0010
,
0000
0002
0000
1000
0003
0010
0000
0100
,
0000
0020
0000
0001
0030
0100
0000
1000
,
0000
0001
0000
0100
1000
0000
0000
0010
,
0000
0100
0000
1000
0000
0100
0000
0001
,
0000
1000
0010
0100
0000
1000
0000
0010
,
0000
0100
0000
1000
0100
0010
0001
0100
,
0000
1000
0010
0001
0020
0000
0030
0100
,
1000
0100
1000
0100
0010
0001
0100
0010
,
0100
0000
0001
0000
0100
0000
0010
0000
1000
0000
0010
0000
1000
0000
0010
0100
,
1000
0010
0100
0010
0100
0001
0010
0001
1000
0100
0010
0100
0010
0100
1000
0010
,
1000
0010
1000
0100
0010
0001
0100
0010
1000
0001
0100
0000
0000
0000
1000
0000
,
0010
1000
0001
1000
0010
0100
0010
0100
,
0001
0100
0001
1000
0010
1000
0001
1000
,
0010
0100
0010
0100
0001
0100
0001
1000
,
0001
0100
0010
1000
0100
1000
0001
1000
,
0001
0100
0010
1000
0010
1000
0010
0100
,
0001
0100
0001
1000
0001
1000
0001
0100
,
0000
0001
0000
0000
0010
0000
0001
0000
0000
1000
0000
0000
0010
0000
1000
0000
,
0000
0001
0000
0000
0010
0000
2002
0000
0000
0000
0000
0000
3003
0000
0010
0000
,
0100
0010
0100
1000
0001
0100
0001
0010
,
0100
0010
0100
1000
0100
1000
0001
1000
,
0100
0010
0100
0010
0100
1000
0010
0100
,
0000
0010
0000
0000
1000
0000
0100
0000
2002
0000
3003
0000
0000
0000
0100
0000
,
0001
0010
0001
0010
0001
1000
0010
0100
,
0001
0010
0100
0010
0100
1000
0001
1100
,
0000
0110
0000
0000
1001
0000
0110
0000
0000
1001
0000
0000
0220
0000
0000
0000
,
0000
0000
0000
0330
0000
0000
0000
1000
,
0001
0000
1000
0000
0100
0000
1000
0000
0000
0100
0000
0000
0010
0000
1000
0000
,
0010
0000
1000
0000
0100
0000
1000
0000
0000
0010
0000
0000
0010
0000
0100
0000
,
0001
0000
0010
0000
0100
0000
0001
0000
0000
0100
0000
0000
0010
0000
1000
0000
,
0010
0000
0100
0000
0010
0000
1000
0000
0000
0100
0000
0000
0010
0000
1000
0000
,
0010
0000
0100
0000
0010
0000
0100
0000
0000
0010
0000
0000
0001
0000
0010
0000
,
0001
0000
0100
0000
0010
0000
1000
0000
0000
0010
0000
0000
0001
0000
1000
0000
,
0001
0000
0010
0000
0001
0000
0010
0000
0000
0100
0000
0000
0010
0000
0001
1000
,
0100
0010
0001
1000
0001
1000
0001
0010
0100
0010
0001
0100
0010
0100
2002
0000
,
0000
0000
0000
0000
0000
0000
0000
0000
0000
0000
0000
0000
0000
0000
0000
0000
0000
0000
0000
3003
0000
0000
0000
0000
;

//--------------- dance-single - XLev450X-CSP ----------------
#NOTES:
     dance-single:
     XLev450X:
     Challenge:
     16:
     :
0000
0000
0000
0000
,
0000
0000
0000
0000
,
0000
0000
0000
0000
,
0000
0000
0000
0000
,
0000
0000
0000
0000
,
0000
0000
0000
0000
0000
0000
0000
0000
0000
0000
0000
0000
0000
0000
0010
0001
,
0010
0000
1000
0000
0010
0000
0100
0000
0001
0000
1000
0000
0010
0000
0001
0010
,
1000
0000
0100
0000
0001
0000
1000
0010
0000
0100
0000
0001
0000
1000
0001
0010
,
0001
0000
1000
0000
0010
0000
0100
0000
0001
0000
1000
0000
0001
1000
0001
1000
,
0001
0000
0100
0000
0010
0000
1000
0000
0100
0001
0100
0001
0100
0001
1000
0000
,
0001
0000
0010
0000
0100
0000
0010
0000
1000
0000
0001
0010
0001
0000
0100
1000
,
0100
0000
0001
0000
1000
0000
0020
0000
0000
0000
0000
0030
1000
0000
0001
0010
,
0001
0000
0010
0000
0100
0000
1000
0100
1000
0000
0001
0000
0100
0000
0001
0010
,
0100
1000
0100
0010
0001
0010
0001
0020
0000
0000
0000
0000
0030
0000
1000
0001
,
1000
0000
0010
0000
0100
0000
0010
0000
0100
0000
0001
0000
1000
0000
0010
0001
,
0010
0000
0100
0000
1000
0000
0100
0001
0000
0100
0000
0001
0000
1000
0100
0000
,
0010
0000
0001
0000
1000
0000
0100
0000
1000
0000
0100
0000
1000
0100
0001
0000
,
0010
0000
0100
0000
0010
0000
0100
0000
0010
0100
0001
0000
1000
0100
0010
0000
,
0100
0000
0010
0000
1000
0000
0100
0000
0010
0000
0100
0000
1000
0100
0001
0000
,
0010
0000
0100
0000
0010
0000
0001
1000
0020
0000
0000
0000
1030
0000
0100
0001
,
0010
0000
0100
0000
0010
0000
0001
1000
0100
0000
0010
0000
1000
0000
0001
0100
,
0010
1000
0001
0010
0100
1000
0001
0010
0100
0010
0100
1000
0010
0100
0010
0000
,
0000
0000
0000
0000
,
0000
0000
0000
0000
,
0000
0000
0000
0000
,
0000
0000
0000
0000
,
0000
0000
0000
0000
,
0000
0000
0000
0000
,
0000
0000
0000
0000
,
0000
0000
0000
0000
0000
0000
0000
1000
,
0000
0001
0000
0000
0100
0000
0010
0000
0001
0000
0010
0000
0001
0100
1000
0000
,
0001
0000
0010
0000
0100
0000
0001
1000
0100
0001
1000
0001
0100
0010
0100
0000
,
1000
0100
0001
0020
1000
0030
1000
0100
,
0001
0100
0010
2000
0000
3001
0100
0001
,
0000
0100
0000
0000
1000
0000
0001
0000
1000
0000
0010
1000
0001
0000
0100
0000
,
0001
0000
1000
0000
0100
0000
0001
1000
0100
0010
0001
0100
0001
1000
0010
0000
,
0000
1000
0001
0200
0001
0300
0010
0000
,
0001
1000
0010
0200
0000
0010
0300
0001
,
0000
0000
0000
0000
1000
0000
0000
0000
0100
0000
1000
0000
0001
0000
0000
0100
0000
0000
0001
0000
1000
0000
0000
0202
0000
0000
0000
0000
0000
0000
0000
0000
,
0000
0000
0000
0000
0303
0000
0000
0010
,
0001
0020
0030
1000
0000
0010
0000
1000
,
0100
2000
3000
0010
0000
0100
0000
0001
,
0100
0002
0003
1000
0000
0010
0000
0100
,
0010
0200
0300
0001
0000
1000
0000
0010
,
0001
0020
0030
1000
0000
0100
0000
0010
,
1000
0020
0030
0100
0000
0001
0000
1000
,
0001
2000
3000
0010
0000
1000
0000
0010
,
0100
0002
0003
2000
0000
0000
3000
0001
,
0100
0010
0000
0001
0010
0100
0000
0001
,
1000
0000
0010
0000
1000
0100
0001
0000
0100
0000
0010
0000
0000
0000
0001
0000
,
0100
0000
0010
0000
0000
0000
0010
0000
1000
0000
0010
0000
0100
1000
0001
0000
,
1000
0100
0010
0002
0000
0000
0003
0100
,
0000
0001
0100
0000
1000
0000
0100
0000
0000
0010
0001
0000
1000
0000
0010
0000
,
0000
1000
0010
0000
0100
0000
0010
0000
0000
0100
0001
0000
0100
0000
0010
0000
,
0100
0000
0001
0000
1000
0000
0100
0000
0010
0000
0001
0000
0010
0000
0010
0100
,
0010
0100
0001
0010
0100
1000
0001
0100
0001
0010
0002
0000
0000
0003
0010
0001
,
0010
0000
1000
0000
0010
0000
0100
0000
0001
0000
0100
0000
0000
0000
1000
0001
,
0010
0000
0100
0000
0010
0000
0001
1000
0010
0000
0001
0000
0100
0000
1000
0010
,
1000
0100
0001
0100
0001
0100
0010
1000
,
0001
0000
1000
0001
0100
0001
1000
0000
0001
0000
0100
1000
0010
0000
0100
0010
,
0001
0000
1000
0000
0001
0000
0010
0000
0100
0000
0010
0000
1000
0000
0001
0010
,
0001
0000
1000
0000
0010
0000
0100
1000
0100
0000
0001
0000
0010
0000
1000
0000
,
0000
0100
0000
0000
0001
0000
0010
0100
0010
0000
1000
0100
1000
0000
0001
0000
,
0000
0100
0000
0001
1000
0000
0020
0000
0000
0000
0000
0000
0030
0000
1000
0001
,
1000
0000
0010
0000
0100
0000
0001
0000
1000
0000
0010
0000
0000
0000
0001
0010
,
0001
0000
1000
0000
0010
0000
0100
0001
1000
0000
0010
0000
1000
0000
0001
0010
,
0001
0000
1000
0000
0010
0000
0001
0000
1000
0000
0100
0000
0010
0000
1000
0001
,
0000
0010
0000
1000
0001
0010
0100
2000
0000
0000
0000
0000
3000
0000
0010
0100
,
0010
0000
0001
0000
1000
0000
0001
0000
0010
0100
0010
0000
0001
0000
0100
1000
,
0100
0000
0010
0000
1000
0000
0010
0001
0000
1000
0001
0000
1000
0000
0101
0000
,
0000
1010
0000
0000
0110
0000
1100
0000
0000
0101
0000
0000
1010
0000
0001
0010
,
0001
0000
1000
0100
1000
0010
0200
0000
0000
0000
0000
0000
0300
0000
0001
0000
,
0010
0000
0001
0000
0200
0000
0001
0000
0300
0000
0000
1000
0100
0000
0010
0000
,
1000
0000
0010
0000
0200
0000
0001
0000
0000
0300
0000
0010
0100
0000
0010
0000
,
1000
0000
0010
0000
0200
0000
0010
0000
0300
0000
0000
0001
1000
0000
0100
0000
,
1000
0000
0010
0000
0002
0000
0013
0000
0000
1000
0100
0001
1000
0100
0010
0000
,
1000
0000
0010
0000
0200
0000
0310
0000
0000
1000
0001
0000
0010
0000
0001
0000
,
1000
0000
0001
0000
2000
0000
3010
0000
0000
0100
0001
0000
1000
0000
0100
0001
,
0010
0000
0100
0000
1000
0000
0100
1000
0010
0000
0001
0000
0010
0000
0100
0001
,
0100
0010
0100
0010
1000
0001
0010
0100
1000
0100
0010
0001
1000
0100
0020
0000
,
0000
0000
0000
0000
0000
0000
0000
0000
0000
0000
0000
0000
0000
0030
0000
0000
;
