#TITLE:Hat Surprise (Season 2);
#ARTIST:Hommarju;
#GENRE:UK HARDCORE;
#MUSIC:Hat Surprise (Season 2).ogg;
#BANNER:Hat Surprise (Season 2).png;
#BACKGROUND:Hat Surprise (Season 2)-bg.png;
#CDTITLE:./CDTitles/bm IIDX 30 RESIDENT.png;
#SAMPLESTART:76.055;
#SAMPLELENGTH:15;
#OFFSET:-0.222;
#BPMS:0=180;
#BGSTAGE:30;

//--------------- dance-single - XLev450X ----------------
#NOTES:
     dance-single:
     XLev450X:
     Challenge:
     16:
     0,0,0,0,0:
0000
0000
0000
0000
,
0000
0000
0000
0000
,
0000
0000
0000
0000
,
0000
0000
0000
0000
,
0000
0000
0000
0000
,
0000
0000
0000
0000
,
0000
0000
0000
0000
0000
0000
0000
0000
0000
0000
0000
0000
0000
0000
1000
0100
,
1000
0000
0001
0010
0001
0000
0010
0100
0010
0000
1001
0000
0000
0000
0010
0001
,
0010
0000
1000
0000
0010
0000
0100
0000
0001
0000
1000
0000
0100
0000
0010
1000
,
0010
1000
0001
0000
0100
0000
0001
0010
0001
0000
1000
0000
0100
0000
0010
0001
,
0010
0000
1000
0000
0010
0000
0100
0000
0001
0000
1000
0000
0100
0000
0010
0001
,
0010
0001
1000
0000
0010
0000
0100
0000
0001
1000
0001
0000
0010
0100
0010
0000
,
0100
0001
0000
1000
0010
0100
0000
0001
,
0010
0001
0010
0000
1000
0000
0010
0000
0100
0000
0010
0000
1000
0000
0001
0100
,
0001
0000
0010
0000
1000
0000
0010
0001
0010
0000
0100
1000
0000
0100
0001
0000
,
0010
0100
0001
1000
0010
0100
0020
0000
0000
0000
0000
0000
0030
0000
0000
0000
,
0000
0000
1000
0000
0010
0001
0010
0000
0100
0000
0010
0000
0000
0000
0001
0010
,
0001
0000
1000
0000
0010
0000
0100
0010
0100
0000
1000
0001
1000
0000
0100
0000
,
0010
0001
0010
0000
0100
0000
1000
0000
0010
0000
0100
0000
0010
0000
1000
0010
,
1000
0000
0010
0000
0100
0000
0001
1000
0100
0000
0001
0010
1000
0000
0010
0000
,
0001
0000
0010
0000
1000
0000
0010
0000
0100
0010
1000
0000
0100
0000
0001
0010
,
0100
0000
0001
0000
1000
0000
0010
0000
0001
0000
0010
0000
1000
0000
0001
0100
,
0001
0000
0010
0000
1000
0000
0100
0010
0100
0000
0010
0000
1000
0000
0010
0100
,
0000
0001
0010
0000
1000
0000
0200
0000
0010
0000
0001
0000
0010
0000
0300
0000
,
0001
0100
0001
1000
0100
0000
0010
0000
0001
0200
0000
0000
0000
0000
0300
0000
,
0010
0000
1000
0000
0000
0001
0000
0000
0100
0000
0010
0000
1000
0000
0000
0000
,
0001
0000
0100
0000
0000
0010
0000
0000
1000
0001
1000
0010
0100
0000
0001
0000
,
1000
0100
0010
0000
0001
0000
0100
1000
0100
0001
0000
0000
0100
0000
0010
0000
,
0000
1000
0100
0001
0010
0001
0010
1000
,
0000
0000
0100
0000
1000
0001
0010
0000
1000
0000
0001
0000
0000
0000
1000
0000
,
0010
0000
0100
0000
0001
0000
1000
0000
0010
0001
0010
0000
0100
0000
1000
0000
,
0010
0000
0100
0000
0001
0000
0010
0000
0001
0010
0001
0000
0000
0000
1000
0000
,
0010
0100
0001
1000
0010
0100
0010
0000
,
1000
0000
0001
0000
0100
0000
0010
0100
0010
0000
1000
0000
0001
0000
0100
0000
,
0000
0000
0010
1000
0010
0000
0100
0000
0001
0000
0010
0000
1000
0100
0001
0000
,
1000
0100
0010
2002
0000
0000
3003
0001
,
0000
1000
0000
0000
0010
0000
0000
0100
0000
0000
1000
0100
1000
0100
0001
0000
,
0000
1000
0000
0000
0010
0000
0000
0100
0000
0000
0100
0010
0100
0010
0001
0000
,
0000
1000
0000
0000
0010
0000
0000
0100
0000
0000
0001
0000
0000
1000
0000
0000
,
0010
0000
0000
0100
0000
0000
0010
0000
0000
1000
0000
0000
0001
0000
0010
0000
,
1000
0020
1000
0030
0000
0001
0100
0001
,
0100
0020
1000
0030
0000
0100
1000
0001
,
0010
0200
0010
0300
0000
0100
1000
0010
,
0100
0002
1000
0003
0000
0001
0010
0001
,
1000
0200
0010
0300
0000
0001
1000
0010
,
1000
0200
0010
0300
0000
0001
0100
0010
,
0100
0002
0010
0003
0000
0100
0010
0100
,
1000
0000
0020
0000
1000
0000
0130
0000
0000
0000
0010
1000
0001
0100
0010
0000
,
0001
0000
1000
0000
0000
0000
0010
0000
0001
0000
0010
0000
0001
0010
0001
0000
,
1000
0000
0010
0000
0000
0000
0100
0000
0001
0000
1000
0000
0010
1000
0010
0000
,
0100
0000
0001
0000
0000
0000
0010
0000
0001
0000
1000
0000
0010
0100
0010
0000
,
1000
0001
0010
0200
0000
0000
0300
1000
,
0010
1000
0001
0000
0100
0000
0001
0000
1000
0001
0010
0000
0100
0000
0010
0000
,
0100
0010
0100
0000
1000
0000
0001
0000
0010
1000
0100
0000
0010
0000
0010
0001
,
0100
0010
1000
0001
1000
0010
0100
0001
1000
0001
0100
0010
0100
0001
0010
0100
,
1000
0100
0010
0001
1000
0100
0010
0001
0010
0100
0010
0001
0100
0010
1000
0100
,
1000
0000
0001
0010
0001
0000
0100
0010
0100
0000
0110
0000
0000
0000
0001
0000
,
1000
0000
0010
0000
0000
0000
0100
0000
0010
0000
0001
0000
0010
0001
0010
0000
,
1000
0010
0000
0100
0010
1000
0010
0100
,
0000
0001
0000
1000
0000
0000
0010
0000
0100
0000
0000
0000
0001
0000
1000
0000
,
0010
0000
1000
0000
0010
0000
0100
0000
0001
0010
0001
0000
1000
0010
1000
0000
,
0001
0000
0100
0000
0000
0000
0010
0000
1000
0000
0001
0000
0100
0010
0001
0000
,
1000
0010
0000
0100
0001
1000
0010
0100
,
0001
0000
0000
0100
1000
0000
0010
0000
0100
0000
1000
0100
0001
0000
0010
0000
,
0001
0010
0000
1000
0100
0000
0020
0000
0000
0000
0000
0000
0030
0000
1000
0001
,
1000
0000
0100
0010
0100
0000
0001
0100
0001
0000
1000
0100
1000
0000
0001
0000
,
1000
0000
0010
0000
0000
0000
0100
0000
0010
0000
0001
0000
0010
0001
0010
0000
,
1000
0000
0000
0010
0000
0000
0100
0000
0001
0000
1000
0000
0000
0000
0010
0000
,
0000
0100
0000
0000
0001
0000
1000
0000
0000
0000
0000
0000
0000
0000
1000
0001
,
1000
0000
0100
0000
0001
0000
0010
0000
0100
0000
0010
0000
1000
0000
0001
0010
,
0001
0010
0100
0001
1000
0010
0001
1000
,
0000
0001
0000
0000
0100
0000
0010
0000
0000
1000
0000
0000
0002
0000
0000
0000
,
0000
0000
0000
0000
0000
0000
0000
0000
0000
0000
0000
0003
0000
0000
0001
0000
,
1000
0000
0020
0000
0030
0000
0010
1000
0100
0000
0001
0000
0010
0000
0100
0000
,
0010
0000
0200
0000
0300
0000
0100
0001
1000
0000
0001
0000
0100
0000
0010
0000
,
1000
0000
0002
0000
0003
0000
0001
1000
0010
0000
0100
0000
0010
0000
0001
0000
,
0100
0000
0002
0000
0003
0000
0100
1000
0010
0000
0001
0000
0100
0000
0001
1000
,
0010
0000
0001
0000
0010
0000
0100
0001
1000
0000
0010
0000
1000
0000
0010
0001
,
0100
0000
0010
0000
1000
0000
0001
0100
1000
0000
0001
0000
0100
0000
0001
0000
,
1000
0000
0100
0000
1000
0000
0100
0000
1000
0000
0010
0000
0100
0000
0100
1000
,
0100
0010
0100
0010
0001
0100
0010
1000
0100
0010
0001
0010
0100
0010
0100
0000
,
1000
0010
1000
0001
0010
0000
0100
0000
1000
0020
0000
0000
0000
0000
0030
0000
,
0100
0000
0001
0000
0000
1000
0000
0000
0010
0000
0100
0000
0001
0000
0000
0000
,
1000
0000
0010
0000
0000
0100
0000
0000
0001
1000
0001
0100
0010
0000
1000
0000
,
0001
0010
0100
0000
1000
0000
0010
0001
0010
1000
0001
0100
0010
0001
0200
0000
,
0000
0000
0000
0000
,
0300
0000
0000
0000
;
