#TITLE:Harmonia;
#ARTIST:ATSUMI UEDA;
#GENRE:NU PRELUDE;
#MUSIC:Harmonia.ogg;
#BANNER:Harmonia.png;
#BACKGROUND:Harmonia-bg.png;
#CDTITLE:./cdtitles/pop'n music.png;
#SAMPLESTART:46.241;
#SAMPLELENGTH:15;
#OFFSET:-0.026;
#BPMS:0=177;
#BGSTAGE:16;

//--------------- dance-single - XLev450X-bSP ----------------
#NOTES:
     dance-single:
     XLev450X:
     Beginner:
     3:
     0,0,0,0,0:
0000
0000
0000
0000
,
0000
0000
0000
0000
,
0000
0000
0000
0001
,
0001
0001
0000
1000
,
1000
1000
0000
0010
,
0000
1000
0000
0001
,
1000
0001
0000
0100
,
0000
1000
0000
0010
,
0000
0100
0000
0010
,
0000
1000
0001
1000
,
0000
0000
0000
0010
,
0000
0100
0000
0010
,
0000
0000
0000
1000
,
0000
0100
0000
1000
,
0000
0000
0000
0110
,
0000
0000
0000
0000
,
0000
0000
0000
0001
,
0000
1000
0000
0001
,
1000
0001
0000
0010
,
0000
1000
0000
0010
,
1000
0010
0000
0100
,
0000
0010
0000
0100
,
0001
0100
0000
1001
,
0000
0000
0000
0000
,
0000
0000
0000
0110
,
0000
0000
0000
0000
,
0000
0000
0000
0001
,
0000
1000
0000
0001
,
1000
0010
0000
1000
,
0000
0001
0000
0100
,
0100
0010
0000
1000
,
0000
0001
0000
1000
,
1000
0010
0000
1000
,
0000
0001
0000
1001
,
0000
0000
0000
1000
,
1000
1000
0000
0001
,
0001
0001
0000
0010
,
0100
1000
0001
0100
,
0010
1000
0000
0010
,
0100
1000
0001
0100
,
0010
1000
0000
0001
,
1000
0010
1000
1001
,
0000
0000
0000
1000
,
1000
0001
1000
0010
,
0100
1000
0000
0010
,
1000
0001
0100
0010
,
0000
1001
0000
0010
,
1000
0010
0000
0100
,
0001
1000
0000
0001
,
0000
1000
0000
0001
,
0000
0000
0000
1001
,
0000
0000
0000
0001
,
0000
1000
0000
0010
,
1000
0010
0000
1000
,
0000
0001
0000
0100
,
1000
0001
0000
1000
,
0000
1000
0000
0001
,
0000
0001
0000
1000
,
0000
0001
0000
1001
,
0000
0000
0000
0010
,
0000
0100
0000
1000
,
0010
1000
0000
0001
,
0000
0100
0000
0001
,
0100
0001
0000
1000
,
0000
0001
0000
1000
,
0010
1000
0000
1001
,
0000
0000
0000
0000
,
0000
1001
0000
0000
0000
0000
0000
0000
;

//--------------- dance-single - XLev450X-BSP ----------------
#NOTES:
     dance-single:
     XLev450X:
     Easy:
     6:
     0,0,0,0,0:
0000
0000
0000
0000
,
0000
0000
0000
0000
,
0000
0000
0000
0001
,
1000
0001
1000
0010
,
1000
0000
0010
1000
0010
0000
0001
0000
,
0100
0001
0000
1000
,
0000
0000
0000
0001
,
1000
0010
0100
1000
,
0001
0100
0000
0010
,
1000
0010
0000
0100
0001
0000
0010
0000
,
0000
1000
0000
0001
,
1000
0001
0000
1000
,
0010
1000
0000
0010
,
0100
0010
0000
1000
,
0001
1000
0000
0001
,
0000
1000
0000
0000
0010
0000
0000
0100
,
0000
0001
0000
0000
0000
0000
0001
0000
,
0000
1000
0000
0010
,
1000
0001
0000
1000
,
0000
0010
0000
0100
,
0001
1000
0010
1000
,
0000
0001
0000
0100
,
0010
1000
0000
2002
,
0000
0000
0000
0000
,
0000
0000
0000
3003
0000
0220
0000
0000
,
0000
0000
0000
0000
,
0000
0000
0330
0001
,
1000
0010
1000
0010
,
0100
0001
0000
1000
,
0000
0001
1000
0010
,
0000
0100
1000
0001
,
0000
0100
0000
0000
2000
0000
0000
0000
,
0010
3010
0000
2002
,
0000
0000
0000
0000
,
0000
3003
0001
0000
1000
0000
0010
0000
,
0000
0100
0000
1000
,
0001
0100
0000
1000
,
0010
0000
1000
0001
0000
0100
0000
0000
,
0010
0000
1000
0000
0010
0000
0001
0010
,
0001
0000
1000
0010
1000
0000
0100
0000
,
1000
0001
0000
1000
,
0000
0001
1000
0010
,
0000
0100
0000
1000
,
1000
0010
1000
0001
,
0100
1000
0001
0010
,
0000
1000
0001
1000
,
0000
1001
0000
1000
,
1000
0010
0100
0100
,
0001
1000
0010
0101
,
0000
1010
0000
1001
,
0000
0000
0000
1000
,
0000
0001
0000
1000
,
0000
0010
1000
0010
,
0000
1000
0001
0100
,
0000
1000
0010
1000
,
0001
0100
0000
0010
,
0000
1000
0000
0001
,
1000
0010
0000
1000
,
0000
0001
1000
0001
,
0000
1000
0000
0010
,
1000
0001
0100
0010
,
0000
1000
0000
0001
,
0100
1000
0001
0010
,
0000
0100
0000
1001
,
0000
0000
0110
0000
,
0000
0000
0000
1010
,
0000
1100
0000
0000
1010
0000
0000
1100
,
0000
2002
3003
0000
0000
0000
0000
0000
;

//--------------- dance-single - XLev450X-DSP ----------------
#NOTES:
     dance-single:
     XLev450X:
     Medium:
     9:
     0,0,0,0,0:
0000
0000
0000
0000
,
0000
0000
0000
0000
,
0000
0000
0000
0001
,
1000
0000
0010
0100
1000
0000
0001
0000
,
0010
0000
1000
0010
1000
0001
0000
0000
,
0100
1000
0001
0101
,
0000
0000
1000
0000
0010
0000
1000
0010
,
1000
0000
0100
0001
0100
0000
0010
0000
,
0100
0000
0010
0100
0010
0000
0001
0100
,
0000
1000
0000
0001
0000
0220
0000
0330
,
0000
0001
0000
1000
0010
1000
0010
0000
,
0100
0001
1000
0010
,
1000
0000
0010
1000
0010
0000
0100
0000
,
0001
0000
0100
1000
0001
0000
0010
0000
,
1000
0000
0001
0100
1000
0000
0001
0000
,
0000
1000
0000
0000
0010
0000
0000
0100
,
0000
1002
0000
0000
0003
0000
0010
0000
,
1000
0000
0010
1000
0010
0000
0100
0000
,
0001
0000
0001
0010
0001
0000
1000
0000
,
0100
0000
1000
0001
1000
0000
0010
0000
,
0000
0101
0000
1010
0000
0000
0010
0000
,
1000
0000
1000
0010
1000
0000
0100
0000
,
1000
0000
0001
1000
0001
0000
0100
0000
,
0000
0010
1000
0010
,
0100
0000
0001
1000
0000
0202
0000
0303
,
1000
0100
0000
2002
0000
0000
0000
0000
,
0000
0000
0000
0000
0000
3003
0001
0000
,
0001
1000
0000
0010
,
1000
0100
0000
0001
,
1000
0000
0010
1000
0010
0000
0100
0000
,
0001
0000
0001
0010
0001
0000
1000
0000
,
0001
0100
0000
0001
,
0000
1000
0010
0100
,
0000
0010
0000
0000
1000
0000
0000
0001
,
0000
0200
0001
0000
0001
0300
0001
0000
,
1000
0000
0010
1000
0010
0000
0100
0000
,
0100
0000
0001
0010
0001
0000
0110
0000
,
1000
0000
0000
0000
0001
0000
0000
0100
0000
0000
1000
0000
0000
0000
0000
0000
,
0010
0000
1000
0010
1000
0000
0100
0000
,
1000
0000
0001
0100
0010
0000
1000
0000
,
0010
0000
0100
1000
0001
0000
0100
0000
,
0000
0001
0000
1000
0000
0010
0000
0100
,
0001
1000
0001
1000
0010
0000
0010
0000
,
1000
0000
0001
0010
0001
0000
1000
0000
,
0100
1000
0100
0000
0010
0100
0010
0000
,
1000
0000
0010
0100
0000
0001
0000
1000
,
0000
0010
0000
0100
0010
0000
1000
0000
,
0001
0010
0000
1000
0000
0100
0000
1000
,
0000
0010
0000
1000
0001
0000
0100
0000
,
1000
0001
0000
1000
0000
0010
0000
1000
,
0010
1000
0000
0100
0001
0100
0010
0000
,
1000
0000
0000
0000
0001
0000
0000
0100
0000
0000
1000
0000
0001
0000
0000
0000
,
1000
0000
0010
1000
0010
0000
0100
0001
,
0100
0010
1000
0001
,
0100
1000
0100
0000
0001
0010
0001
0000
,
1000
0022
0033
0001
,
1000
0000
0010
1000
0010
0000
0100
0001
,
0100
0010
1000
0001
,
1000
0010
0000
1000
0000
0001
0000
0100
,
0010
1000
0001
0000
1000
0000
0010
0000
,
1000
0000
0000
0000
0001
0000
0000
0100
0000
0000
0010
0000
1000
0000
0000
0000
,
0001
0000
1000
0010
1000
0000
0100
0000
,
0001
0000
0000
0000
0010
0000
0000
1000
0000
0000
0001
0000
0100
0000
0000
0000
,
0001
1000
0010
0000
0100
0000
0011
0000
,
0000
1100
0000
0000
0110
0000
0000
1001
,
0000
0000
0010
0000
1000
0000
0010
1000
,
0010
0000
0100
0001
0100
0000
0010
0100
,
0000
2002
3003
0000
0000
0000
0000
0000
;

//--------------- dance-single - XLev450X-ESP ----------------
#NOTES:
     dance-single:
     XLev450X:
     Hard:
     13:
     0,0,0,0,0:
0000
0000
0000
0000
,
0000
0000
0000
0000
,
0000
0000
0000
0000
0000
0000
0001
0100
,
1000
0001
0010
1000
0010
0000
0100
0000
,
0001
0100
1000
0001
1000
0010
0000
0000
,
0001
0000
1000
0000
0010
0000
0000
0100
0000
0000
0001
0000
0000
0000
0000
0000
,
1000
0010
1000
0000
0001
0000
0010
1000
,
0001
1000
0000
0010
0000
1000
0000
0001
,
0000
0000
0100
0000
1000
0000
0100
0000
0001
0100
1000
0000
0100
0000
0000
0000
,
0010
1000
0000
0001
0000
0202
0000
0303
,
0000
0010
0000
1000
0010
1000
0001
0000
,
0100
0000
1000
0000
0001
0000
0000
0010
0000
0000
1000
0000
0001
0000
0000
0000
,
1000
0010
1000
0000
0001
0000
0100
0000
,
1000
0000
0001
0000
1000
0000
0000
0010
0000
0000
0100
0000
1000
0000
0000
0000
,
0001
0000
1000
0000
0010
0000
0000
0000
0101
0000
0000
0000
0001
0000
0010
0100
,
0010
0000
0001
0000
1000
0001
1000
0000
1000
0000
0010
1000
0010
0000
1000
0100
,
0001
0220
0000
0000
0330
0000
0001
0000
,
1000
0000
0010
1000
0000
0001
0000
1000
,
0000
0001
0100
1000
0001
0000
0010
0000
,
1000
0100
1000
0001
0000
0100
0000
1000
,
0010
2200
3300
2002
0000
3003
0010
0000
,
0001
1000
0010
0001
0100
1000
0000
0001
,
0000
0000
0100
0000
1000
0100
0010
0001
0010
0100
1000
0000
0100
0000
0000
0000
,
0001
1000
0001
0010
0100
1000
0001
1000
,
0010
1000
0010
1000
0000
0001
0000
1000
,
0001
0100
0000
2200
0000
0000
0000
0000
,
0000
0000
0000
0000
0000
3300
0001
0000
,
1000
0000
0010
0100
1000
0100
0001
0000
,
1000
0000
0010
1000
0010
1000
0001
0000
,
1000
0000
0010
1000
0010
0000
0100
0000
,
1000
0000
0000
0000
0001
0100
1000
0000
0010
0000
1000
0000
0001
0000
0000
0000
,
0001
1000
0000
0001
1000
0000
0100
0000
,
0001
0000
1000
0000
0010
0000
1000
0001
0010
0000
0000
0000
1000
0000
0100
0001
,
0100
0000
1000
0000
0001
1000
0001
0000
1000
0000
0001
0010
0100
0000
1000
0100
,
0010
0001
0100
0000
0010
0000
1000
0100
,
1000
0001
0000
0100
0000
1000
0000
0010
,
0000
0000
1000
0000
0001
0000
0100
0000
1000
0100
0010
0000
0000
0000
0001
0100
,
1000
0000
0001
0000
0100
0000
0000
1000
0000
0000
0002
0000
0000
0000
1000
0000
,
0003
0000
0001
0100
1000
0000
0001
0000
0010
0000
0000
0000
1000
0000
0001
0000
,
0100
1000
0000
0101
0000
1010
0000
0010
,
0000
0000
1000
0000
0000
0000
0001
0100
1000
0000
0010
0000
0001
0000
0010
1000
,
0100
1000
0000
0001
1000
0010
0000
0100
,
0001
0000
1000
0100
0001
0010
1000
0100
0001
0010
0100
0010
1000
0000
0010
0000
,
1000
0100
1000
0001
0100
1000
0001
1000
,
0010
0000
0100
0000
0001
0000
1000
0000
0010
0001
2000
0000
0000
0000
3000
0000
,
0001
0000
1000
0000
0010
0000
0000
0100
0000
0000
1000
0000
0000
0001
0100
0000
,
1000
0200
0000
0000
0300
0000
0001
1000
,
0010
1000
0000
0001
0000
1000
0100
0010
,
0000
0000
0100
0000
0000
0000
1000
0100
0001
0000
1000
0000
0000
0000
0100
0000
,
0001
1000
0000
1010
0000
0202
0000
0303
,
0000
0001
0000
1000
0010
1000
0001
0100
,
1000
0000
0000
0000
0001
0000
0000
1000
0000
0000
0010
0000
0001
0000
1000
0000
,
0010
1000
0000
0001
0010
0001
0000
1000
,
0100
0000
1000
0000
0001
0010
0100
0000
1000
0000
0001
0000
0101
0000
0000
0000
,
1000
0010
0000
1000
0100
1000
0000
0001
,
0010
0000
1000
0000
0100
0000
0001
1000
0010
0000
0001
0000
1000
0000
0010
0000
,
0100
0002
1003
1000
0010
0100
0001
1000
,
0010
0000
0100
0000
1000
0000
0001
1000
0010
0000
0001
0100
1000
0000
0100
0000
,
0001
0110
0000
1100
0000
0011
0000
1000
,
0001
0000
0010
0000
1000
0000
0001
0000
0100
0000
0000
0000
0001
0000
1000
0100
,
0010
0000
0001
0000
0100
0000
0000
1000
0000
0000
0001
0000
0100
0000
0000
0000
,
0001
1000
0010
0000
0100
0000
1000
0000
,
0001
0000
1000
0000
0010
0000
0000
0100
0000
0000
1000
0000
0001
0000
0000
0000
,
0001
0000
1000
0000
0001
0000
1000
0001
0100
0010
0001
0100
1000
0000
0000
0000
,
0001
0100
0000
1000
0010
0000
1000
0001
,
0000
0000
0110
0000
0000
0000
1000
0000
0001
0000
1000
0000
0100
0000
0001
0100
,
1000
0000
0001
0000
0100
0001
1000
0000
0100
0000
0010
0001
1000
0000
0001
0000
,
0100
2002
3003
0000
0000
0000
0000
0000
;
